#TITLE:Skyrocketing;
#SUBTITLE:;
#ARTIST:JAKAZiD;
#TITLETRANSLIT:;
#SUBTITLETRANSLIT:;
#ARTISTTRANSLIT:;
#GENRE:;
#CREDIT:;
#BANNER:banner.png;
#BACKGROUND:bg.png;
#LYRICSPATH:;
#CDTITLE:;
#MUSIC:Skyrocketing.ogg;
#OFFSET:-0.309000;
#SAMPLESTART:39.871075;
#SAMPLELENGTH:16.941177;
#SELECTABLE:YES;
#BPMS:0.000000=170.000000
;
#STOPS:
;
#BGCHANGES:;
#KEYSOUNDS:;
#ATTACKS:;

//---------------dance-single - XO DS- FS-----------------
#NOTES:
     dance-single:
     :
     Challenge:
     17:
     0.901680,1.062432,0.107100,0.257040,1.071000,884.000000,869.000000,15.000000,36.000000,16.000000,0.000000,0.901680,1.062432,0.107100,0.257040,1.071000,884.000000,869.000000,15.000000,36.000000,16.000000,0.000000:
0000
0000
0000
0000
,
0000
0000
0000
0000
,
0000
0000
0000
0000
,
0000
0000
0000
0000
,
0000
0000
0000
0000
,
0000
0000
0000
0000
,
0000
0000
0000
0000
,
0000
0000
0000
0000
,
1001
0000
0001
0000
0100
0000
0001
0000
1000
0100
0010
0001
1000
0001
0010
0100
,
1000
0000
0001
0000
0100
0000
0001
0000
1000
0100
0000
1000
0100
0000
0010
0000
,
0001
0000
1000
0100
1000
0000
0010
0000
1000
0000
0001
0100
0001
0000
1000
0000
,
0010
0000
0100
0001
0100
0000
0010
0000
1000
0100
0000
1000
0100
0000
0010
0000
,
0011
0000
1000
0000
0100
0000
1000
0000
0001
0100
0010
1000
0001
1000
0010
0100
,
0001
0000
1000
0000
0100
0000
1000
0000
0001
0100
0000
0001
0100
0000
0010
0000
,
1010
0000
1000
0000
0001
0000
0001
0000
0010
0100
1000
0001
1000
0010
0100
0001
,
2000
0000
3000
0200
0000
0300
0020
0000
0030
0002
0000
0003
1000
0010
1000
0010
,
1000
0001
0010
0100
1000
0000
0001
0100
0000
0001
0010
0000
0100
1000
0100
0000
,
1000
0010
1000
0000
0001
0000
0100
0000
0001
0010
0001
0000
1000
0000
0100
0000
,
1000
0001
0010
0100
1000
0000
0001
0100
0000
0001
0010
0000
0100
1000
0100
0000
,
0010
0000
0100
0001
0000
0100
1000
0000
0001
0000
0001
0000
1000
0000
1000
0000
,
0001
1000
0010
0100
0001
0000
1000
0100
0000
1000
0010
0000
0100
0001
0100
0000
,
0001
0010
0001
0000
1000
0000
0100
0000
1000
0010
1000
0000
0001
0000
0100
0000
,
0001
1000
0010
0100
0001
0000
1000
0100
0000
1000
0010
0000
0100
0001
0100
0000
,
0010
0000
0100
1000
0000
0100
0001
0000
0101
0000
0000
1001
0000
0000
1100
0000
,
1000
0001
0010
0100
1000
0000
0001
0100
0000
0001
0010
0000
0100
2000
0000
0010
,
0000
3001
0010
0000
0100
2000
0000
0010
0000
3001
0010
0000
0100
1000
0100
0000
,
1000
0001
0010
0100
1000
0000
0001
0100
0000
0001
0010
0000
0100
1000
0100
0000
,
0010
0000
0100
0001
0000
0100
1000
0000
0001
0000
0001
0000
1000
0000
1000
0000
,
0001
1000
0010
0100
0001
0000
1000
0100
0000
1000
0010
0000
0100
0002
0000
0010
,
0000
1003
0010
0000
0100
0002
0000
0010
0000
1003
0010
0000
0100
0001
0100
0000
,
0001
1000
0010
0100
0001
0000
1000
0100
0000
1000
0010
0000
0100
0001
0100
0001
,
1000
0100
1000
0001
0100
0000
0001
0010
0M00
0010
1000
0001
0010
0001
0100
0000
,
0010
1000
0010
0000
1000
0001
0100
0001
0010
0000
0001
0010
0000
0001
0010
0000
,
0100
1000
0100
0000
0010
0000
0100
1000
0010
0000
0100
0000
0001
1000
0001
0000
,
0010
0001
0010
0000
0001
1000
0100
1000
0010
0000
1000
0010
0000
1000
0010
0000
,
0100
0000
1000
0100
0000
0001
0100
0000
0010
1000
0010
0000
1000
0200
0000
0000
,
0310
0001
0010
0000
0001
1000
0100
1000
0010
0000
1000
0010
0000
1000
0010
0000
,
0100
0001
0100
0000
0010
0000
0100
0001
0010
0000
0100
0000
1000
0001
1000
0000
,
0010
1000
0010
0000
1000
0001
0100
0001
0010
0000
0001
0010
0000
0001
1000
0000
,
0100
00M0
0100
0001
0000
1000
0000
0000
0001
0000
1000
0010
0100
0001
0100
0001
,
1000
0100
1000
0000
0001
0010
0100
1000
0010
0000
1000
0010
0000
1000
0010
0000
,
0100
0001
0100
0000
0010
0000
0100
0001
0010
0000
0100
0000
1000
0001
1000
0000
,
0001
0100
0001
0000
1000
0010
0100
0001
0010
0000
0001
0010
0000
0001
0010
0000
,
0100
0000
0001
0100
0000
1000
0100
0000
0010
0001
0010
0000
0001
0200
0000
0000
,
0301
0100
0001
0000
1000
0010
0100
0001
0010
0000
0001
0010
0000
0001
0010
0000
,
0100
1000
0100
0000
0010
0000
0100
1000
0010
0000
0100
0000
0001
1000
0002
0000
,
0010
0000
1003
0000
0001
0100
0002
0000
0010
0000
1003
0000
0001
0100
0001
0000
,
0010
0100
1000
0001
0100
0000
0001
0010
0M00
0010
1000
0001
0010
0001
0100
0000
,
M101
0000
0000
0000
0000
0000
1000
0000
0001
0010
0100
1000
0200
0000
0000
0000
,
0300
0000
0000
1000
0001
0100
2000
3000
,
0000
0000
0000
0000
MMMM
0000
0000
0000
0000
0000
1000
0000
0200
1000
0000
0310
,
0000
0000
0001
0000
0200
0001
0000
0310
0000
0000
2000
0000
0000
0000
0000
0000
,
0000
0000
0000
0000
3000
0000
0001
0000
1000
0010
0100
0001
0200
0000
0000
0000
,
0000
0000
0000
0000
0300
0000
0001
0000
0010
0M00
0010
0000
1000
0000
0002
0000
,
0000
0000
1003
0100
0000
0000
0010
0000
0001
0000
0100
0000
0001
0000
2000
0000
,
0000
0000
0000
3000
,
1001
0000
0000
0000
0000
0000
0001
0000
1000
0010
0100
0001
0200
0000
0000
0000
,
0000
0000
0300
0001
1000
0100
0002
0003
,
0110
0000
0000
0000
0000
0000
0000
0000
0000
0000
0001
0000
0200
0001
0000
0310
,
0000
0000
1000
0000
0200
1000
0000
0310
0000
0000
0002
0000
0000
0000
1003
0000
,
1001
0000
0000
0000
0000
0000
1000
0000
0001
0010
0100
1000
0200
0000
0300
0000
,
0110
0000
0000
0000
0000
0000
1000
0000
0010
0M00
0010
0000
0001
0000
1000
0000
,
0001
0100
0001
0100
0010
1000
0010
1000
0001
0010
0100
1000
0001
0100
0010
1000
,
0200
0000
0000
0020
0000
0330
1001
0000
,
1000
0010
1000
0000
0001
0000
0010
0000
0001
0000
0100
0000
0010
0000
1000
0000
,
0001
0010
0001
0000
1000
0000
0010
0000
1000
0000
0100
0000
0010
0000
0001
0000
,
1000
0001
0100
0000
0010
0000
1000
0000
0100
0000
1000
0000
0001
0000
0100
0000
,
0001
1000
0100
0000
0010
0000
0100
0000
0001
0000
0100
0010
0000
0100
0010
0000
,
0001
1000
0010
0000
0100
0001
0000
0100
0001
0000
1000
0100
0000
1000
0100
0000
,
0010
0001
1000
0000
0010
0100
0000
0010
0100
0000
0001
1000
0000
0001
1000
0000
,
0100
0010
0001
0000
1000
0010
0000
1000
0010
0000
0100
0001
0000
0100
0001
0000
,
1000
0100
0010
0000
0001
0100
0000
0001
0010
0000
0100
0001
0000
0100
1000
0000
,
0001
0100
0010
0000
1000
0100
0000
1000
0100
0000
1000
0010
0000
0100
0000
0001
,
1000
0001
0010
0000
0100
1000
0000
0100
1000
0000
0010
0100
0000
0001
0000
1000
,
0100
0010
0001
0000
0100
0001
0000
1000
0100
0000
0010
0001
0000
1000
0010
0000
,
0100
0001
1000
0000
0001
0100
0000
0001
0010
0000
0100
0000
1000
0010
1000
0000
,
0001
0010
0100
1000
0001
0010
0100
1000
0001
0010
0100
1000
00M2
0000
0000
0000
,
1003
0010
0100
0001
1000
0010
0100
0001
M010
0000
0100
1000
0000
0100
0010
0000
,
0001
0000
0100
0000
0001
0000
1000
0000
0100
0010
0001
1000
0010
1000
0100
1000
,
0001
0100
0001
1000
0100
0000
1000
0010
0M00
0010
0001
1000
0010
1000
0100
0000
,
0010
0000
0001
0000
0100
0000
0001
0000
1000
0010
0100
0001
0200
0000
0301
0000
,
1000
0100
0010
0100
1000
0001
0100
0010
,
1000
0000
0001
0010
0001
0000
1000
0000
0001
0010
0100
1000
0200
0000
1300
0000
,
0001
0100
0010
0100
0001
1000
0100
0010
,
0001
0000
1000
0010
1000
0000
0001
0000
1000
0010
0100
0001
0200
0000
0301
0000
,
1000
0000
0010
0000
1000
0000
0001
0000
0010
0M00
0010
0000
1000
0000
0001
0000
,
1000
0000
0100
0010
0100
0000
1000
0000
0001
0000
0100
0010
0100
0000
0001
0000
,
0010
0000
0100
0001
0000
0100
1000
0000
0001
1000
0100
0000
0010
0001
0100
0000
,
0010
0000
1000
0100
1000
0000
0001
0000
1000
0010
0100
0001
0200
0000
0301
0000
,
1000
0100
0010
0001
1000
0100
0001
0100
,
0010
0000
0001
0100
0001
0000
1000
0000
0010
0000
1000
0000
0200
1000
0000
0310
,
0000
0000
0001
0000
0200
0001
0000
0310
0000
0000
1000
0000
0100
0000
1000
0000
,
1001
0000
0001
0000
0010
0000
0001
0000
1000
0010
0100
0001
0200
0000
0301
0000
,
1001
0000
1000
0000
0001
0000
1000
0000
0010
0M00
0010
0000
0001
0000
1000
0000
,
0001
0100
0001
0100
0010
1000
0010
1000
0001
0010
0100
0010
0001
1000
0100
1000
,
0001
0100
0001
1000
0100
0000
1000
0010
0M00
0010
0001
1000
0010
1000
0100
0000
,
1100
0000
0000
0000
;

//---------------dance-single - ----------------
#NOTES:
     dance-single:
     :
     Hard:
     15:
     0.725220,0.856800,0.157080,0.185640,0.542640,711.000000,689.000000,22.000000,26.000000,0.000000,0.000000,0.725220,0.856800,0.157080,0.185640,0.542640,711.000000,689.000000,22.000000,26.000000,0.000000,0.000000:
0000
0000
0000
0000
,
0000
0000
0000
0000
,
0000
0000
0000
0000
,
0000
0000
0000
0000
,
0000
0000
0000
0000
,
0000
0000
0000
0000
,
0000
0000
0000
0000
,
0000
0000
0000
0000
,
0011
0000
0000
0000
1000
0000
0000
0000
0001
0100
0001
0000
1000
0100
1000
0000
,
0010
0000
0100
0000
0010
0000
1000
0000
0001
0010
0000
0001
0010
0000
0000
0000
,
0100
1000
0001
0000
0100
0001
1000
0000
,
0100
0000
1000
0000
0001
0000
0000
0000
1000
0010
0000
1000
0010
0000
0000
0000
,
1010
0000
0000
0000
0001
0000
0000
0000
1000
0100
1000
0000
0001
0100
0001
0000
,
0010
0000
0100
0000
0010
0000
0001
0000
1000
0010
0000
1000
0010
0000
0000
0000
,
0100
0000
0001
0000
0100
0000
0001
0000
1000
0100
0010
0001
1000
0001
0100
0010
,
2000
0000
3000
0002
0000
0003
2000
0000
3000
0200
0000
0300
0010
0001
0010
0001
,
1000
0000
0001
0000
0100
0000
0001
1000
0000
0001
1000
0000
0100
0000
0010
0000
,
0001
0010
0100
0010
0001
1000
0001
0100
,
0010
0000
1000
0000
0100
0000
1000
0001
0000
1000
0001
0000
0100
0000
0010
0000
,
1000
0000
0001
0010
0000
0001
1000
0000
0100
0000
1000
0000
0100
0000
1000
0000
,
0001
0000
0100
0000
0110
0000
1000
0001
0000
1000
0001
0000
0100
0000
0010
0000
,
1000
0010
0100
0010
1000
0001
1000
0100
,
0010
0000
0001
0000
0100
0000
0001
1000
0000
0001
1000
0000
0100
0000
0010
0000
,
0001
0000
1000
0010
0000
1000
0001
0000
0011
0000
0000
1001
0000
0000
1010
0000
,
0010
0000
0100
0000
0101
0000
1000
0100
0000
1000
0100
0000
0010
0001
0000
0100
,
0000
0001
1000
0000
0010
1000
0000
0100
0000
1000
0001
0000
0010
0001
0000
0000
,
0010
0000
0100
0000
1000
0000
0001
0100
0000
0001
0100
0000
0010
1000
0000
0000
,
0001
0000
0010
0100
0000
0010
0001
0000
1000
0000
0100
0000
1000
0000
0100
0000
,
1000
0000
0010
0000
1010
0000
0001
0100
0000
0001
0100
0000
0010
1000
0000
0100
,
0000
1000
0001
0000
0010
0001
0000
0100
0000
0001
1000
0000
0010
1000
0000
0000
,
0010
0000
0100
0000
0001
0000
1000
0100
0000
1000
0100
0000
0010
0001
0010
0001
,
2000
0000
3000
1001
,
0001
0000
0010
0000
0100
0000
1000
0000
0010
0000
0100
0001
0000
0001
0100
0000
,
0001
0000
1000
0000
0100
0000
0010
0000
1000
0000
0010
0000
0100
1000
0100
0000
,
1000
0000
0010
0000
0100
0000
0001
0000
0010
0000
0100
1000
0000
1000
0100
0000
,
0010
0000
0001
1000
0000
0010
1000
0000
0002
0000
0000
0000
0023
0000
0000
0000
,
0130
0000
1000
0000
0001
0000
0100
0000
0010
0000
1000
0001
0000
0001
1000
0000
,
0100
0000
1000
0000
0001
0000
0100
0000
1000
0000
0100
0000
0010
1000
0010
0000
,
0100
0000
0001
0000
1000
0000
0100
0000
0010
0000
0001
1000
0000
1000
0001
0000
,
0100
0000
0010
0100
0000
0010
0000
0000
1000
0000
0001
0100
0001
0100
0001
0000
,
0010
0100
1000
0000
1100
0000
0000
0000
0001
0000
1000
0010
0000
0010
1000
0000
,
0001
0000
0100
0000
0010
0000
0100
0000
1000
0000
0100
0000
0010
1000
0010
0000
,
0100
0000
0001
0000
1000
0000
0100
0000
1000
0000
0001
0010
0000
0010
0001
0000
,
1000
0000
0010
0100
0000
0010
1000
0000
0002
0000
0000
0000
0023
0000
0000
0000
,
0130
1000
0100
0000
0010
0000
0001
0000
0100
0000
0001
0000
1000
0000
0010
0000
,
0100
0001
0100
0000
0010
0000
1000
0000
0100
0000
1000
0000
0001
0000
0010
0000
,
0100
0000
1000
0000
0001
0010
0001
0000
0100
0000
0001
0000
1000
0010
1000
0000
,
0200
0000
0000
0310
,
1001
0000
0000
0000
0000
0000
0001
0000
0010
0000
0100
1000
0200
0000
0000
0000
,
0000
0000
0000
1300
0001
0100
2000
0000
,
0000
0000
0000
0000
0000
0000
0000
0000
0000
0000
3100
0000
0010
1000
0000
0001
,
0000
0000
0100
0000
0010
1000
0000
0001
0000
0000
0020
0000
0000
0000
0000
0000
,
0030
0000
0000
0000
0000
0000
0001
0000
0010
0000
0100
1000
0200
0000
0000
0000
,
0000
0000
0000
1300
0010
0010
0100
0002
,
0000
0000
0000
1003
0100
1000
0010
0200
,
0000
0000
0000
0300
,
1001
0000
0000
0000
0000
0000
1000
0000
0010
0000
0100
0001
0200
0000
0000
0000
,
0000
0000
0000
0301
1000
0100
0002
0003
,
0110
0000
0000
0000
0000
0000
0000
0000
0000
0000
0100
0000
0010
0001
0000
1000
,
0000
0000
0100
0000
0010
0001
0000
1000
0000
0000
0020
0000
0000
0000
0130
0000
,
0110
0000
0000
0000
0000
0000
1000
0000
0010
0000
0100
0001
0200
0000
0300
0000
,
1001
0000
0000
0001
0010
0010
0100
1000
,
1001
0000
0000
0001
0101
0000
0000
0000
,
1200
0000
0000
0320
0000
0000
0031
0000
,
1001
0001
0100
0001
1000
0001
0010
0100
,
1000
0100
0010
0001
0100
0001
1000
0010
,
1000
0100
0010
0001
0100
0010
0100
0001
,
1000
0000
0100
0000
0010
0000
0001
0000
1000
0000
0010
0100
0000
0010
1000
0000
,
0001
0000
0010
0000
0100
0000
0010
0000
0001
0000
1000
0010
0000
1000
0010
0000
,
0100
0000
0001
0000
0010
0000
0001
0000
1000
0000
0010
0100
0000
0010
0100
0000
,
0001
0000
0010
0000
0100
0000
1000
0000
0100
0000
0010
0001
0000
0010
0001
0000
,
1000
0000
0010
0000
0100
0000
0001
0000
0010
0000
0001
0100
0000
0001
1000
0000
,
0010
0000
0100
0000
0001
0000
0100
0000
0010
0000
0100
1000
0000
0100
0000
0010
,
1000
0000
0001
0000
0010
0000
0100
0000
1000
0000
0100
0001
0000
0100
0000
0010
,
0001
0000
1000
0000
0001
0000
0100
0000
0010
0000
1000
0001
0000
1000
0001
0000
,
0010
0000
0100
0000
1000
0000
0001
0000
1000
0000
0010
0100
0000
1000
0000
0100
,
0001
0000
1000
0000
0100
0010
0000
0100
1000
0000
0100
0010
0002
0000
0000
0000
,
1003
0000
0001
0000
0100
0010
0000
0100
1000
0000
0100
0010
0000
0100
0001
0000
,
1000
0000
0100
0000
0010
0000
0001
0000
1000
0010
1000
0010
0100
0001
0100
0002
,
2000
0000
3003
0110
,
1001
0000
1000
0000
0100
0000
0001
0000
0100
0010
0100
0000
1000
0000
0001
0000
,
0100
0001
0010
0100
1000
0100
0010
0001
,
1000
0000
0001
0000
0100
0000
1000
0000
0100
0010
0100
0000
0001
0000
1000
0000
,
0100
1000
0010
0100
0001
1000
0001
1000
,
0100
0000
1000
0000
0010
0000
0001
0000
0010
0100
0010
0000
1000
0000
0001
0000
,
0100
0010
1000
0001
0010
0010
0100
1000
,
0001
0000
0100
0010
0100
0000
0001
0000
1000
0000
0100
0010
0100
0000
1000
0000
,
0001
0000
0100
0010
0000
0100
0001
0000
1000
0000
0100
0000
0010
0001
0010
0000
,
0100
0000
1000
0000
0100
0000
0001
0000
1000
0000
0010
0100
0010
0000
0001
0000
,
0100
0010
1000
0001
0100
1000
0001
1000
,
0100
0000
0001
0000
1000
0000
0100
0000
0010
0000
0001
0000
1000
0010
0000
0100
,
0000
0000
0001
0000
1000
0010
0000
0100
0000
0000
0001
0000
0010
0000
0100
0000
,
1000
0000
0001
0000
0100
0000
1000
0000
0001
0000
0010
0100
0010
0000
1000
0000
,
0001
1000
0100
0001
1000
0001
0100
1000
,
0001
0100
0001
0100
0010
1000
0010
1000
0001
0010
0001
0010
0100
1000
0100
1000
,
0002
0000
0000
1003
,
0110
0000
0000
0000
;

//---------------dance-single - ----------------
#NOTES:
     dance-single:
     :
     Medium:
     12:
     0.559980,0.616896,0.114240,0.171360,0.082110,549.000000,533.000000,16.000000,24.000000,0.000000,0.000000,0.559980,0.616896,0.114240,0.171360,0.082110,549.000000,533.000000,16.000000,24.000000,0.000000,0.000000:
// measure 0
0000
0000
0000
0000
,  // measure 1
0000
0000
0000
0000
,  // measure 2
0000
0000
0000
0000
,  // measure 3
0000
0000
0000
0000
,  // measure 4
0000
0000
0000
0000
,  // measure 5
0000
0000
0000
0000
,  // measure 6
0000
0000
0000
0000
,  // measure 7
0000
0000
0000
0000
,  // measure 8
0001
0000
1000
0000
0001
0100
1000
0100
,  // measure 9
0001
0000
1000
0000
0100
0010
0100
0000
,  // measure 10
1000
0001
0100
0010
,  // measure 11
0100
0000
0001
0000
1000
0100
1000
0100
,  // measure 12
0010
0000
0001
0000
1000
0100
0001
0100
,  // measure 13
1000
0000
0001
0000
0100
0010
0100
0000
,  // measure 14
0001
1000
0001
1000
0001
1000
0001
1000
,  // measure 15
0200
0000
0000
0320
0000
0000
0031
1000
,  // measure 16
0001
0100
0010
0100
0001
0100
0010
1000
,  // measure 17
0100
1000
0001
0000
0100
0001
1000
0000
,  // measure 18
0001
0010
0100
0010
0001
0010
0100
1000
,  // measure 19
0001
0000
0000
0100
0000
0000
0010
0000
1000
0000
0001
0000
1000
0000
0001
0000
,  // measure 20
1000
0100
0010
0100
1000
0100
0010
0001
,  // measure 21
0100
0001
1000
0000
0100
1000
0001
0000
,  // measure 22
1000
0010
0100
0010
1000
0010
0100
0001
,  // measure 23
1000
0000
0000
0100
0000
0000
2000
0000
0001
0000
0000
0001
0000
0000
3001
0000
,  // measure 24
0100
0010
1010
0001
0010
0100
1000
0100
,  // measure 25
0010
0100
0001
0100
0010
0100
0001
0100
,  // measure 26
0010
0001
1000
0001
0100
0010
1000
0010
,  // measure 27
0100
0000
0000
0001
0000
0000
0010
0000
0100
0000
1000
0000
0100
0000
1000
0000
,  // measure 28
0010
0100
0101
1000
0001
1000
0010
0100
,  // measure 29
1000
0100
0010
0100
1000
0100
0010
1000
,  // measure 30
0001
0010
0100
1000
0100
0010
0001
0001
,  // measure 31
2000
0000
0000
3001
,  // measure 32
0001
0000
0100
0000
0001
0000
0010
0000
0100
0000
0000
1000
0000
0000
0100
0000
,  // measure 33
0010
0001
1000
0001
0100
0010
0020
0000
,  // measure 34
1030
0000
0100
0000
1000
0000
0010
0000
0100
0000
0000
0001
0000
0000
0100
0000
,  // measure 35
0010
0000
0000
0010
0000
0000
0010
0000
1000
0000
0100
0000
1000
0000
0001
0000
,  // measure 36
0100
0000
0010
0000
1000
0000
0100
0000
1000
0000
0000
0001
0000
0000
1000
0000
,  // measure 37
0010
0100
0001
0010
0100
1000
1000
0000
,  // measure 38
0100
0000
0010
0000
0001
0000
0100
0000
0001
0000
0000
1000
0000
0000
0001
0000
,  // measure 39
0010
0000
0000
0110
0000
0000
0000
0000
0001
0000
0100
0000
0001
0000
0100
0000
,  // measure 40
0010
1000
1100
0001
0100
0010
1000
0010
,  // measure 41
0100
0001
0010
0001
1000
0010
0010
0000
,  // measure 42
1000
0001
0100
0001
0010
0100
0010
0001
,  // measure 43
1000
0000
0000
1000
0000
0000
1000
0000
0010
0000
0100
0000
0010
0000
0100
0000
,  // measure 44
0001
1000
1010
0001
0100
0010
1000
0100
,  // measure 45
1000
0001
0100
0010
1000
0001
0001
0000
,  // measure 46
0010
0100
1000
0000
0010
0100
0001
0000
,  // measure 47
1001
0000
0000
0000
,  // measure 48
1001
0000
0000
1000
0100
0010
0002
0000
,  // measure 49
0003
0000
0000
1000
0100
1000
0020
0000
,  // measure 50
0030
0000
0000
0000
0000
0000
0000
0000
0000
0000
0100
0000
0001
0000
0000
0010
,  // measure 51
0000
0000
0001
0000
1000
0000
0000
0010
0000
0000
1000
0000
0000
0000
0000
0000
,  // measure 52
0000
0000
0000
0001
0100
0010
2000
0000
,  // measure 53
3000
0000
0000
0001
0010
0100
1000
0002
,  // measure 54
0000
0003
0000
1000
0001
1000
0010
0200
,  // measure 55
0000
0000
0000
0300
,  // measure 56
1001
0000
0000
0001
0010
0100
2000
0000
,  // measure 57
3000
0000
0000
0001
0100
0001
0020
0030
,  // measure 58
1001
0000
0000
0000
0000
0000
0000
0000
0000
0000
0001
0000
1000
0000
0000
0010
,  // measure 59
0000
0000
1000
0000
0001
0000
0000
0010
0000
0000
0001
0000
0000
0000
1000
0000
,  // measure 60
1010
0000
0000
0001
0010
0100
1000
0000
,  // measure 61
1001
0000
0000
0001
0100
0010
1000
0001
,  // measure 62
0011
0000
0000
1000
1100
0000
0000
0000
,  // measure 63
2002
0000
0000
3003
,  // measure 64
0001
0100
0001
0100
0010
1000
0001
0000
,  // measure 65
1000
0100
1000
0100
0010
0001
1000
0000
,  // measure 66
0010
0100
0001
0100
0010
0100
0001
0000
,  // measure 67
0010
0100
1000
0100
0010
0100
1000
0000
,  // measure 68
0001
0000
0101
0000
1000
0100
1000
0100
,  // measure 69
0010
0001
0100
0001
1000
0010
0100
0000
,  // measure 70
0001
0010
0100
1000
0100
0010
0001
0000
,  // measure 71
1000
0000
0010
0000
1000
0000
0010
0000
0100
0000
0000
0001
0000
0000
1000
0000
,  // measure 72
0001
0000
0010
0000
0001
0000
0010
0000
0100
0000
0000
1000
0000
0000
0001
0000
,  // measure 73
0100
0000
0010
0000
0100
0000
0001
0000
1000
0000
0000
0100
0000
0000
0010
0000
,  // measure 74
0001
0000
0100
0000
0010
0000
0100
0000
0001
0000
0000
1000
0000
0000
0100
0000
,  // measure 75
0010
0000
0100
0000
1000
0000
0010
0000
1000
0000
0000
0001
0000
0000
0100
0000
,  // measure 76
0010
1000
0010
1000
0001
0010
0200
0000
,  // measure 77
1300
0000
0010
0000
1000
0000
0010
0000
0200
0300
0000
0002
0003
0000
2000
3000
,  // measure 78
0100
0000
0010
0000
0001
1000
0001
1000
,  // measure 79
0002
0000
0000
0000
,  // measure 80
1003
0000
0001
1000
0100
0001
0100
1000
,  // measure 81
0010
0100
0001
0000
1000
0100
1000
0000
,  // measure 82
0001
0000
1000
0001
0100
1000
0100
0001
,  // measure 83
0010
0100
1000
0000
0001
0100
0001
0000
,  // measure 84
1000
0000
0001
0010
0100
0001
0100
1000
,  // measure 85
0001
0100
0010
1000
1000
0001
0010
0100
,  // measure 86
2000
0010
3002
0010
,  // measure 87
2003
0000
0000
0000
,  // measure 88
3001
0100
0001
1000
0100
0001
0100
1000
,  // measure 89
0010
0100
0001
1000
0100
0001
1000
0010
,  // measure 90
0001
0000
1000
0000
0010
0000
0100
0000
0001
0000
1000
0000
0001
0000
0000
0010
,  // measure 91
0000
0000
0001
0000
1000
0000
0000
0010
0000
0000
1000
0000
0001
0000
0000
0000
,  // measure 92
1000
0100
1000
0001
0100
1000
0100
0001
,  // measure 93
0010
0100
1000
0100
0001
1000
0010
0001
,  // measure 94
1000
0010
1000
0010
0100
0001
0100
0002
,  // measure 95
2000
0000
0000
3003
,  // measure 96
0110
0000
0000
0000
;

//---------------dance-single - ----------------
#NOTES:
     dance-single:
     :
     Easy:
     7:
     0.340680,0.411264,0.085680,0.249900,0.000000,334.000000,322.000000,12.000000,35.000000,0.000000,0.000000,0.340680,0.411264,0.085680,0.249900,0.000000,334.000000,322.000000,12.000000,35.000000,0.000000,0.000000:
0000
0000
0000
0000
,
0000
0000
0000
0000
,
0000
0000
0000
0000
,
0000
0000
0000
0000
,
0000
0000
0000
0000
,
0000
0000
0000
0000
,
0000
0000
0000
0000
,
0000
0000
0000
0000
,
1000
0001
0020
0230
,
1300
1000
0001
0001
,
0010
0010
0100
0100
,
1000
1000
0001
0100
,
0001
1000
0020
0230
,
0301
0001
1000
1000
,
0010
0010
0100
0100
,
0002
0000
0000
0000
0000
0000
1003
0001
,
1000
0100
0010
0001
,
0100
0001
0100
0001
,
1000
0100
0010
0001
,
0200
0000
0310
1000
,
0001
0100
0010
1000
,
0100
1000
0100
1000
,
0001
0100
0010
1000
,
0001
0000
0000
0001
2000
0000
0000
0000
,
3001
0100
0010
1000
,
0100
1000
0100
1000
,
0001
0100
0010
1000
,
0200
0000
0310
0001
,
1000
0100
0010
0001
,
0100
0001
0100
0001
,
1000
0100
0010
0001
,
0100
0100
0100
0002
,
1003
0100
1000
1000
,
0001
0100
0010
1000
,
0001
0100
0001
0001
,
1000
0100
0010
0001
,
0100
0010
0100
0100
,
0001
1000
0010
1000
,
0100
0010
0100
0100
,
1000
0001
0020
0000
,
0130
1000
0001
0001
,
0100
0010
1000
0001
,
0100
0001
1000
1000
,
0100
0010
0001
0001
,
1000
0010
0100
0100
,
0001
0010
0100
0100
,
1000
0001
1000
0001
,
0200
0000
0000
0300
,
0110
0000
0000
1000
0002
0000
0003
0000
,
0000
0000
0000
1000
0200
0000
0310
0000
,
0000
0000
0000
0000
0000
0001
1000
0000
,
0100
0010
0001
1000
,
0000
0000
0000
0001
2000
0000
3000
0000
,
0000
0000
0000
0001
0200
0000
0310
0000
,
0000
0000
0000
1000
0001
0000
0010
0000
,
0200
0000
0000
0300
,
1001
0000
0000
0001
2000
0000
3000
0000
,
0000
0000
0000
0001
0200
0000
0310
0000
,
0110
0000
0000
0000
0000
1000
0001
0000
,
0100
0010
1000
0001
,
1001
0000
0000
1000
0002
0000
0003
0000
,
1001
0000
0000
1000
0200
0000
0310
0000
,
0011
0000
1010
0001
,
2002
0000
0000
3003
0000
0000
0110
0000
,
1001
1000
0100
0100
,
0010
0010
0001
0001
,
1000
0010
0100
0010
,
1000
0001
0010
0100
,
1000
0001
0100
0001
,
0010
0100
1000
0100
,
0010
0001
0100
0001
,
1000
0010
0100
0001
,
1000
0001
0100
1000
,
0100
0010
0100
1000
,
0100
0001
1000
0100
,
0010
0100
0001
0100
,
0010
0001
1000
0020
,
0130
0001
1000
0100
,
0010
0001
0010
0001
,
2000
0000
0000
0000
,
3001
0000
1000
0100
2000
0000
3000
0000
,
0001
0100
0010
1000
,
0010
0000
0100
0001
0200
0000
0300
0000
,
0001
1000
0100
0010
,
0001
0000
1000
0010
2000
0000
3000
0000
,
0100
0000
0010
0001
0010
0000
0100
0000
,
1000
0001
0100
0010
,
2000
0000
0000
3001
,
1000
0000
0001
0100
0002
0000
0003
0000
,
1000
0000
0001
0010
0001
0000
2000
0000
,
3010
0100
0001
2000
,
3100
2000
3100
0010
,
0001
0000
1000
0010
2000
0000
3000
0000
,
0001
0000
0010
0100
0010
0000
0001
0000
,
1000
0010
0100
0001
,
2002
0000
0000
3003
,
0110
0000
0000
0000
;

//---------------dance-single - ----------------
#NOTES:
     dance-single:
     :
     Beginner:
     2:
     0.120360,0.171360,0.014280,0.135660,0.000000,118.000000,116.000000,2.000000,19.000000,0.000000,0.000000,0.120360,0.171360,0.014280,0.135660,0.000000,118.000000,116.000000,2.000000,19.000000,0.000000,0.000000:
0000
0000
0000
0000
,
0000
0000
0000
0000
,
0000
0000
0000
0000
,
0000
0000
0000
0000
,
0000
0000
0000
0000
,
0000
0000
0000
0000
,
0000
0000
0000
0000
,
0000
0000
0000
0000
,
1000
0000
0000
0000
,
0010
0000
0000
0000
,
0100
0000
0000
0000
,
0001
0000
0000
0000
,
1000
0000
0000
0000
,
0100
0000
0000
0000
,
0010
0000
0000
0000
,
0002
0000
0000
1003
,
0001
0000
0100
0000
,
0001
0000
0000
0000
,
1000
0000
0100
0000
,
1000
0000
0000
0000
,
0001
0000
0010
0000
,
0001
0000
0000
0000
,
1000
0000
0010
0000
,
1000
0000
0000
0000
,
0001
0000
0100
0000
,
0001
0000
0100
0000
,
0010
0000
1000
0000
,
0010
0000
0000
0000
,
1000
0000
0100
0000
,
1000
0000
0100
0000
,
0010
0000
0001
0000
,
0010
0000
0000
0000
,
1001
0000
0000
0000
,
0001
0000
0000
0100
,
0010
0000
0000
0000
,
1000
0000
0000
0000
,
0001
0000
0000
0000
,
1000
0000
0000
0100
,
0010
0000
0000
0000
,
0001
0000
0000
0000
,
1000
0000
0010
0000
,
1000
0000
0000
0001
,
1000
0000
0100
0000
,
1000
0000
0000
0000
,
0001
0000
0010
0000
,
0001
0000
0000
1000
,
0001
0000
0100
0000
,
0001
0000
0000
0000
,
2000
0000
0000
0000
,
0000
0000
0000
0000
,
0000
0000
0000
0000
,
0000
0000
0000
0000
,
3200
0000
0000
0000
,
0000
0000
0000
0000
,
0000
0000
0000
0000
,
0000
0000
0000
0000
,
0320
0000
0000
0000
,
0000
0000
0000
0000
,
0032
0000
0000
0000
,
0000
0000
0000
0000
,
2003
0000
0000
0000
,
3020
0000
0000
0000
,
0230
0000
0302
0000
,
2000
0000
0000
3003
,
1000
0000
0100
0000
,
1000
0000
0000
0000
,
0001
0000
0100
0000
,
0001
0000
0000
0000
,
1000
0000
0010
0000
,
0100
0000
0000
0000
,
0001
0000
0010
0000
,
0100
0000
0000
0000
,
1000
0000
0001
0000
,
1000
0000
0000
0000
,
0010
0000
0100
0000
,
0010
0000
0000
0000
,
2000
0000
0000
0000
,
3002
0000
0000
0000
,
0013
0000
0100
0000
,
0110
0000
0000
0000
,
2000
0000
3100
0000
,
0010
0000
0000
0000
,
0002
0000
0103
0000
,
0010
0000
0000
0000
,
2000
0000
3001
0000
,
0010
0000
0000
0000
,
0002
0000
1003
0000
,
0010
0000
0000
0000
,
2000
0000
0100
0000
,
0000
0000
3010
0000
,
1000
0000
0000
0000
,
0001
0000
0010
0000
,
0002
0000
0100
0000
,
0000
0000
0013
0000
,
0001
0000
1000
0000
,
0020
0000
0000
0000
,
0130
0000
0000
0000
;
