#VERSION:0.83;
#TITLE:Skreaming for Salvation;
#SUBTITLE:;
#ARTIST:RoughSkreamZ;
#TITLETRANSLIT:;
#SUBTITLETRANSLIT:;
#ARTISTTRANSLIT:;
#GENRE:;
#ORIGIN:;
#CREDIT:;
#BANNER:Skreaming for Salvation-banner.avi;
#BACKGROUND:Skreaming for Salvation-bg.png;
#PREVIEWVID:;
#JACKET:Skreaming for Salvation-jacket.avi;
#CDIMAGE:Skreaming for Salvation-jacket.png;
#DISCIMAGE:Skreaming for Salvation-banner.png;
#LYRICSPATH:Skreaming for Salvation.lrc;
#CDTITLE:;
#MUSIC:Skreaming for Salvation.ogg;
#OFFSET:-0.010625;
#SAMPLESTART:23.980305;
#SAMPLELENGTH:9.720011;
#SELECTABLE:YES;
#BPMS:0.000=200.000;
#STOPS:;
#DELAYS:;
#WARPS:;
#TIMESIGNATURES:0.000=4=4;
#TICKCOUNTS:0.000=4;
#COMBOS:0.000=1;
#SPEEDS:0.000=1.000=0.000=0;
#SCROLLS:0.000=1.000;
#FAKES:;
#LABELS:0.000=Song Start;
#BGCHANGES:0.000=Skreaming for Salvation.avi=1.000=0=0=1=====,
99999=-nosongbg-=1.000=0=0=0 // don't automatically add -songbackground-
;
#KEYSOUNDS:;
#ATTACKS:
;

//---------------dance-single - ----------------
#NOTEDATA:;
#CHARTNAME:;
#STEPSTYPE:dance-single;
#DESCRIPTION:;
#CHARTSTYLE:;
#DIFFICULTY:Challenge;
#METER:17;
#RADARVALUES:0.958716,1.038004,0.321993,0.550777,0.571961,792.000000,754.000000,38.000000,65.000000,0.000000,0.000000,0.000000,0.000000,0.000000,0.958716,1.038004,0.321993,0.550777,0.571961,792.000000,754.000000,38.000000,65.000000,0.000000,0.000000,0.000000,0.000000,0.000000;
#CREDIT:Ben Speirs;
#NOTES:
// measure 0
0000
0000
0000
0000
,  // measure 1
0000
0000
0000
0000
,  // measure 2
0000
0000
0000
0000
,  // measure 3
1001
0000
0000
0000
0001
1000
0001
1000
0001
0000
1000
0000
0100
0000
0010
0000
,  // measure 4
0001
0000
0100
0000
0010
1000
0001
1000
0010
0000
0100
0000
0001
0000
1000
0000
,  // measure 5
0100
0100
0010
0001
1000
0000
0001
0100
,  // measure 6
1000
0100
0002
0000
1003
0100
0010
0001
,  // measure 7
0100
0000
0001
0010
0100
0000
1000
0000
0010
0000
0100
0000
0001
0000
0000
0000
,  // measure 8
1000
0000
0010
0000
0100
0001
1000
0001
0100
0000
0010
0000
1000
0000
0001
0000
,  // measure 9
0010
0010
0100
1000
0001
0000
1000
0010
,  // measure 10
0001
0000
0010
0000
2000
0000
0000
0000
3001
0000
1000
0100
0010
0000
0001
0000
,  // measure 11
1000
0010
0200
0000
0301
0001
1000
1000
,  // measure 12
0020
0000
0100
0000
0130
0000
0001
1000
,  // measure 13
0200
0000
1300
0002
0100
0000
0013
0000
,  // measure 14
0011
0000
2000
0000
3100
0100
0010
0001
,  // measure 15
0200
0000
0000
0000
3301
0000
1000
0000
0000
0000
0001
0010
0100
1000
0001
1000
,  // measure 16
0010
0000
0100
0001
0100
0000
0010
0000
1000
0000
0001
0010
0001
0000
1000
0000
,  // measure 17
0100
0000
1000
0010
1000
0000
0010
0000
0100
0000
0001
1000
0001
0000
0100
0000
,  // measure 18
0010
1000
0100
0000
0010
0001
0100
0000
0001
0010
0100
1000
0010
0100
0001
1000
,  // measure 19
0002
0000
0000
2000
0000
0000
3003
0000
,  // measure 20
1001
0000
0000
0000
0101
0000
0000
0000
1001
0000
0000
0000
1100
0000
1000
0100
,  // measure 21
0010
0001
0100
0100
0010
1000
0001
0000
,  // measure 22
1000
0100
1000
0000
0001
0100
0301
0000
1000
0100
0010
0000
0001
0100
0010
0000
,  // measure 23
1000
0000
0000
0000
0001
0100
0001
0000
1000
0000
0100
0000
1333
0000
0001
0000
,  // measure 24
0101
0100
0010
0000
1001
0000
1100
0000
,  // measure 25
1001
0000
0000
0000
0101
0000
0000
1000
0100
0000
0000
0000
1000
0000
0001
1000
,  // measure 26
0010
0000
1010
0000
1001
1000
0100
0000
,  // measure 27
1000
0000
0001
0000
0100
0000
0000
0000
0001
0010
0000
0100
1000
0000
0000
0000
,  // measure 28
0001
0100
0001
0000
1000
0000
0000
0000
1010
0000
0000
0000
1001
0000
0001
0003
,  // measure 29
0100
0000
0101
0000
1000
0200
0301
0200
,  // measure 30
1300
0000
0010
0100
0001
0000
0000
0000
1000
0000
0100
0000
0010
0001
1000
0001
,  // measure 31
0200
0000
0310
0010
1000
0100
0010
0001
,  // measure 32
0100
0000
0000
0000
0101
0000
0000
0000
1000
0000
0000
0000
1100
0000
0100
0010
,  // measure 33
0001
0000
0000
0000
0101
0000
0000
0000
1000
0000
0001
1000
0010
0000
1000
0001
,  // measure 34
0010
0000
0100
0000
1000
0000
0010
0000
0100
0001
1000
0100
0010
0001
1000
0001
,  // measure 35
0200
0300
0020
0030
0200
0300
0020
0030
2002
0000
0000
0000
0000
0000
3003
0000
,  // measure 36
0001
0000
0100
0000
0010
0000
1000
0000
0001
0010
0100
0000
1000
0010
0100
0000
,  // measure 37
0001
0000
1000
0000
0100
0000
0010
0000
0001
1000
0010
0000
1000
0001
0010
0100
,  // measure 38
1000
0000
0010
0000
0100
0000
0001
0000
1000
0100
0010
0000
0001
0100
0010
0000
,  // measure 39
1000
0000
0001
0000
0010
0000
0001
1000
0001
0000
0100
0000
0010
0000
1000
0000
,  // measure 40
0001
0100
0010
0100
0001
0000
1000
0000
0100
0010
0001
0000
0100
0010
1000
0000
,  // measure 41
1010
0000
0010
0000
0100
0000
0001
0000
1000
0100
0010
0100
1000
0000
0001
0000
,  // measure 42
0101
0110
1010
1001
,  // measure 43
1000
0100
0010
0001
0100
0010
1000
0001
2000
0000
0000
0000
3001
0000
0000
0000
,  // measure 44
0002
0000
0103
0010
0103
0000
0002
0000
0013
0100
0010
0000
0002
0000
0103
0010
,  // measure 45
0100
0000
0002
0000
0013
0100
0010
0000
0001
0000
1000
0000
0010
0000
0010
0000
,  // measure 46
2000
0000
3010
0100
3010
0000
2000
0000
3100
0010
0100
0000
2000
0000
3010
0100
,  // measure 47
0010
0000
2000
0000
3100
0010
0100
0000
1000
0000
0001
0000
0100
0000
0100
0000
,  // measure 48
0002
0000
1003
0100
0010
0000
0002
0000
0103
0010
0100
0000
0002
0000
1003
0100
,  // measure 49
0010
0000
0002
0000
0103
0010
0100
0000
0001
0000
0010
0000
0100
0000
0100
0000
,  // measure 50
2000
0000
3001
0010
0100
0000
2000
0000
3010
0100
0010
0000
2000
0000
3001
0010
,  // measure 51
0100
0000
2000
0000
3010
0100
0010
0000
1000
0000
0100
0000
0001
0000
0100
0000
,  // measure 52
2000
0000
0001
0000
,  // measure 53
0000
0000
0001
0000
,  // measure 54
3020
0000
0100
0000
,  // measure 55
1030
0000
0000
0000
0001
1000
0001
1000
0001
0000
0010
0000
0100
0000
1000
0000
,  // measure 56
1200
0000
0010
0000
3301
0100
1000
0010
,  // measure 57
0100
1000
0100
0001
0010
0100
1000
0010
,  // measure 58
2010
0030
3001
0000
0201
0000
0310
0000
,  // measure 59
1002
0000
0013
0100
2000
0000
3002
0000
,  // measure 60
0103
0000
0010
0000
1000
0100
0010
0001
1000
0000
0001
0000
0100
0000
0001
0000
,  // measure 61
1000
1000
0100
0010
0001
0001
0100
0010
,  // measure 62
1000
0000
0001
0100
0001
1000
0100
1000
0001
0000
0010
0000
0100
0000
1000
0000
,  // measure 63
0010
0010
0100
0001
1000
0100
0010
0001
,  // measure 64
0021
0000
0100
0000
1033
0010
0001
0100
,  // measure 65
0010
0001
0010
1000
0100
0010
0001
0100
,  // measure 66
0102
0300
1003
0000
1020
0000
0130
0000
,  // measure 67
2001
0000
3100
0100
0320
0000
0031
1000
,  // measure 68
3010
0000
0100
0000
0001
0010
0100
1000
0001
0000
1000
0000
0010
0000
1000
0000
,  // measure 69
0001
0100
0001
0000
0010
0000
0100
0000
1000
0010
1000
0000
0010
0000
0100
0000
,  // measure 70
0001
0000
1000
0010
1000
0001
0010
0001
1000
0000
0100
0000
0010
0000
0001
0000
,  // measure 71
1000
0100
0001
1000
0010
0001
0100
0010
,  // measure 72
1000
0100
1000
0100
1000
0100
1000
0100
,  // measure 73
0010
0100
0010
0100
0001
0100
0001
0100
,  // measure 74
1000
0010
0100
0000
0001
0000
1000
0000
0001
0010
0100
0000
1000
0000
0010
0000
,  // measure 75
0200
0000
0010
0020
0000
0000
0330
0000
,  // measure 76
1001
0000
0001
0100
0010
0000
1000
0100
0010
0000
0001
0010
0100
0000
1000
0010
,  // measure 77
0100
0000
0001
0100
0010
0000
1000
0100
0010
0000
0001
0000
0100
0000
0100
0000
,  // measure 78
0100
0000
0001
0100
0010
0000
1000
0100
0010
0000
0001
0010
0100
0000
1000
0010
,  // measure 79
0100
0000
0100
0000
0100
0000
0001
0000
1000
0000
1000
0100
0010
0000
0001
0000
,  // measure 80
0100
0000
0001
0100
0010
0000
0100
0010
1000
0000
0010
1000
0100
0000
1000
0100
,  // measure 81
0010
0000
0100
0013
0001
0000
1000
0000
0001
0100
0000
0100
0010
0000
0010
0000
,  // measure 82
1000
0000
0100
0010
0001
0000
0010
0001
0100
0000
0001
0100
0010
0000
0100
0010
,  // measure 83
1000
1000
1000
0001
1000
0100
0001
0100
,  // measure 84
0010
0000
0010
0000
0010
0000
0001
0100
0010
0000
1000
0100
0010
0000
0001
1000
,  // measure 85
0010
0000
1000
0001
0100
0000
0001
0010
0100
0000
1000
0010
0100
0000
0001
0100
,  // measure 86
0001
0000
1000
0001
0010
0000
0001
1000
0100
0000
1000
0010
0100
0000
0001
0000
,  // measure 87
0100
0100
0100
0002
2000
0000
0000
3003
,  // measure 88
1100
0000
0000
0000
0100
0010
0001
0000
0000
0000
0001
0100
0010
0000
0010
0000
,  // measure 89
1000
0000
1000
0000
0001
0000
0000
0000
1000
0100
0000
0010
0001
0000
0100
0000
,  // measure 90
0202
0000
0303
0220
0000
0330
2010
0000
,  // measure 91
3002
0023
2030
3020
,  // measure 92
0031
0000
0100
0000
0010
1000
0001
1000
0010
0000
0100
0000
0001
0000
1000
0000
,  // measure 93
0100
0100
0010
0001
1000
0000
0001
0100
,  // measure 94
1000
0100
0020
0000
1033
0100
0010
0001
,  // measure 95
1000
0010
0001
1000
0100
0001
0010
0200
,  // measure 96
2000
0000
0000
0000
,  // measure 97
0000
0000
0000
0300
,  // measure 98
3000
0000
0000
0000
;

//---------------dance-single - ----------------
#NOTEDATA:;
#CHARTNAME:;
#STEPSTYPE:dance-single;
#DESCRIPTION:;
#CHARTSTYLE:;
#DIFFICULTY:Hard;
#METER:15;
#RADARVALUES:0.815877,0.871923,0.364360,0.423675,0.203364,674.000000,631.000000,43.000000,50.000000,0.000000,0.000000,0.000000,0.000000,0.000000,0.815877,0.871923,0.364360,0.423675,0.203364,674.000000,631.000000,43.000000,50.000000,0.000000,0.000000,0.000000,0.000000,0.000000;
#CREDIT:Ben Speirs;
#NOTES:
0000
0000
0000
0000
,
0000
0000
0000
0000
,
0000
0000
0000
0000
,
2010
0000
3002
0000
0103
0010
0100
0010
,
1000
0000
0100
0000
1000
0001
1000
0000
0010
0000
0010
0000
0100
0000
0001
0000
,
1000
0100
0010
0001
1000
0000
0001
0100
,
1000
0100
0020
0000
2030
0000
3001
0010
,
0100
0000
1000
0000
0010
0000
0100
0000
0001
0000
1000
0001
1000
0000
0000
0000
,
0001
0000
0010
0000
0001
1000
0001
0000
0100
0000
0100
0000
0010
0000
1000
0000
,
0001
0010
0100
1000
0001
0000
1000
0010
,
0001
0010
0200
0000
0302
0000
1003
0020
,
0000
0130
0001
1000
0100
0100
0010
0001
,
0201
0000
0010
0000
0310
0000
1000
0001
,
2000
0000
3001
0010
0100
0000
1001
0000
,
2100
0000
3002
0000
1003
0010
0100
0001
,
0020
0000
0130
2000
0002
0000
3003
0000
,
1000
0000
0001
0100
0001
0000
1000
0000
0100
0000
0010
0000
0001
0000
0100
0000
,
0010
0000
1000
0001
1000
0000
0010
0000
0100
0000
0001
0000
0010
0000
0100
0000
,
1000
0100
1000
0000
0100
0010
0100
0000
0010
0000
0001
0000
1000
0000
0001
0000
,
0200
0000
0000
0020
0000
0000
0330
0000
,
1001
0000
0000
0000
1001
0000
0000
0000
0110
0000
0000
0000
0001
0000
1000
0010
,
1000
0001
0100
0100
0010
1000
0001
0000
,
0001
0010
0001
0000
1000
0100
1030
0000
0001
0000
0010
0000
1000
0000
0010
0000
,
0002
0000
0203
0000
0310
1000
0001
0000
,
1000
0100
0010
0000
0011
0000
0011
0000
,
1100
0000
0000
0000
1100
0000
0000
0001
0100
0000
0000
0000
0001
0000
1000
0001
,
1000
0000
1010
0000
0001
0010
0100
0000
,
1000
0000
0001
0000
0100
0000
0000
0000
0001
0010
0000
0100
1000
0000
0000
0000
,
0001
1000
0001
0000
1000
0000
0000
0000
0101
0000
0000
0000
0001
0000
1000
3000
,
0010
0000
1010
0000
0001
2000
3130
2000
,
3130
0000
0010
0001
0010
0000
0000
0000
0001
0000
0100
0000
0001
1000
0001
1000
,
0010
0000
0000
0000
,
2001
0000
0000
0000
3010
3000
0000
0000
1002
0000
0000
0000
0013
0000
0000
0000
,
2001
3100
1002
0103
,
0001
0010
0100
1000
0010
0001
0010
1000
,
0002
0000
2000
3003
,
1000
0000
0100
0000
0010
0000
0001
0000
1000
0010
1000
0000
0001
0000
0100
0000
,
0010
1000
0010
1000
0100
0010
0001
0001
,
1000
0000
0010
0000
1000
0000
0100
0000
0010
0001
0010
0000
0001
0000
0100
0000
,
0010
0000
1000
0000
0010
0000
1000
0001
1000
0000
0000
0000
0001
0000
1000
0000
,
0010
0000
0010
0000
0010
0000
0000
0000
1000
0010
1000
0000
0001
0000
0100
0000
,
0101
0000
0000
0000
1000
0000
0100
0000
0010
0000
0001
1000
0001
0000
1000
0000
,
1010
1100
0011
0101
,
1000
0000
0001
0000
0100
0000
0010
1000
0001
0000
0000
0000
0000
0000
0000
0000
,
2000
0100
3100
0020
0001
0031
1000
0001
,
0100
0010
0100
1000
0100
0010
1000
1000
,
0002
0010
0013
0200
1000
1300
0001
1000
,
0010
0100
0010
0001
0010
0100
0001
0001
,
1000
0100
1000
0001
0100
0001
1000
0010
,
0100
0001
0010
0100
0010
1000
0010
0010
,
0001
0010
0001
1000
0010
1000
0001
0100
,
0010
1000
0100
0010
0100
0001
0100
1000
,
0002
0000
0100
0000
,
0000
0000
0100
0000
,
2003
0000
3100
0000
,
1001
0000
0001
1000
0010
0100
0010
0100
,
0102
1000
0010
1003
,
0001
0010
0100
1000
0010
0100
0001
1000
,
2100
3301
0102
1003
,
2010
3010
0110
1001
,
0001
0000
0010
0000
0100
1000
0100
1000
0100
0000
1000
0000
0001
0000
0100
0000
,
0010
1000
0001
1000
0100
0000
1000
0100
,
0010
0001
0100
0010
1000
0001
0010
0100
,
1000
0001
0100
0010
1000
0001
1000
0010
,
2010
0001
0100
3001
,
1000
0100
0010
0001
0100
0010
1000
0001
,
0012
1033
2010
3001
,
0101
0123
1030
1001
,
1000
0000
0100
0000
0010
0001
0010
0001
0010
0000
0001
0000
1000
0000
0010
0000
,
0100
0001
1000
0001
0010
0000
0001
0010
,
0100
1000
0010
0100
0001
1000
0010
1000
,
0001
0010
1000
0001
0100
1000
0010
0100
,
0002
0010
1000
0013
,
0001
0010
1000
0010
0001
0100
0010
0000
,
1000
0001
1000
0000
0010
0000
0100
0000
0001
0000
0010
0000
0100
0000
1000
0000
,
0002
0000
1000
2000
0000
0000
3003
0000
,
1000
0000
0001
0100
0001
0000
1000
0000
0100
0000
0010
0000
0001
0000
0100
0000
,
0010
0000
1000
0010
1000
0000
0001
0000
0010
0000
0100
0000
1000
0000
1000
0000
,
1000
0000
0001
1000
0001
0000
1000
0000
0100
0000
0010
0000
0001
0000
1000
0000
,
0010
0000
0010
0000
0010
0000
0100
0000
0001
0000
1000
0100
0010
0000
0001
0000
,
0100
0000
0010
1000
0010
0000
0100
0000
0001
0000
1000
0000
0100
0000
0010
0000
,
0001
0000
1000
0100
1000
0000
0001
0000
1000
0010
0000
0010
0100
0000
0001
0000
,
1000
0000
0001
0010
0001
0000
0010
0000
0100
0000
1000
0100
1000
0000
0001
0000
,
0100
0100
0100
0000
0001
0100
1000
0100
,
0001
0000
0001
0000
0001
0000
1000
0100
0010
0000
0001
0000
1000
0000
0001
0000
,
0100
0000
0010
1000
0001
0000
1000
0000
0100
0000
0010
0000
0001
0000
1000
0001
,
1000
0000
0001
0000
0100
0000
0010
0000
1000
0000
0001
0010
0100
0000
1000
0000
,
0001
0001
0001
2000
0020
0000
0000
3030
,
1001
0000
0001
0101
0000
1000
0100
0100
,
0010
0000
0010
0000
0001
0000
0000
0000
1000
0001
0000
1000
0001
0000
0100
0000
,
0201
0000
0000
1000
0000
0000
0310
0000
,
0101
0110
1010
1001
,
0001
0000
0010
0000
0001
1000
0001
0000
0100
0000
0100
0000
0010
0000
1000
0000
,
0001
0010
0100
1000
0001
0000
1000
0010
,
0001
0010
0200
0000
0302
0000
1003
0100
,
0010
0001
0100
0010
1000
0100
0001
0200
,
2000
0000
0000
0000
,
0000
0000
0000
0300
,
3030
0000
0000
0000
;

//---------------dance-single - ----------------
#NOTEDATA:;
#CHARTNAME:;
#STEPSTYPE:dance-single;
#DESCRIPTION:;
#CHARTSTYLE:;
#DIFFICULTY:Medium;
#METER:13;
#RADARVALUES:0.662143,0.705842,0.364360,0.567724,0.004237,547.000000,504.000000,43.000000,67.000000,0.000000,0.000000,0.000000,0.000000,0.000000,0.662143,0.705842,0.364360,0.567724,0.004237,547.000000,504.000000,43.000000,67.000000,0.000000,0.000000,0.000000,0.000000,0.000000;
#CREDIT:Ben Speirs;
#NOTES:
0000
0000
0000
0000
,
0000
0000
0000
0000
,
0000
0000
0000
0000
,
0102
0010
2000
3003
,
0001
0000
1000
0010
0103
0010
0100
0000
,
0001
0010
0100
0000
2100
0000
3001
0000
,
1000
0010
0100
0000
0001
0010
0100
0000
,
1000
0100
0010
0001
0100
0000
0010
0000
,
1000
0000
0001
0100
3010
0100
0010
0000
,
1000
0100
0010
0000
0012
0000
1003
0000
,
0001
0100
0010
0000
1000
0100
0010
0001
,
0000
1000
0010
0100
0001
1000
0001
1000
,
0020
0000
0100
0000
0130
0000
0001
1000
,
0002
1000
1003
0101
,
2010
0000
0001
0000
3001
0000
1000
0001
,
0100
0010
2002
3003
,
0001
0100
1000
0000
1000
0100
0001
0000
,
0001
0010
1000
0000
1000
0010
0001
0000
,
1000
0001
1000
0001
0010
0100
1000
0010
,
2000
0000
0000
0002
0000
0000
3003
0000
,
0101
0000
0101
0000
1100
0000
0001
0010
,
0100
0010
0100
0010
0100
1000
0001
0000
,
1000
0010
0100
0000
0001
0100
0010
0000
,
2000
0100
0002
3003
,
1000
0100
0010
0000
0011
0000
0011
0000
,
1100
0000
0000
0000
1000
0000
0000
0001
0100
0000
0000
0000
0001
0000
1000
0000
,
0001
0000
0101
0000
0100
0010
1000
0000
,
0001
0010
0100
0000
1000
0100
1000
0000
,
0001
1000
0010
0000
1010
0000
1000
0100
,
0010
0000
0011
0000
0001
1000
0001
1000
,
0010
0100
0100
0000
0001
0100
0001
1000
,
0100
0000
0000
0000
,
2001
0000
0000
0001
0000
0001
0000
0100
,
0000
0100
0000
0010
0000
3010
0000
1000
,
0001
0100
0010
1000
0001
0010
0100
1000
,
0001
0000
0000
0000
2002
0000
3003
3003
,
1000
0100
1000
0100
0001
0100
1000
0000
,
0001
1000
0100
0010
0002
0000
1003
0000
,
0001
0100
0001
0100
1000
0100
0001
0000
,
1000
0001
0010
0100
2000
0000
3001
0000
,
1000
0010
1000
0010
0100
0001
0100
0001
,
1000
0100
0010
0001
2000
0000
3001
0000
,
0101
0113
1010
1001
,
0001
0010
0100
1000
0020
0000
0000
0000
,
1030
0100
1000
0000
1200
3000
0301
0100
,
0010
0100
1000
0010
0200
0000
0301
0000
,
0301
0010
0001
0000
0021
0003
1030
0010
,
0100
0010
0001
0100
0020
0000
1030
0000
,
0001
0100
0001
1000
0100
1000
0001
0010
,
0100
1000
0002
0000
0203
0000
0302
0000
,
1033
0010
1000
0001
0010
0001
1000
0100
,
0010
0001
1000
0001
3100
0010
0100
0010
,
2300
0000
0001
0000
,
0000
0000
0001
0000
,
3020
0000
0100
0000
,
1030
0001
2002
3003
,
0202
0000
0303
1000
,
0001
0100
0020
0000
1030
0000
0100
0000
,
2100
0000
3100
0010
0002
0000
0103
0010
,
2000
0000
3010
0100
0020
0000
2030
0000
,
3001
0000
1000
0100
0010
0001
1000
0000
,
0001
0100
0001
0000
1000
0000
0010
0000
,
1000
0100
0010
0000
0001
1000
0010
0000
,
1000
0010
0100
0001
1000
0001
1000
0010
,
2020
0000
3030
0001
,
1000
0010
0200
0000
0301
0000
0010
0000
,
0012
0000
0013
0100
2000
0000
3010
0100
,
0002
0000
0103
0010
0200
0000
0302
0000
,
1003
0000
0001
0010
0100
1000
0001
0000
,
1000
0010
1000
0000
0001
0000
0100
0000
,
0001
0010
0100
0000
1000
0001
0100
0000
,
0001
1000
0001
1000
0100
0010
0001
0000
,
2000
3200
0302
0203
,
2300
3020
0032
0023
,
1030
0100
0010
0001
0100
0010
1000
0001
,
0200
0000
0000
0020
0000
0000
0330
0000
,
1001
1001
0110
1001
,
0001
0100
0001
0100
0010
1000
0100
0000
,
1100
1100
1001
0101
,
1000
0010
1000
0010
0100
0001
1000
0000
,
0001
0010
0100
0000
0010
0100
1000
0000
,
0100
1000
0010
0000
1000
0010
0100
0000
,
0001
1000
0001
1000
0100
0010
0001
1000
,
0010
0100
0001
1000
0002
0000
1003
0000
,
0001
0100
0001
0100
0010
1000
0001
0010
,
0100
1000
0100
1000
0010
0100
0001
1000
,
0100
0010
0100
0010
0001
1000
0010
0100
,
0001
1000
0001
0200
0020
0000
0330
0000
,
1001
0000
0000
1100
0000
0000
0101
0000
,
1000
0100
0010
0000
0001
0010
0100
1000
,
1100
0000
0000
1001
0000
0000
0101
0000
,
2000
3020
0230
0302
,
1003
0000
0001
0010
3100
0010
0100
0000
,
1000
0100
0010
0000
0012
0000
1003
0000
,
0001
0100
0010
0000
1000
0100
0010
0000
,
0001
0010
1000
0010
0001
0100
0010
2000
,
0002
0000
0000
0000
,
0000
0000
0000
3000
,
3303
0000
0000
0000
;

//---------------dance-single - ----------------
#NOTEDATA:;
#CHARTNAME:;
#STEPSTYPE:dance-single;
#DESCRIPTION:;
#CHARTSTYLE:;
#DIFFICULTY:Easy;
#METER:9;
#RADARVALUES:0.392202,0.456722,0.084735,0.245731,0.000000,324.000000,314.000000,10.000000,29.000000,0.000000,0.000000,0.000000,0.000000,0.000000,0.392202,0.456722,0.084735,0.245731,0.000000,324.000000,314.000000,10.000000,29.000000,0.000000,0.000000,0.000000,0.000000,0.000000;
#CREDIT:Ben Speirs;
#NOTES:
0000
0000
0000
0000
,
0000
0000
0000
0000
,
0000
0000
0000
0000
,
0001
1000
0020
0030
,
1001
0001
1000
0100
,
0010
0010
0002
0003
,
1000
0100
2000
3000
,
0001
0100
0002
0003
,
1001
1000
0001
0010
,
0100
0100
2000
3000
,
0001
0010
0002
0003
,
1000
0000
0010
0000
1000
0001
1000
0001
,
1000
0000
0001
0010
,
0010
0000
0001
1000
,
0100
0000
1000
0010
,
0010
0100
0001
0000
,
1000
0100
0010
0001
,
0100
0010
1000
0001
,
1000
1000
0001
0001
,
0100
0000
0000
0000
,
0001
0001
0001
1000
,
0010
0100
0010
0000
0100
0000
0000
0000
,
0010
0010
1000
1000
,
0001
0000
0000
0000
,
1000
0100
1000
0000
0100
0000
0100
0000
,
0010
0000
0010
0000
0001
0000
1000
0001
,
1000
0001
0100
0100
,
0001
1000
0010
0000
,
1000
0000
1000
0000
0001
0000
1000
0100
,
1000
0100
0010
0010
,
0001
0000
1000
0000
0001
0100
0001
0000
,
0100
0000
0000
0000
,
1002
0000
1000
0000
,
0100
0000
0103
0000
,
0001
0100
0010
1000
,
0001
0000
0000
0000
,
1000
0000
0100
0010
0100
0000
0010
0000
,
0001
1000
0010
0000
,
1000
0010
1000
0000
0010
0000
1000
0000
,
0001
0001
0100
0000
,
0001
0000
0010
0100
0010
0000
0100
0000
,
1000
0001
0100
0000
,
0001
0100
0001
0000
0100
0000
0001
0000
,
1000
1000
0010
0000
,
1000
0100
0010
0000
,
0001
1000
0001
0000
1000
0000
0000
0000
,
0001
0100
0010
0000
,
1000
0001
1000
0000
0001
0000
0000
0000
,
1000
0010
0100
0001
,
0010
0010
0100
0000
,
1000
0100
0010
0001
,
1000
0001
1000
0000
0001
0000
0000
0000
,
2002
0000
0000
0000
,
0000
0000
0000
0000
,
0000
0000
0000
0000
,
3003
0000
0110
0000
,
2002
0000
0000
3003
,
0000
0001
1000
0100
,
0200
0300
0020
0030
,
0002
0003
1000
0001
,
0100
0100
0010
1000
,
0001
1000
0100
0000
,
1000
1000
0100
0010
,
0001
1000
0010
0000
,
2002
0000
0000
3003
,
0000
1000
0001
0010
,
0020
0030
0200
0300
,
2000
3000
0001
1000
,
0010
0010
0100
0001
,
1000
0001
0010
0000
,
0001
0001
0010
0100
,
1000
0001
0100
0010
,
2002
0000
3003
1000
,
0100
0010
0001
0000
,
1000
0000
0001
0100
0001
0000
0100
0000
,
0002
0000
0000
2000
0000
0000
3003
0000
,
1000
0001
0100
0010
,
1000
0000
0001
0000
0010
0000
0001
1000
,
0001
1000
0010
0100
,
0001
0100
0001
0000
1000
0000
0000
0000
,
0001
0010
0100
1000
,
0010
0000
0100
0000
0001
1000
0001
0000
,
1000
0100
0010
0001
,
1000
0010
1000
0000
0001
0000
0000
0000
,
1000
0100
0010
0000
0001
0000
1000
0000
,
0010
0000
0100
0000
0001
0000
1000
0010
,
1000
0001
0010
0100
,
1000
0001
0100
0000
0000
0000
0000
0000
,
1001
0000
0000
1000
0000
0000
0001
0000
,
0100
0100
0010
1000
,
0100
0000
0000
0110
0000
0000
0010
0000
,
0002
0203
0320
2030
,
3301
0000
1000
0000
,
0001
0010
0100
0000
,
1000
0100
1000
0000
0001
0000
0000
0000
,
1000
0000
0010
0000
1000
0100
0010
0002
,
2000
0000
0000
0000
,
0000
0000
0000
0003
,
3000
0000
0000
0000
;

//---------------dance-single - ----------------
#NOTEDATA:;
#CHARTNAME:;
#STEPSTYPE:dance-single;
#DESCRIPTION:;
#CHARTSTYLE:;
#DIFFICULTY:Beginner;
#METER:4;
#RADARVALUES:0.156154,0.244037,0.033894,0.000000,0.000000,129.000000,125.000000,4.000000,0.000000,0.000000,0.000000,0.000000,0.000000,0.000000,0.156154,0.244037,0.033894,0.000000,0.000000,129.000000,125.000000,4.000000,0.000000,0.000000,0.000000,0.000000,0.000000,0.000000;
#CREDIT:Ben Speirs;
#NOTES:
0000
0000
0000
0000
,
0000
0000
0000
0000
,
0000
0000
0000
0000
,
1000
0000
0000
0000
,
1001
0000
0000
0000
,
0001
0000
0000
0000
,
0100
0000
0100
0000
,
0100
0000
0000
0000
,
0010
0000
0000
0000
,
1000
0000
0000
0000
,
0001
0000
0001
0000
,
0001
0000
0000
0000
,
1000
0000
0000
0000
,
1000
0000
0000
0000
,
0001
0000
0000
0000
,
0001
0000
0000
0000
,
0100
0000
0100
0000
,
0100
0000
0000
0000
,
0010
0000
0010
0000
,
0010
0000
0000
0000
,
1000
0000
1000
0000
,
1000
0000
0000
0000
,
0001
0000
0001
0000
,
0001
0000
0000
0000
,
0100
0000
0100
0000
,
0100
0000
0000
0000
,
0100
0000
0100
0000
,
0100
0000
0000
0000
,
0001
0000
0001
0000
,
0001
0000
0000
0000
,
1000
0000
1000
0000
,
1000
0000
0000
0000
,
0010
0000
0000
0000
,
0010
0000
0000
0000
,
1000
0000
1000
0000
,
1000
0000
0000
0000
,
0001
0000
0000
0000
,
1000
0000
0000
0000
,
0100
0000
0100
0000
,
0100
0000
0000
0000
,
1000
0000
0000
0000
,
0001
0000
0000
0000
,
0010
0000
0010
0000
,
0010
0000
0000
0000
,
0000
0001
0001
0000
,
0001
0000
0000
0000
,
0000
1000
1000
0000
,
1000
0000
0000
0000
,
0000
0010
0010
0000
,
0010
0000
0000
0000
,
0000
0100
0100
0000
,
0100
0000
0000
0000
,
0001
0000
0000
0000
,
0000
0000
0000
0000
,
0000
0000
0000
0000
,
0000
0000
1000
0000
,
1001
0000
0000
0000
,
0000
0000
0001
0001
,
0001
0000
0000
0000
,
0100
0000
0000
0000
,
0010
0000
0010
0000
,
0010
0000
0000
0000
,
1000
0000
1000
0000
,
1000
0000
0000
0000
,
1001
0000
0000
0000
,
0000
0000
1000
1000
,
1000
0000
0000
0000
,
0001
0000
0000
0000
,
0100
0000
0100
0000
,
0100
0000
0000
0000
,
0010
0000
0010
0000
,
0010
0000
0000
0000
,
1000
0000
0000
0000
,
0000
0000
0000
0000
,
0001
0000
0001
0000
,
0001
0000
0000
0000
,
1000
1000
0000
0000
,
1000
0000
0000
0000
,
0010
0010
0000
0000
,
0010
0000
0000
0000
,
0100
0100
0000
0000
,
0100
0000
0000
0000
,
0001
0001
0000
0000
,
0001
0000
0000
0000
,
1000
1000
0000
0000
,
1000
0000
0000
0000
,
0001
0001
0000
0000
,
0001
0000
0000
0000
,
0100
0000
0000
0000
,
0100
0000
0000
0000
,
0010
0000
0010
0000
,
0010
0010
0010
0000
,
0010
0000
0000
0000
,
1000
0000
0000
0000
,
0001
0000
0001
0000
,
0001
0000
0000
0000
,
1001
0000
0000
0000
;

//---------------dance-double - ----------------
#NOTEDATA:;
#CHARTNAME:;
#STEPSTYPE:dance-double;
#DESCRIPTION:;
#CHARTSTYLE:;
#DIFFICULTY:Challenge;
#METER:17;
#RADARVALUES:0.959926,1.038004,0.338940,0.474516,0.550777,793.000000,753.000000,40.000000,56.000000,0.000000,0.000000,0.000000,0.000000,0.000000,0.959926,1.038004,0.338940,0.474516,0.550777,793.000000,753.000000,40.000000,56.000000,0.000000,0.000000,0.000000,0.000000,0.000000;
#CREDIT:Ben Speirs;
#NOTES:
00000000
00000000
00000000
00000000
,
00000000
00000000
00000000
00000000
,
00000000
00000000
00000000
00000000
,
00001000
00000000
00010000
00000000
01000000
00100000
01000000
00100000
01000000
00000000
00100000
00000000
00010000
00000000
10000000
00000000
,
00100000
00000000
01000000
00000000
00010000
10000000
00100000
10000000
00010000
00000000
10000000
00000000
01000000
00000000
00010000
00000000
,
00001000
00001000
00100000
00001000
00010000
00000010
00000100
00000010
,
00001000
00000100
00020000
00000000
00031000
00000100
00001000
00000100
,
00000001
00000000
00000010
00000000
00000100
00000000
00010000
00001000
00010000
00000000
00000010
00000000
00001000
00000000
00000000
00000000
,
00000101
00000000
00000001
00000000
00001000
00000010
00000100
00000010
00001000
00000000
00000001
00000000
00000010
00000000
00001000
00000000
,
00010000
00010000
00000100
00010000
00001000
01000000
00100000
01000000
,
00010000
00100000
00002000
00000000
00013000
00100000
00010000
00200000
,
00000000
10300000
01000000
00100000
00001000
00010000
00001000
00010000
,
00010200
00000000
00001000
00000000
00001300
00000000
00000100
00010000
,
00002000
00000000
00103000
00020000
01000000
00000000
00130000
00000000
,
00021000
00000000
00030020
00000000
00001030
00000100
00010000
00010000
,
00020000
00000000
00000000
00000000
00031000
00000000
00001000
00000000
00000000
00000000
00010000
00001000
00010000
00001000
00100000
00010000
,
01000000
00000000
00100000
10000000
00100000
00000000
01000000
00000000
00010000
00000000
00100000
00010000
00100000
00000000
00001000
00000000
,
00010000
00000000
00000100
00001000
00000100
00000000
00001000
00000000
00000010
00000000
00000100
00000001
00000100
00000000
00000000
00000000
,
00000001
00000010
00000100
00000000
00001000
00000010
00000100
00000000
00000001
00000100
00000010
00001000
00000100
00000010
00000001
00001000
,
00000200
00000000
00000000
00000000
00010000
00000000
00020300
00000300
00000000
00000000
00001000
00000000
00031000
00000000
00000000
00000000
,
00011000
00000000
00000000
00000000
00101000
00000000
00000000
00000000
00010010
00000000
00000000
00000000
00010000
00000000
00001000
00100000
,
00010000
00010000
10000000
10000000
00100000
01000000
00010000
00000000
,
10000000
00100000
10000000
00000000
00010000
00100000
00010000
00000000
00100000
00001000
00010000
00000000
00001000
00010000
00000010
00000000
,
00001000
00000000
00000100
00000000
00000001
00000000
00000100
00000010
00000100
00000000
00001000
00000000
00000001
00000000
00000000
00000000
,
00000101
00000100
00000010
00000000
00001010
00000000
00010100
00000000
,
00101000
00000000
00000000
00000000
10010000
00000000
00000000
00010000
01000000
00000000
00000000
00000000
00010000
00000000
01000000
00100000
,
10000000
00000000
10100000
00000000
00010000
00010000
00100000
00000000
,
00031000
00000000
00010000
00000000
00001000
00000000
00000000
00000000
00010000
00000100
00000000
00000010
00000001
00000000
00000000
00000000
,
00001000
00000001
00001000
00000000
00000010
00000000
00000000
00000000
00001010
00000000
00000000
00000000
00001100
00000000
00000100
00000000
,
00010000
00000000
00011000
00000000
00001000
00020000
00130000
00020000
,
00031000
00000000
00100000
01000000
10000000
00000000
00000000
00000000
00010000
00000000
00010000
00000000
10000000
00100000
01000000
00010000
,
00100000
00100000
00001000
00010000
00001000
00010000
00001000
00010000
,
00000100
00000000
00000000
00000000
00001100
00000000
00000000
00000000
00001000
00000000
00000000
00000000
00000010
00000000
00001000
00000001
,
00000100
00000000
00000000
00000000
00000101
00000000
00000000
00000000
00001000
00000000
00000001
00000010
00000100
00000000
00001000
00000001
,
00001000
00000000
00000100
00000000
00010000
00000000
00001000
00000000
00100000
00010000
01000000
00100000
10000000
01000000
00100000
00010000
,
02000000
03000000
03200000
00300000
02300000
03000000
03200000
00300000
20320000
00000000
00000000
00000000
00000000
00000000
30030000
00000000
,
10000000
00000000
00010000
00000000
01000000
00000000
00100000
00000000
10000000
01000000
00100000
00000000
00010000
01030000
00100000
00000000
,
00010000
00001000
00000100
00000001
00000010
00000100
00001000
00001000
,
00000001
00000000
00001000
00000000
00000010
00000000
00000100
00000000
00000001
00000010
00000100
00000000
00001000
00003010
00000100
00000000
,
00001000
00000000
00010000
00000000
00100000
00000000
10000000
00010000
10000000
00000000
00100000
00000000
01000000
00000000
00010000
00000000
,
01000000
00000000
01000000
00000000
01000000
00000000
00100000
00000000
10000000
01000000
00100000
00000000
00001000
00010000
00001000
00000000
,
00010000
00000000
00000100
00000000
00000010
00000000
00000001
00000000
00001000
00000000
00000010
00000100
00000001
00000000
00001000
00000000
,
00001100
00001010
00000011
00001001
,
00000001
00000000
00000010
00000000
00001000
00000000
00010000
00001000
00010000
00000000
00000000
00000000
00011000
00000000
00000000
00000000
,
00002000
00000000
00103000
01000000
00100000
00000000
00002000
00000000
01003000
00100000
01000000
00000000
00002000
00000000
00103000
01000000
,
00100000
00000000
00002000
00000000
01003000
00100000
01000000
03000000
00001000
00000000
00100000
00000000
00001000
00000000
00001000
00000000
,
00020000
00000000
00030100
00000010
00000100
00000000
00020000
00000000
00030010
00000100
00000010
00000000
00020000
00000000
00030100
00000010
,
00000100
00000000
00020000
00000000
00030010
00000100
00000010
00000030
00010000
00000000
00001000
00000000
00000100
00000000
00000001
00000000
,
00002000
00000000
00000100
00000300
00003100
00000000
00020000
00000000
00001000
00000000
00031000
00000000
00200000
00000000
00010000
00000000
,
00310000
00000000
10000000
00000000
00100000
00000000
10000000
00000000
00010000
00100000
01000000
00000000
10000000
00100000
01000000
00000000
,
00020000
00000000
00100000
00300000
00130000
00000000
00002000
00000000
00010000
00000000
00013000
00000000
00000200
00000000
00001000
00000000
,
00001300
00000000
00000001
00000000
00000100
00000000
00000001
00000000
00001000
00000100
00000010
00000001
00000100
00000000
00000010
00000000
,
00002000
00000000
00000001
00000000
,
00000000
00000000
00010000
00000000
,
00023000
00000000
00000000
00000000
10030000
00030000
00000000
00000000
,
10010000
00000000
00000000
00000000
00010000
10000000
00100000
10000000
00010000
00000000
10000000
00000000
01000000
00000000
00100000
00000000
,
00210000
00000000
10330000
00100000
00010000
00010000
01000000
00100000
,
00010000
00001000
00010000
00000100
00000010
00000001
00001000
00000010
,
00002010
00003100
00020100
00031000
,
00201000
00000000
00310000
01000000
01010000
00000000
01002000
00000000
,
00013000
00000000
01000000
00000000
00100000
01000000
10000000
01000000
00100000
00000000
00010000
00000000
01000000
00000000
01000000
00000000
,
00100000
00010000
00001000
00000100
00000010
00001000
00000001
00000010
,
00000001
00000000
00001000
00000100
00001000
00000001
00000100
00000001
00000010
00000000
00000100
00000000
00010000
00000000
00001000
00000000
,
00000100
00000010
00001000
00000001
00000010
00000100
00000010
00000100
,
00001200
00000000
00003301
00000100
00001000
00001000
00000010
00000100
,
00001000
00010000
00001000
00100000
01000000
10000000
00010000
01000000
,
01020000
00130000
00102000
00013000
,
00010200
00000000
00001300
00000010
00001010
00000000
00020010
00000000
,
00031000
00000000
00000010
00000000
00000100
00000010
00000001
00000010
00000100
00000000
00001000
00000000
00000010
00000000
00000010
00000000
,
00000100
00001000
00010000
00100000
01000000
00010000
10000000
01000000
,
10000000
00000000
00010000
00100000
00010000
10000000
00100000
10000000
01000000
00000000
00100000
00000000
00001000
00000000
00010000
00000000
,
00001000
00000100
00000001
00000010
00001000
00000010
00000100
00010000
,
00001000
00100000
00001000
00100000
00001000
00100000
00001000
00100000
,
00001000
00010000
00001000
00010000
00001000
00000100
00001000
00000100
,
00001000
00010000
00001000
00000000
00100000
00000000
00010000
00000000
10000000
00100000
10000000
00000000
00010000
00000000
00100000
00000000
,
00002000
00000000
00010000
00020000
00000000
00000000
00033000
00000000
,
00010100
00000000
00010000
00000100
00010000
00000000
00000010
00001003
00000010
00000000
00001000
00000001
00001000
00000000
00000001
00000010
,
00000001
00000000
00001000
00000100
00001000
00000000
00000100
00010000
00001000
00000000
00100000
00001000
00010000
00000000
00010000
00000000
,
00010000
00000000
00001000
01000000
00001000
00000000
01000000
00100000
01000000
00000000
00010000
10000000
00010000
00000000
10000000
01000000
,
00100000
00000000
00100000
00000000
00100000
00000000
00010000
10000000
00100000
00000000
01000000
00010000
10000000
00000000
10000000
00000000
,
10000000
00000000
01000000
00100000
00010000
00000000
00100000
00001000
00100000
00000000
00001000
00010000
00000100
00000000
00001000
00000010
,
00001000
00000000
00000001
00000100
00000010
00000000
00001000
00000000
00000100
00010000
00000000
00010000
00001000
00000000
00001000
00000000
,
00100000
00000000
00010000
00100000
00010000
00000000
10000000
01000000
10000000
00000000
00010000
01000000
00010000
00000000
10000000
00100000
,
01000000
00000000
01000000
00000000
01000000
00000000
00010000
00100000
00001000
00000000
00000010
00000000
00000001
00000000
00000100
00000000
,
00000010
00000000
00000010
00000000
00000010
00000000
00001000
00000001
00000100
00000000
00000010
00010000
00001000
00000000
00010000
00001000
,
00100000
00000000
00010000
00100000
01000000
00000000
10000000
01000000
00100000
00000000
00010000
01000000
00001000
00000000
00010000
00001000
,
00010000
00000000
00000100
00000010
00000001
00000000
00000100
00000010
00001000
00000000
00000100
00010000
00001000
00000000
00100000
01000000
,
10000000
10000000
10000000
00020000
02000000
00000000
00000000
03030000
,
10010000
00000000
00000000
00000000
00010000
00100000
00001000
00000000
00000000
00000000
00010000
00000100
00001000
00000000
00001000
00000000
,
00000001
00000000
00000001
00000000
00000100
00000000
00000000
00000000
00000001
00000100
00000000
00000010
00001000
00000000
00000100
00010000
,
00000100
00000000
00000000
00000110
00000000
00000000
00001001
00000000
,
00000002
00002003
00023000
20030000
,
30100000
00000000
01000000
00000000
00010000
10000000
00100000
10000000
00010000
00000000
10000000
00000000
01000000
00000000
00010000
00000000
,
00001000
00010000
00001000
00000000
00100000
00000000
00001000
00000000
00010000
00000000
00000010
00000000
00000100
00000000
00000010
00000000
,
00001000
00000100
00020000
00000000
00031000
00000100
00001000
00000100
,
00000001
00000000
00000010
00000100
00000010
00000000
00001000
00000000
00010000
00000000
01000000
00000000
10000000
00000000
00020000
00000000
,
02000000
00000000
00000000
00000000
,
00000000
00000000
00000000
00000000
00000000
00000000
00330003
00003000
,
33030000
00000000
00000000
00000000
;

//---------------dance-double - ----------------
#NOTEDATA:;
#CHARTNAME:;
#STEPSTYPE:dance-double;
#DESCRIPTION:;
#CHARTSTYLE:;
#DIFFICULTY:Hard;
#METER:15;
#RADARVALUES:0.798930,0.871923,0.288099,0.499936,0.182180,660.000000,626.000000,34.000000,59.000000,0.000000,0.000000,0.000000,0.000000,0.000000,0.798930,0.871923,0.288099,0.499936,0.182180,660.000000,626.000000,34.000000,59.000000,0.000000,0.000000,0.000000,0.000000,0.000000;
#CREDIT:Ben Speirs;
#NOTES:
00000000
00000000
00000000
00000000
,
00000000
00000000
00000000
00000000
,
00000000
00000000
00000000
00000000
,
00012000
00000000
00013000
00001000
00000100
00000010
00000100
00000010
,
00001000
00000000
00000001
00000000
00000100
00000010
00000100
00000000
00000001
00000000
00000010
00000000
00000100
00000000
00001000
00000000
,
00000010
00010000
00000010
00010000
00002000
00000000
00203000
00000000
,
00310000
01000000
20000000
00000000
31000000
00100000
01000000
00100000
,
00010000
00001000
00100000
01000000
10000000
00010000
10000000
00000000
,
00010000
00000000
10000000
00000000
00100000
01000000
00100000
00000000
10000000
00000000
01000000
00000000
00100000
00000000
00010000
00000000
,
01000000
00001000
01000000
00001000
00020000
00000000
00030200
00000000
,
00001300
00000010
00000002
00000000
00000013
00000100
00000010
00000200
,
00000000
00000301
00000010
00000100
00010000
00001000
00010000
00001000
,
00020000
00000000
00000100
00000000
00030100
00000000
00010000
00001000
,
02000000
00000000
03001000
00100000
01000000
00000000
11000000
00000000
,
10010000
00000000
00020000
00000000
01030000
01000000
00001000
00010000
,
00002000
00000000
00013000
00000100
00000020
00000000
00000330
00000000
,
00000001
00000010
00000001
00000010
00000100
00001000
00000100
00001000
,
00000010
00010000
00000010
00010000
00001000
00100000
00001000
00100000
,
00010000
10000000
00010000
00000000
01000000
00000000
00100000
00000000
10000000
00000000
01000000
00000000
00100000
00000000
00010000
00000000
,
20000000
00000000
00000000
00020000
00000000
00000000
30030000
00000000
,
11000000
00000000
00000000
00000000
01010000
00000000
00000000
00000000
10010000
00000000
00000000
00000000
10000000
00000000
01000000
00100000
,
01000000
00100000
01000000
00100000
00010000
01000000
00001000
00000000
,
00010000
00001000
00010000
00000000
00001000
00010000
00001000
00000000
00010000
00000000
00000100
00000000
00000010
00000000
00000001
00000000
,
00002000
00000001
00000020
00003030
,
00000001
00000100
00000001
00000000
00000101
00000000
00000101
00000000
,
00001100
00000000
00000000
00000000
00001100
00000000
00000000
00010000
00001000
00000000
00000000
00000000
00010000
00000000
00001000
00100000
,
00001000
00000000
00101000
00000000
00100000
00010000
01000000
00000000
,
00010000
00000000
01000000
00000000
00100000
00000000
00000000
00000000
10000000
00010000
00000000
10000000
00010000
00000000
00000000
00000000
,
10000000
01000000
10000000
00000000
01000000
00000000
00000000
00000000
01100000
00000000
00000000
00000000
00100000
00000000
00001000
00000000
,
00010000
00000000
00011000
00000000
00010000
00001000
00000100
00000001
,
00001000
00000000
00000001
00000100
00000001
00000000
00000000
00000000
00000100
00000000
00000010
00000000
00010000
00000100
00010000
00000100
,
00010000
00000000
00000000
00000000
,
00012000
00000000
00000000
00000000
00103000
00003000
00000000
00000000
00021000
00000000
00000000
00000000
00030010
00000000
00000000
00000000
,
00012000
00003010
00021000
01030000
,
10000000
01000000
10000000
01000000
00100000
00001000
00010000
00000010
,
00000100
00000000
00000000
00000000
00002002
00000300
00000000
00003003
,
00000001
00000000
00000100
00000000
00000001
00000000
00000100
00000000
00000010
00001000
00000010
00000000
00001000
00000000
00000100
00000000
,
00010000
00001000
00010000
00001000
00200000
00000000
00310000
00010000
,
10000000
00000000
00100000
00000000
10000000
00000000
00100000
00000000
01000000
00010000
01000000
00000000
00010000
00000000
00100000
00000000
,
00001000
00000000
00010000
00000000
00001000
00000000
00010000
00000100
00020000
00000000
00000000
00000000
00031000
00000000
00000000
00000000
,
00100000
00100000
00100000
00001000
00010000
00000010
00000100
00000001
,
00000101
00000000
00000000
00000000
00001000
00000000
00000001
00000000
00000010
00000000
00000001
00000100
00000001
00000000
00001000
00000000
,
00001100
00010100
00011000
00101000
,
00100000
00000000
00010000
00000000
01000000
00000000
00010000
10000000
00010000
00000000
00000000
00000000
00000000
00000000
00000000
00000000
,
20000000
01000000
31000000
00200000
00010000
00310000
10000000
00100000
,
01000000
00001000
00010000
00000100
00000010
00000001
00001000
00001000
,
00000002
00000010
00000013
00000200
00001000
00001300
00000001
00000100
,
00000010
00010000
00001000
00100000
01000000
10000000
00010000
00010000
,
10000000
01000000
00010000
10000000
00100000
00010000
01000000
00100000
,
00010000
00001000
00010000
00001000
00000010
00000001
00001000
00001000
,
00000001
00000010
00001000
00000001
00000100
00001000
00000010
00000100
,
00001000
00010000
00001000
00010000
01000000
10000000
00010000
10000000
,
00200000
00000000
00010000
00000000
,
00000000
00000000
00010000
00000000
,
00302000
00000000
00000010
00000000
,
00003001
00000010
00000220
00003333
,
00002001
00000001
00000100
00003010
,
00001000
00000100
00000001
00000100
00001000
00000010
00010000
00000100
,
00020100
00031000
00201000
00310000
,
20010000
00000000
30100000
01000000
00020000
00000000
20030000
00000000
,
30010000
00000000
01000000
00000000
00001000
00010000
00001000
00010000
00001000
00000000
00010000
00000000
00000100
00000000
00000010
00000000
,
00000001
00000100
00000010
00001000
00000001
00001000
00000100
00000000
,
00010300
00001000
00010000
00001000
00100000
00010000
01000000
00100000
,
10000000
00010000
00100000
01000000
10000000
00010000
10000000
00010000
,
10020000
01000000
00100000
10030000
,
00010000
00100000
10000000
00100000
00010000
01000000
00001000
00100000
,
00102000
00000000
00013000
00000100
00002000
00000000
00003310
00000100
,
00000002
00000000
00000103
00000310
00002000
00000000
00003002
00000000
,
00001003
00000000
00000010
00000000
00010000
00001000
00010000
00001000
00010000
00000000
00001000
00000000
00100000
00000000
01000000
00000000
,
10000000
00100000
01000000
00010000
10000000
00010000
00100000
00000000
,
00301000
00010000
00001000
00010000
00000100
00001000
00000010
00000100
,
00000001
00000010
00001000
00000010
00001000
00010000
00001000
00010000
,
00200000
10000000
00010000
01300000
,
00100000
01000000
00010000
00100000
01000000
10000000
00010000
00000000
,
10000000
01000000
10000000
00000000
00010000
00000000
01000000
00000000
00100000
00000000
00010000
00000000
00001000
00000000
00010000
00000000
,
00000200
00000000
00000010
00000020
00000000
00000000
00000330
00000000
,
00000001
00000000
00001000
00000100
00001000
00000000
00000001
00000000
00000100
00000000
00000010
00000000
00001000
00000000
00000100
00000000
,
00010000
00000000
00001000
00100000
00001000
00000000
00100000
00000000
00010000
00000000
10000000
00000000
00100000
00000000
00100000
00000000
,
00100000
00000000
01000000
00010000
01000000
00000000
00010000
00000000
10000000
00000000
01000000
00000000
00100000
00000000
00001000
00000000
,
00010000
00000000
00010000
00000000
00010000
00000000
00000100
00000000
00001000
00000000
00000001
00000100
00000001
00000000
00001000
00000000
,
00000010
00000000
00001000
00000100
00001000
00000000
00000001
00000000
00000010
00000000
00000100
00000000
00001000
00000000
00000100
00000000
,
00010000
00000000
00001000
00010000
00001000
00000000
01000000
00000000
00010000
00100000
00000000
00100000
01000000
00000000
10000000
00000000
,
00010000
00000000
10000000
00100000
10000000
00000000
00010000
00000000
00100000
00000000
00001000
00010000
00001000
00000000
00010000
00000000
,
00000100
00000100
00000100
00000010
00000001
00000100
00001000
00010000
,
00001000
00000000
00001000
00000000
00001000
00000000
00100000
00010000
10000000
00000000
00010000
00000000
01000000
00000000
00100000
00000000
,
10000000
00000000
00010000
00100000
00001000
00000000
00010000
00000000
00000010
00000000
00000100
00000000
00000001
00000000
00001000
00000001
,
00001000
00000000
00000001
00000000
00000100
00000000
00000010
00000000
00001000
00000000
00000001
00000010
00000100
00000000
00001000
00000000
,
00000100
00000100
00000100
00020000
00002000
00000000
00033000
00000000
,
00011000
00000000
00000000
00000000
00001000
00000000
00101000
00000000
00000000
00000000
00100000
00010000
00100000
00000000
00010000
00000000
,
10000000
00000000
10000000
00000000
10000000
00000000
00000000
00000000
00010000
01000000
00000000
01000000
00100000
00000000
10000000
00000000
,
00010000
00000000
00000000
01100000
00000000
00000000
10010000
00000000
,
20000000
00000000
30020000
00000000
00032000
00000000
00003002
00000030
,
00001003
00000000
00000001
00000000
00000100
00000010
00000100
00000000
00000001
00000000
00000010
00000000
00000100
00000000
00001000
00000000
,
00000010
00010000
00000010
00010000
00002000
00000000
00203000
00000000
,
00310000
01000000
20000000
00000000
31000000
00100000
01000000
00100000
,
00010000
00001000
00100000
01000000
10000000
00100000
00010000
00002000
,
00020300
00000000
00000000
00000000
,
00000000
00000000
00000000
00003000
,
00030000
00000000
00000000
00000000
;

//---------------dance-double - ----------------
#NOTEDATA:;
#CHARTNAME:;
#STEPSTYPE:dance-double;
#DESCRIPTION:;
#CHARTSTYLE:;
#DIFFICULTY:Medium;
#METER:13;
#RADARVALUES:0.680301,0.705842,0.499936,0.652459,0.004237,562.000000,503.000000,59.000000,77.000000,0.000000,0.000000,0.000000,0.000000,0.000000,0.680301,0.705842,0.499936,0.652459,0.004237,562.000000,503.000000,59.000000,77.000000,0.000000,0.000000,0.000000,0.000000,0.000000;
#CREDIT:Ben Speirs;
#NOTES:
00000000
00000000
00000000
00000000
,
00000000
00000000
00000000
00000000
,
00000000
00000000
00000000
00000000
,
00010000
00001000
00022000
00033000
,
00010000
00001000
00100000
00000000
00120000
00000000
10030000
00100000
,
01000000
00010000
00100000
01000000
10000000
00000000
00020000
00000000
,
01030000
00001000
00020000
00000000
00030100
00000010
00000001
00000000
,
00001000
00000010
00001000
00000100
00020000
00000000
00031000
00000000
,
00001000
00010000
00000100
00000000
00002100
00000000
00003001
00000100
,
00000010
00001000
00000100
00000010
00000001
00000000
00002000
00000000
,
00003010
00010000
00002000
00000000
00103000
01000000
10000000
00010000
,
00000000
10000000
01000000
00100000
00001000
00010000
00001000
00010000
,
00000020
00000000
00000100
00000000
00000130
00000000
00000001
00001000
,
00000200
00000010
00000310
00001001
,
00020100
00000000
00032000
00000000
00103000
00010000
01000000
01000000
,
00200000
00000000
01300000
00010000
10000000
00000000
00000000
00000000
,
10000000
01000000
00010000
00000000
01000000
00010000
00001000
00000000
,
00010000
00001000
00000100
00000000
00001000
00000100
00000001
00000000
,
00000100
00000010
00000100
00000010
00001000
00000001
00000010
00000100
,
00020000
00000000
00000000
00002000
00000000
00000000
00033000
00000000
,
00011000
00000000
00011000
00000000
00101000
00000000
00100000
00010000
,
00100000
00010000
00100000
00010000
10000000
00100000
10000000
00000000
,
00010000
01000000
00100000
10000000
01000000
00100000
00010000
10000000
,
00200000
00320000
00032000
00003000
,
00010000
00000010
00010000
00000000
00010010
00000000
00010010
00000000
,
00000110
00000000
00000000
00000000
00000110
00000000
00000000
00000001
00001000
00000000
00000000
00000000
00000001
00000000
00000100
00000000
,
00000001
00000000
00000101
00000000
00000100
00000010
00001000
00000000
,
00000100
00010000
00000100
00000000
00010000
00001000
00010000
00000000
,
00001000
01000000
00100000
00000000
01100000
00000000
01000000
00010000
,
10000000
00000000
10010000
00000000
00010000
00100000
10000000
00100000
,
00001000
00010000
00001000
00000000
00010000
00000100
00000010
00000001
,
00001000
00000000
00000000
00000000
,
00001002
00000000
00000000
00001000
00000000
00001000
00000000
00000100
,
00000000
00000100
00000000
00000010
00000000
00000010
00000000
00001003
,
00000100
00010000
00000100
00010000
00001000
00100000
00010000
01000000
,
00100000
00000000
00000000
00000000
02200000
00000000
03300000
00300000
,
00010000
10000000
00100000
10000000
00010000
00100000
10000000
00100000
,
00001000
00010000
00001000
00010000
00000200
00000000
00000310
00000001
,
00001000
00000010
00000100
00000010
00001000
00000100
00000001
00000100
,
00010000
00001000
00010000
00001000
00200000
00000000
01300000
00000000
,
10000000
01000000
00100000
00010000
01000000
00100000
01000000
00010000
,
00100000
00001000
00010000
00000100
00000020
00000000
00000031
00000000
,
00000011
00001100
00000110
00001001
,
00000001
00000100
00001000
00010000
00002000
00000000
00003000
00000000
,
00021000
00000000
00233000
00000000
20300000
00000000
30010000
01000000
,
00010000
10000000
01000000
00100000
00002000
00000000
00013000
00000000
,
00012000
00000000
00033200
00000000
00000302
00000000
00001003
00000010
,
00001000
00000001
00000010
00000100
00020000
00000000
00031000
00000000
,
00010000
00000100
00010000
00300100
00000020
00000000
00000031
00000000
,
00001000
00000010
00000001
00000010
00010000
00001000
00010000
00000000
,
00001000
00100000
01000000
10000000
00100000
01000000
00010000
00100000
,
00001000
00010000
00001000
00010000
00000010
00000100
00001000
00010000
,
00002000
00000000
00100000
00000000
,
00000000
00000000
00100000
00000000
,
00023000
00000000
00000010
00000000
,
00031000
00000000
00022000
00033000
,
20020000
00000000
30030000
00010000
,
10000000
01000000
00100000
00000000
00010000
00000000
01000000
00000000
,
02020000
03030000
02002000
03003000
,
00022000
00033000
00010100
00000110
,
00001001
00000000
00000001
00000100
00000001
00001000
00000100
00001000
,
00000001
00000100
00000020
00000000
00020030
00000000
00031000
00100000
,
00002000
00000000
00103000
00010000
01000000
00100000
10000000
00100000
,
01000000
00010000
00100000
00001000
00000010
00000001
00000010
00000001
,
00002002
00000000
00003003
00001000
,
00000001
00000010
00000100
00000000
00001000
00000000
00000010
00000000
,
00002020
00003030
00020020
00030030
,
00021000
00032000
00103000
01100000
,
10010000
00000000
10000000
00100000
10000000
00010000
00100000
00010000
,
10000000
00100000
02000000
00000000
03002000
00000000
00013000
00000100
,
00020000
00000000
00030100
00001000
00000010
00000100
00000001
00000100
,
00000001
00000010
00001000
00000010
00000001
00000100
00000010
00001000
,
00000200
00010000
00010000
00010000
,
00000010
00000000
00000010
00000000
00001000
00000000
00001300
00000300
,
00000100
00010000
00001000
00100000
00010000
01000000
00100000
10000000
,
00020000
00000000
00000000
20000000
00000000
00000000
30030000
00000000
,
10010000
10010000
01100000
10010000
,
10000000
01000000
00100000
01000000
00100000
00010000
01000000
00000000
,
01001000
01001000
00011000
00010100
,
00010000
00000100
00010000
00000100
00000010
00000001
00001000
00000000
,
00001001
00001001
00000110
00001001
,
00000001
00000010
00000100
00000010
00000100
00001000
00000010
00000000
,
00010010
00010010
00011000
00101000
,
00001000
00010000
00001000
00010000
00100000
00010000
00001000
00000100
,
00000001
00001000
00000001
00001000
00000100
00000010
00000001
00000100
,
00000010
00001000
00000010
00001000
00000100
00010000
00001000
00100000
,
00010000
01000000
00010000
01000000
00100000
10000000
01000000
00100000
,
00010000
10000000
00010000
20000000
00200000
00000000
30300000
00000000
,
10100000
00000000
00000000
01010000
00000000
00000000
00011000
00000000
,
00020000
00000000
00030200
00000000
00000310
00000001
00001030
00000001
,
00000100
00000000
00000000
00000110
00000000
00000000
00001001
00000000
,
00000002
00002003
00023000
20030000
,
30010000
01000000
00100000
00000000
10200000
00000000
10330000
00010000
,
01000000
00010000
00100000
01000000
10000000
00000000
00020000
00000000
,
01030000
00001000
00020000
00000000
00030100
00000010
00000001
00000000
,
00001000
00000010
00001000
00000100
00010000
00001000
00010000
00002000
,
00200000
00000000
00000000
00000000
,
00000000
00000000
00000000
00003000
,
00300000
00000000
00000000
00000000
;

//---------------dance-double - ----------------
#NOTEDATA:;
#CHARTNAME:;
#STEPSTYPE:dance-double;
#DESCRIPTION:;
#CHARTSTYLE:;
#DIFFICULTY:Easy;
#METER:9;
#RADARVALUES:0.386149,0.457304,0.050841,0.220311,0.000000,319.000000,313.000000,6.000000,26.000000,0.000000,0.000000,0.000000,0.000000,0.000000,0.386149,0.457304,0.050841,0.220311,0.000000,319.000000,313.000000,6.000000,26.000000,0.000000,0.000000,0.000000,0.000000,0.000000;
#CREDIT:Ben Speirs;
#NOTES:
00000000
00000000
00000000
00000000
,
00000000
00000000
00000000
00000000
,
00000000
00000000
00000000
00000000
,
00001000
00000000
00010000
00000000
,
00001000
00100000
01000000
10000000
,
00010000
01000000
00010000
00000000
10000000
00000000
00000000
00000000
,
00010000
01000000
00100000
01000000
,
00001000
00010000
00001000
00000000
,
00010000
00000100
00000010
00000001
,
00001000
00000010
00001000
00000000
00000001
00000000
00000000
00000000
,
00001000
00000010
00000100
00000010
,
00010000
00001000
00100000
01000000
,
20020000
00000000
30030000
10000000
,
01000000
00100000
00001000
00000000
,
00010000
00010000
00001000
00001000
,
00000100
00000001
00001000
00000000
,
00000001
00000100
00000010
00000100
,
00001000
00000100
00000010
00000100
,
00000001
00000010
00001000
00010000
,
02000000
00000000
00000000
03000000
,
10010000
10000000
00100000
01000000
,
00010000
01000000
00010000
00000000
10000000
00000000
00000000
00000000
,
00010000
00010000
00100000
00100000
,
00001000
00010000
00000100
00000000
,
00001000
00000100
00001000
00000000
00000100
00000000
00000100
00000000
,
00000010
00000010
00000001
00000000
,
00001000
00000000
00001000
00000000
00000001
00000100
00000001
00000000
,
00001000
00001000
00000100
00000000
,
00010000
00001000
00010000
00000000
00001000
00000000
00100000
00000000
,
00100000
00000000
00010000
00000000
10000000
01000000
10000000
00000000
,
00010000
00000000
00010000
00000000
10000000
00000000
00100000
01000000
,
00100000
00000000
00000000
00000000
,
20000000
00000000
30200000
00000000
,
00320000
00000000
00032000
00000000
,
00003010
00000001
00001000
00000001
,
00000100
00000000
00002002
00003003
,
00000001
00000000
00000100
00000000
00000010
00001000
00000010
00000000
,
00001000
00000100
00020000
00030000
,
00001000
00010000
00001000
00100000
,
00010000
00010000
20000000
30000000
,
00010000
00000000
10000000
00000000
00100000
01000000
00100000
00000000
,
10000000
00010000
02000000
03000000
,
00001000
00001000
00010000
00010000
,
00000100
00000010
00000001
00000000
,
00001000
00000000
00000000
00000001
00000000
00000000
00000100
00000000
,
00000010
00000010
00010000
00001000
,
00100000
00000000
00000000
00010000
00000000
00000000
10000000
00000000
,
00100000
00100000
01000000
00001000
,
00010000
00000000
00000000
00000100
00000000
00000000
00010000
00000000
,
00001000
00001000
00100000
00010000
,
10000000
00000000
00000000
00100000
00000000
00000000
10000000
00000000
,
00010000
00010000
01000000
00001000
,
00020000
00000000
00000000
00000000
,
00000000
00000000
00000000
00000000
,
00032000
00000000
00000000
00000000
,
00013000
00000000
00000100
00000000
,
00002002
00000000
00000000
00003003
,
00000000
00000001
00001000
00000010
,
00000200
00000300
00002000
00003000
,
00020000
00000000
00030000
00030000
00100000
00000000
10000000
00000000
,
00010000
00000000
10000000
00000000
,
00010000
00100000
00001000
00000000
,
00100000
00010000
01000000
00001000
,
00100000
01000000
10000000
00000000
,
20020000
00000000
00000000
30030000
,
00000000
10000000
00010000
01000000
,
00200000
00300000
00020000
00030000
,
00002000
00000000
00003000
00003000
00000100
00000000
00000001
00000000
,
00001000
00000000
00000001
00000000
,
00001000
00000100
00010000
00000000
,
00000100
00001000
00000010
00010000
,
00000100
00000010
00000001
00000000
,
00001000
00001000
00000001
00000001
,
00000100
00000100
00000010
00000010
,
00010000
00001000
00100000
01000000
,
10000000
00000000
00000000
00000000
,
00010000
10000000
00100000
01000000
,
00010000
00000000
00100000
00000000
00001000
00000000
00010000
00001000
,
00010000
00000100
00000010
00000001
,
00001000
00000000
00000010
00000000
00000100
00000000
00000001
00001000
,
00000001
00000100
00000010
00001000
,
00000100
00000000
00010000
00000000
00001000
00000000
00100000
00001000
,
00100000
00001000
00100000
00010000
,
01000000
00100000
10000000
00000000
,
00010000
00100000
01000000
00000000
10000000
00000000
00100000
00000000
,
01000000
00001000
00010000
00010000
,
00000100
00000010
00000001
00001000
,
00000001
00000100
00000010
00000000
00001000
00000000
00000000
00000000
,
00000001
00000000
00000000
00001000
00000000
00000000
00000100
00000000
,
00010000
00010000
00001000
00100000
,
00010000
00000000
00000000
10000000
00000000
00000000
00100000
00000000
,
01000000
01000000
00001000
00010000
,
00011000
00000000
00001000
00000000
,
00010000
00000100
00000010
00000000
,
00000001
00000100
00000010
00001000
,
00000100
00000000
00000100
00000000
00010000
00001000
00100000
00002000
,
00020000
00000000
00000000
00000000
,
00000000
00000000
00000000
00003000
,
00030000
00030000
00000000
00000000
00000000
00000000
00000000
00000000
;
