#TITLE:Sippy Cup;
#SUBTITLE:ZIv ARROW EATING CONTEST;
#ARTIST:Horsey ;
#TITLETRANSLIT:;
#SUBTITLETRANSLIT:;
#ARTISTTRANSLIT:;
#GENRE:;
#CREDIT:NOWHERE Dance Club;
#MUSIC:Sippy Cup.ogg;
#BANNER:Sippy Cup-Banner.png;
#BACKGROUND:Sippy-Cup-bg.png;
#CDTITLE:;
#SAMPLESTART:47.644;
#SAMPLELENGTH:21.620;
#SELECTABLE:YES;
#OFFSET:0.478;
#BPMS:0.000=172.064;
#STOPS:;
#DISPLAYBPM:172.000;
#BGCHANGES:0.900=Sippy Cup.avi=1.000=1=0=0=StretchNoLoop==CrossFade==,
99999.000=-nosongbg-=1.000=0=0=0=StretchNoLoop====
#FGCHANGES:;

//--------------- dance-single - ???? EATING CONTEST ----------------
#NOTES:
     dance-single:
     ???? EATING CONTEST:
     Beginner:
     5:
     0,0,0,0,0:
0000
0000
0000
0000
,
0000
0000
0000
0000
,
0000
0000
0000
0000
,
0000
0000
0000
0000
,
0000
0000
1000
0000
,
0000
0001
0001
0000
,
0010
0000
0001
0000
,
1000
0000
0010
0000
,
0100
0000
0000
0000
0001
0000
0000
0001
,
0000
0000
0010
0000
0001
0000
0000
1000
,
0000
0000
0010
0000
0000
1000
0000
0001
,
0000
0000
1000
0000
0000
0001
0000
0000
,
0010
0001
0100
0000
,
0000
0000
0010
0000
,
0000
0000
0000
0000
1000
0000
0000
1000
,
0000
0000
0010
0000
1000
0000
0000
0100
,
0000
0000
0010
0000
0000
0001
0000
0001
,
0000
0000
1000
0000
0000
0100
0000
0000
,
1000
0000
1000
0000
0001
0000
0000
0001
,
0000
0000
1000
0000
1000
0000
0000
0100
,
0000
0000
0100
0000
0000
0010
0000
0010
,
0000
0000
0001
0000
0000
1000
0000
0000
,
0001
0000
0010
0000
0100
0000
0000
0100
,
0000
0000
0010
0000
0010
0000
0000
0001
,
0000
0000
0100
0000
0000
0010
0000
1000
,
0000
0000
0001
0000
0000
0100
0000
0000
,
0001
1000
2002
0000
,
0000
3003
1001
0000
,
0100
0100
0010
0000
,
0010
0010
0010
1000
,
0100
0010
0001
0000
,
1000
0000
0001
0000
,
1000
0000
2002
0000
,
0000
0000
0000
0000
0000
0000
0000
3003
0000
0000
0000
0000
0000
0000
0000
0000
,
0000
0000
0000
0000
0001
0000
0000
0001
,
0000
0000
0010
0000
0001
0000
0000
0100
,
0000
0000
0001
0000
0000
1000
0000
0100
,
0000
0000
1000
0000
0000
0010
0000
0000
,
0100
0000
0001
0000
1000
0000
0000
1000
,
0000
0000
0001
0000
0000
1000
0000
00M0
,
0000
0000
00M0
0000
0000
0001
0000
0001
,
0000
0000
1000
0000
0000
0100
0000
0000
,
0010
0000
0001
0000
1000
0000
0000
0001
,
0000
0000
0001
0000
0100
0000
0000
0010
,
0000
0000
0010
0000
0000
1000
0000
1000
,
0000
0000
0100
0000
0000
0100
0000
0000
,
0010
0010
0002
0003
,
0000
2000
0000
3000
0000
0000
0001
0000
,
0000
0010
0000
0000
0100
0000
1000
0000
,
0001
0000
0000
0100
0000
0000
0010
0000
,
0010
0000
0000
0000
,
1000
0000
0001
0001
,
2000
0000
0000
0000
,
3001
0000
0001
0100
,
0100
0001
0010
0000
,
0001
1000
0000
0001
,
0100
0010
1000
0100
,
0010
0000
0001
0010
,
0001
0100
0010
0100
,
0100
0001
0020
0000
,
0030
0000
0000
0000
,
0001
0000
0000
0000
,
0000
0000
0000
1000
0000
0000
0000
0000
,
0001
0000
0000
1000
,
0000
0000
0001
0000
,
0002
0000
0000
0000
,
0000
0000
0000
0000
,
0000
0000
0000
2000
,
0000
0000
0000
0000
,
0000
0000
0000
0000
,
0000
0000
0000
0020
0000
0000
0000
0000
,
0000
0000
0000
0000
,
0000
0000
0000
0000
,
0200
0000
0000
0000
,
0000
0000
0000
0000
,
0000
0000
0000
0000
,
0000
0000
0000
0000
,
0000
0000
0000
0000
0000
0000
0000
0000
0000
0000
0000
3333
0000
0000
0000
0000
;

//--------------- dance-single - 8THS EATING CONTEST ----------------
#NOTES:
     dance-single:
     8THS EATING CONTEST:
     Easy:
     8:
     0,0,0,0,0:
0000
0000
0000
0000
,
0000
0000
0000
0000
,
0000
0000
0000
0000
,
0000
0000
0000
0000
,
0000
0000
0000
0000
1000
0000
0000
1000
,
0000
0000
0001
0000
0100
0000
0000
0100
,
0000
0010
1000
0000
,
0001
0000
0010
0000
,
0010
0000
0000
0000
0001
0000
0000
1000
,
0000
0000
0010
0000
1000
0000
0000
0001
,
0000
0000
1000
0000
0000
0100
0000
1000
,
0000
0000
0001
0000
0000
1000
0000
0000
,
0010
1000
0110
0000
,
0000
0000
1001
0000
,
0000
0000
0000
0000
1000
0000
0000
1000
,
0000
0000
0010
0000
1000
0000
0000
0100
,
0000
0000
0010
0000
0000
0001
0000
1000
,
0000
0000
0001
0000
0000
0100
0000
0000
,
0010
0000
1000
0000
0001
0000
0000
0001
,
0000
0000
1000
0000
1000
0000
0000
0100
,
0000
0000
0100
0000
0000
0010
0000
0010
,
0000
0000
0001
0000
0000
1000
0000
0000
,
0001
0000
0010
0000
0100
0000
0000
0100
,
0000
0000
0010
0000
0010
0000
0000
0001
,
0000
0000
0100
0000
0000
0010
0000
1000
,
0000
0000
0001
0000
0000
0100
0000
0000
,
0001
1000
1001
0001
,
0100
0010
1000
0000
,
0001
1000
0001
0000
1001
0000
0000
0000
,
0001
0000
0010
0000
0100
0000
1000
0010
,
0000
1000
0010
0000
1000
0000
0000
0000
,
1100
0000
0001
0000
,
0101
0000
1001
0000
,
0000
0000
0000
0000
0000
0000
0000
0110
0000
0000
0000
0000
0000
0000
0000
0000
,
0000
0000
0000
0000
0001
0000
0000
0001
,
0000
0000
0010
0000
0001
0000
0000
0100
,
0000
0000
0001
0000
0000
1000
0000
0100
,
0000
0000
1000
0000
0000
0010
0000
0000
,
0100
0000
0001
0000
1000
0000
0000
1000
,
0000
0000
0001
0000
0001
1000
0000
00M0
,
0000
0000
00M0
0000
0000
0001
0000
0001
,
0000
0000
1000
0000
0000
0100
0000
0000
,
0010
0000
0001
0000
1000
0000
0000
0001
,
0000
0000
0010
0000
0100
0000
0000
0010
,
0000
0000
0010
0000
0000
0001
0000
0001
,
0000
0000
0100
0000
0000
0100
0000
0000
,
0010
0010
1000
1010
,
0000
0001
0000
0011
0000
0000
0001
0000
,
0000
0010
0000
0000
0100
0000
1000
0000
,
0001
0000
0000
0100
0000
0000
0010
0000
,
0110
0000
0000
0000
,
1000
0001
0000
1000
0001
0000
0001
0000
,
1001
0000
0000
0000
,
0001
1000
0000
0001
0001
1000
0000
0010
,
0010
1000
0000
1000
0001
0010
0000
0000
,
0000
0100
1000
0000
0000
0000
0001
0001
,
0100
0000
0010
0010
1000
0000
0100
0000
,
0010
0000
0000
0000
0001
0010
0010
0000
,
0001
0100
0010
0110
,
0100
0001
0010
0100
,
0110
0000
0000
0000
,
0001
0000
0000
1000
,
0000
0000
0000
0001
0000
0000
0000
0000
,
0000
1000
0000
0000
0000
0000
0001
0000
,
0000
0000
1000
0001
,
1000
0000
0000
0100
0000
0000
0010
0000
,
0100
0000
0000
1000
0000
0000
0010
0000
,
0000
0100
0000
0010
0000
0000
1000
0000
,
0000
0100
0000
0000
0010
0000
0001
0000
,
1000
0000
0010
0100
0000
0010
0100
0000
,
0001
0000
0000
0010
0000
0001
1000
0000
,
1000
0001
0000
0100
0000
0000
0010
0000
,
1000
0001
0000
0001
1000
0000
0100
0000
,
0010
0000
0001
0010
0000
0001
0100
0000
,
0010
0000
0000
1000
0000
0001
1000
0000
,
1000
0001
0000
0100
0000
0000
0001
0000
,
1000
0010
0000
0010
1000
0000
0001
1000
,
0000
1000
0000
0000
0000
0000
0000
0001
0000
0000
0000
0001
0000
0000
0000
0000
;

//--------------- dance-single - JUMP EATING CONTEST ----------------
#NOTES:
     dance-single:
     JUMP EATING CONTEST:
     Medium:
     12:
     0,0,0,0,0:
0000
0000
0000
0000
,
0000
0000
0000
0000
,
0000
0000
0000
0000
,
0000
0000
0000
0000
,
0000
0000
1001
0000
,
0000
0000
0101
0000
,
0101
0000
1010
0000
,
0001
0100
0201
0000
,
0310
0000
1000
0000
1010
0000
0000
0011
,
0000
0000
1000
0000
1100
0000
0000
0101
,
0000
0000
1100
0000
0000
1000
0000
1010
,
0000
0000
1001
0000
0000
0011
0000
0000
,
0001
1000
2002
0000
,
0000
0000
0000
0000
,
0000
0000
3003
0000
1000
0000
0000
1100
,
0000
0000
0011
0000
0101
0000
0000
0010
,
0000
0000
1010
0000
0000
0011
0000
1001
,
0000
0000
0101
0000
0000
0110
0000
0000
,
1001
0000
1001
0000
0101
0000
0001
1000
,
0000
1000
0001
0000
0010
0000
0001
2000
,
0000
0000
0001
0000
0000
3001
0000
1001
,
0000
0001
0100
0010
1000
0002
0000
0013
,
0010
0000
0100
0000
0010
0000
0000
0011
,
0000
0000
1000
0000
0001
2000
0000
0000
,
0000
0000
3010
0000
0010
0100
0000
0010
,
1000
0010
1000
0100
0010
0001
0000
0010
,
0001
0000
0100
0000
0010
0000
1000
0100
,
0000
0000
1100
0000
1001
0000
0001
0100
,
0000
0010
0110
0000
1001
0000
0000
1000
,
0010
0000
1010
0000
1001
0000
0001
0010
,
0000
0100
0110
0000
1001
0000
1000
0100
,
0000
0010
0011
0000
1001
0000
0001
0100
,
0000
0010
1000
0000
4040
0000
0000
0000
,
0000
0000
0000
3030
0000
0000
0000
0202
0000
0000
0000
0000
0000
0000
0000
0000
,
0000
0000
0303
0000
1001
0000
1000
1010
,
0000
1000
1001
0000
0101
0000
0000
1100
,
0000
1000
1010
0000
1000
1100
0000
0011
,
0000
0000
1001
0000
0001
0101
0000
1000
,
1010
0000
1000
0000
1001
0000
0000
0110
,
0000
0000
1001
0000
0001
2000
0000
000M
,
0000
0000
000M
0000
0000
3001
0000
0101
,
0000
0001
1000
0000
1000
0100
0000
0100
,
0010
0000
0011
0000
1100
0000
0100
1000
,
0000
1000
0010
0000
1000
0001
0001
0101
,
0000
0000
0101
0000
0000
1010
0000
1010
,
0000
1000
4400
0000
0000
0000
3300
0000
,
0011
0011
1001
0101
,
0000
0110
0000
1010
0000
1000
0100
0010
,
0001
0011
0000
0001
0100
0010
1000
0000
,
1010
0000
0000
1001
0000
0000
2000
0000
,
0001
0000
0000
0000
,
0001
0001
0000
0010
0010
0000
3010
0000
,
0220
0000
0000
0330
,
0001
0001
0000
1000
1100
0000
1001
0000
,
0001
0011
0000
1000
1100
0000
0110
0000
,
0010
0011
0022
0000
0033
0000
0001
0100
,
0010
1000
0100
0010
0001
0000
0011
0000
,
0022
0000
0000
0033
0001
1000
0001
0000
,
1000
0001
0011
0000
1000
0001
0101
0000
,
0001
1000
1100
0000
0011
0000
1010
0000
,
1MM1
0000
0000
0000
,
1001
0000
0000
0000
0000
0000
0000
0000
0000
0000
0000
0000
1001
0000
0000
0MM0
0000
0000
0000
0000
0000
0000
0000
0000
0001
0000
0000
0000
0000
0000
0000
0000
,
1000
0MM0
0000
1001
0000
0000
1MM1
0000
,
0000
0001
0000
1MM0
0000
0000
1001
0000
,
0MM0
0000
0000
0000
1001
0000
0000
0000
0000
0000
0000
0000
0000
0000
0000
0000
1MM0
0000
0000
0MM0
0000
0000
0000
0000
0001
0000
0000
0000
0000
0000
0000
0000
,
1001
0000
0000
0101
0000
0000
1010
0000
,
1001
0000
0000
0110
0000
0000
0011
0000
,
0000
1100
0000
0110
0000
0000
1001
0000
,
0000
1010
0000
0000
0101
0000
2001
0000
,
3001
0000
0000
0101
0000
0000
1010
0000
,
1001
0000
0000
0101
0000
0000
1100
0000
,
0000
0011
0000
0011
0000
0000
1001
0000
,
0000
1100
0000
0000
0110
0000
1001
0000
,
0101
0000
0000
1010
0000
0000
0101
0000
,
0101
0000
0000
0011
0000
0000
1100
0000
,
0000
0000
0011
0000
0000
0000
0011
0000
0000
0000
0000
0110
0000
0000
0000
0000
,
0000
0110
0000
0000
0000
0000
1001
0000
0000
0000
1001
0000
0000
0000
0110
0000
,
0000
1001
0000
0000
0000
0000
0000
0110
0000
0000
0000
1001
0000
0000
0000
0000
;

//--------------- dance-single - XO EATING CONTEST ----------------
#NOTES:
     dance-single:
     XO EATING CONTEST:
     Hard:
     13:
     0,0,0,0,0:
0000
0000
0000
0000
,
0000
0000
0000
0000
,
0000
0000
0000
0000
,
0000
0000
0000
0000
,
0000
1000
0001
0000
0100
0000
0010
0000
,
1000
0100
0012
0000
,
2003
0000
3020
0000
,
0130
0000
1020
0030
,
2100
0000
3000
0000
1001
0000
0000
0021
,
0000
0000
1030
0000
0001
0000
0000
0201
,
0000
0000
1300
0000
0000
0001
0000
1001
,
0000
0000
1200
0000
0000
0301
0000
0000
,
1000
0001
2002
0000
,
0000
0000
0000
0000
,
0000
0000
0000
3003
1000
0010
0001
0010
,
1000
0001
1000
0001
0100
1000
0100
0001
,
0010
1000
0010
0001
1000
0100
0001
0100
,
1000
0001
1000
0010
0001
0010
1000
0100
,
0001
0100
1000
0001
1000
0000
0000
1100
,
0000
0000
0011
0000
0202
0000
0303
1001
,
0000
0000
1100
0000
0000
0011
0000
0101
,
0000
0001
0010
0100
1000
0001
0000
1000
,
0100
0000
1100
0000
0011
0000
0001
0100
,
0000
0010
1000
0000
0100
0020
0000
0000
,
0000
0000
0031
0000
0000
0101
0000
1001
,
0000
0001
0010
0010
0001
0200
0000
0310
,
1000
0100
0001
0100
2000
0000
3001
0100
,
0000
1000
1010
0000
2000
0000
0100
3100
,
0000
0010
0011
0000
0101
0000
0000
0001
,
0100
0010
1000
0001
2000
0000
3001
0100
,
0000
0010
1000
1000
0200
0000
0010
0310
,
0000
0000
1001
0000
0002
0000
0100
0103
,
0000
0001
0010
0001
4000
0004
0000
0000
,
0000
0000
0000
0000
3003
0000
0000
2002
0000
0000
0000
0000
0000
0000
0000
0000
,
0000
0000
0000
3003
1000
0010
0001
0010
,
1000
0100
0000
0001
0100
1000
0001
0100
,
1000
0100
0001
1000
0001
0100
1000
0100
,
0001
0010
0000
1000
0010
0001
1000
0010
,
0001
0010
1000
0001
1000
0000
0000
1001
,
0000
0000
1000
0000
0010
2000
0000
00M0
,
0000
0000
00M0
0000
0000
3001
0000
1000
,
0000
1000
0001
0000
0001
0100
0000
0100
,
0010
0000
1010
0000
0101
0000
0100
0001
,
0000
0001
1000
0000
0001
0000
0010
0200
,
0000
0000
1000
0000
0000
0010
0000
0010
,
0300
0001
0200
0000
0000
0320
0000
0000
,
1030
0001
1000
1100
,
0000
0100
M000
0101
0000
0100
1000
0000
,
1000
0001
0000
0001
0010
0100
1000
0000
,
1010
0000
0000
0110
0000
0000
0101
0000
,
2002
0000
0000
3003
,
1000
0010
0000
0100
0001
0000
0001
0000
,
0021
0000
0000
0000
,
0031
1000
0000
0001
0100
1000
0001
0010
,
1000
0001
0100
0001
0010
0002
0000
0000
,
0000
1000
0103
0000
0000
0000
1000
0010
,
1000
0100
0010
0001
0010
0000
0110
0000
,
0022
0000
0000
0000
0000
0033
0000
0000
0001
0000
0100
0000
0010
0000
1000
0000
,
0001
0010
1000
0001
0100
1000
0001
1000
,
0001
0100
1000
0001
0010
1000
0001
1000
,
0MM1
0000
0000
0000
,
1001
0000
0000
0000
0000
0000
0000
0000
0000
0000
0000
0000
1001
0000
0000
0MM0
0000
0000
0000
0000
0000
0000
0000
0000
0001
0000
0000
0000
0000
0000
0000
0000
,
1000
0MM0
0000
1001
0000
0000
1MM1
0000
,
0000
0001
0000
1MM0
0000
0000
1001
0000
,
0MM0
0000
0000
0000
1001
0000
0000
0000
0000
0000
0000
0000
0000
0000
0000
0000
1MM0
0000
0000
0MM0
0000
0000
0000
0000
0001
0000
0000
0000
0000
0000
0000
0000
,
2000
0000
0000
3200
0000
0000
0302
0000
,
0103
1000
0010
0001
0010
1000
0001
0010
,
0100
1000
0000
1010
0000
0000
0002
0000
,
0000
0023
0000
0000
2030
0000
3010
0001
,
0100
1000
0100
0001
1000
0100
0010
0000
,
0011
0000
0000
1000
0100
1000
0001
0010
,
1000
0010
0000
0002
0000
0000
1003
0010
,
0001
1000
0100
0001
1000
0000
1001
0000
,
0001
0100
0001
1000
0010
0001
0010
0000
,
2000
0000
0000
3001
0010
1000
0001
0100
,
1000
0000
0000
0000
0000
0000
0001
0000
0000
0000
0000
0000
0000
0000
0000
4004
3003
0000
0000
0000
0000
0000
0000
0000
0000
0000
0000
0000
0000
0000
1000
0000
0000
0000
0000
0000
0100
0000
0000
0000
0000
0000
1000
0000
0000
0000
0000
0000
,
0001
0100
0010
0100
0001
0010
0000
0001
,
0000
0101
0000
0000
0000
0000
0000
0100
0000
000M
0000
1100
0000
0000
0000
0000
;

//--------------- dance-single - [BR- XO+ RH+] EATING CONTEST ----------------
#NOTES:
     dance-single:
     [BR- XO+ RH+] EATING CONTEST:
     Challenge:
     16:
     0,0,0,0,0:
0000
0000
0000
0000
,
0000
0000
0000
0000
,
0000
0000
0000
0000
,
0000
0000
0000
0000
,
0000
1000
0100
0000
0010
0000
0001
0000
,
0100
1000
0200
0000
,
0302
0000
0023
0000
,
2030
0000
3020
0000
,
0032
0000
0000
0000
1003
0000
0000
0011
,
0000
0000
1000
0000
1010
0000
0000
0001
,
0000
0000
0101
0000
0000
1000
0000
1100
,
0000
0000
1001
0000
0000
0011
0000
0000
,
1001
1010
2002
0000
,
0000
0000
0000
0000
,
0000
0000
0000
3003
1000
0001
1000
0010
,
0001
0010
1000
0001
0100
1000
0100
0001
,
0010
1000
0010
0001
1000
0100
0001
0100
,
1000
0001
1000
0010
0001
0010
1000
0100
,
0001
0100
1000
0001
2000
0000
0000
3200
,
0000
0000
0301
0100
1000
0002
0000
0000
,
0000
0000
0023
0000
0000
1030
0010
0001
,
0000
1000
0001
0000
0001
0100
0000
0100
,
0010
0000
1000
0000
1001
0000
1000
0100
,
0000
1000
0010
0000
1000
0002
0000
0000
,
0000
0000
0010
0000
0000
1000
0000
1003
,
0001
1000
0001
0100
0010
0100
0000
0100
,
0010
0000
1000
0000
0002
0000
0000
1003
,
0000
1000
0010
0000
1010
0000
1000
1100
,
0000
0010
0001
0000
0011
0000
0000
1000
,
0000
1000
1001
0000
0101
0000
0010
1000
,
0000
0001
0101
0100
0010
0000
1000
0100
,
0000
0001
0011
0000
0100
0000
0010
0100
,
0000
0000
0010
0000
0400
0040
0000
0000
,
0000
0000
0000
0000
0330
0000
0000
2002
0000
0000
0000
0000
0000
0000
0000
0000
,
0000
0000
0000
3003
1000
0100
0010
0001
,
1000
0001
0010
0100
1000
0010
0001
0010
,
1000
0001
0100
0010
1000
0010
0100
0001
,
1000
0001
0100
0010
1000
0100
0001
0100
,
1000
0001
0100
0010
1000
0000
0000
1010
,
0000
0000
0100
0000
0001
0020
0000
M000
,
0000
0000
M000
0000
0000
0031
0000
1000
,
0000
1000
0100
0000
0010
0001
0000
0001
,
0100
0000
1000
0000
0100
0000
0001
1000
,
0000
0001
0010
0000
0100
0000
0000
1100
,
0000
0000
0100
0000
0000
0010
0000
0011
,
0000
0001
0100
0000
0010
1000
0000
1000
,
0001
1000
0002
1013
,
0000
0000
0002
0000
0000
0000
1103
0000
0000
0000
1000
0000
0010
0M00
0010
0000
,
0001
0100
0000
1000
0100
0010
1000
0000
,
2200
3300
0000
0022
0033
0000
1000
0000
,
2020
0000
0000
3030
,
1000
0010
0000
0100
0001
0000
0010
0000
,
0021
0000
0000
0000
,
0031
0000
0001
0000
0000
0000
1000
0100
0010
0001
0100
0010
1000
0001
1000
0100
,
0010
0001
1000
0001
1000
0010
1000
0010
1000
0002
0000
0000
0000
0000
0000
0000
,
0003
0000
0100
0000
0020
0000
0000
0000
0000
0000
0000
0000
1030
0010
0100
0001
,
1000
0100
0010
0001
1000
0001
1000
0000
2010
0000
0000
0000
3010
0000
0000
0000
,
1002
0000
0000
0000
0000
0000
0000
0000
1003
0001
1000
0001
0100
0010
0100
0000
,
0010
1000
0010
0000
1000
0001
1000
0000
0001
0010
0001
0000
0100
0001
0100
0000
,
0010
0100
0010
1000
0001
0010
0100
1000
0001
1000
0000
0000
0001
0000
0000
0000
,
1MM1
0000
0000
0000
,
1001
0000
0000
0000
0000
0000
0000
0000
0000
0000
0000
0000
1001
0000
0000
0MM0
0000
0000
0000
0000
0000
0000
0000
0000
1000
0000
0000
0000
0000
0000
0000
0000
,
0001
0MM0
0000
1001
0000
0000
1MM1
0000
,
0000
1000
0000
0MM1
0000
0000
1001
0000
,
0MM0
0000
0000
0000
1001
0000
0000
0000
0000
0000
0000
0000
0000
0000
0000
0000
0MM1
0000
0000
0MM0
0000
0000
0000
0000
1000
0000
0000
0000
0000
0000
0000
0000
,
0002
0000
0000
0203
0000
0000
2300
0000
,
3100
0001
0010
1000
0010
0001
1000
0010
,
0100
0001
0000
0011
0000
0000
0002
0000
,
0000
0023
0000
0000
2030
0000
3010
0001
,
0100
1000
0100
0001
1000
0100
0010
0000
,
0011
0000
0000
0001
0100
0001
1000
0010
,
0001
0010
0000
2000
0000
0000
3001
0010
,
0001
0100
0010
1000
0100
0000
1001
0000
,
1000
0100
1000
0001
0010
1000
0010
0000
,
0002
0000
0000
1003
0010
1000
0100
0010
,
0001
0000
0000
0000
0000
0000
1000
0000
0000
0000
0000
0000
0000
0000
0000
4004
3003
0000
0000
0000
0000
0000
0000
0000
0000
0000
0000
0000
0000
0000
0001
0000
0000
0000
0000
0000
0100
0000
0000
0000
0000
0000
0001
0000
0000
0000
0000
0000
,
1000
0100
0010
0100
1000
0010
0000
1000
,
0000
0101
0000
0000
0000
0000
0000
1000
0000
0000
0000
0011
0000
0000
0000
0000
;

//--------------- dance-single - [SPICY] TRILLS EATING CONTEST ----------------
#NOTES:
     dance-single:
     [SPICY] TRILLS EATING CONTEST:
     Edit:
     20:
     0,0,0,0,0:
0000
0000
0000
0000
,
0000
0000
0000
0000
,
0000
0000
0000
0000
,
0000
0000
0000
0000
,
0000
1000
0001
0000
0100
0000
0010
0000
,
1000
0100
0012
0000
,
2103
0000
3002
0000
,
0103
0000
2010
0000
,
3001
0000
0000
0000
1001
0000
0000
0011
,
0000
0000
1010
0000
0101
0000
0000
1001
,
0000
0000
1100
0000
0000
1010
0000
0101
,
0000
0000
1000
0000
0000
1100
0000
0000
,
0100
0110
2002
0000
,
0000
0000
0000
0000
,
0000
0000
0000
3003
0001
1000
0001
0010
,
1000
0010
0001
1000
0100
0001
0100
1000
,
0010
0001
0010
1000
0001
0100
1000
0100
,
0001
1000
0001
0010
1000
0010
0001
0100
,
1000
0100
0001
1000
1001
0000
0000
1100
,
0000
0000
0011
0000
0202
0000
0303
1001
,
0000
0000
1100
0000
0000
0011
0000
0101
,
0000
0001
0010
0100
1000
0001
0000
1000
,
0100
0000
1100
0000
0011
0000
0001
0100
,
0000
0010
1000
0000
0100
0020
0000
0000
,
0000
0000
0031
0000
0000
0101
0000
0101
,
0000
0001
0010
0010
0001
0200
0000
0310
,
1000
0000
0001
0000
2000
0000
3001
0100
,
0100
0000
1010
0000
0020
0000
0100
0130
,
0000
0010
1000
0001
1000
0000
0002
1000
,
0000
1003
0000
0100
2000
0000
3100
0010
,
0000
0010
0001
0001
0200
0000
0010
0310
,
0000
0000
1001
0000
2000
0000
0100
3100
,
0000
0000
0011
0000
1100
0000
0000
0001
,
0000
0010
0220
0000
,
0000
0000
0000
0330
0010
0001
0100
1000
,
0100
0001
0001
1000
0010
0001
0010
1000
,
0100
0001
0100
1000
1000
0100
0001
1000
,
0010
0001
0001
0100
1000
0100
0001
0010
,
1000
0010
0001
0000
0101
0000
0000
1010
,
0000
0000
1100
0000
1000
2010
0000
0000
,
0000
0000
0000
0000
0000
3001
0000
1000
,
0000
0001
1000
0000
1000
0100
0000
0100
,
0010
0000
0011
0000
0101
0000
0010
1000
,
0000
1000
0100
0000
0010
0000
0001
2000
,
0000
0000
0010
0000
0000
0001
0000
3010
,
0000
0001
0200
0000
0000
0010
0000
0000
,
0011
0311
0002
1013
,
0000
0000
0002
0000
0000
0000
1103
0000
0000
0000
1000
0000
0010
M000
0010
0000
,
0001
0100
0000
1000
0100
0010
1000
0000
,
2020
3030
0000
0202
0303
0000
1001
0000
,
2200
0000
0000
3300
,
0001
0010
0000
0100
1000
0000
1000
0000
,
1020
0000
0000
0000
,
1030
0000
1000
0000
0000
0000
1000
0100
0010
0001
0100
0010
1000
0001
1000
0100
,
0010
0001
1000
0001
1000
0010
1000
0010
1000
0002
0000
0000
0000
0000
0000
0000
,
1003
0000
0100
0000
0020
0000
0000
0000
0000
0000
0000
0000
0031
0010
0100
1000
,
0001
0100
0010
1000
0001
1000
0001
0000
1002
0000
0000
0000
0013
0000
0000
0000
,
2100
0000
0000
0000
0000
0000
0000
0000
3001
1000
0001
1000
0100
0010
0100
0000
,
0010
0001
0010
0000
0001
1000
0001
0000
1000
0010
1000
0000
0100
1000
0100
0000
,
0010
0100
0010
0001
1000
0010
0100
0001
1000
0001
0000
0000
1000
0000
0000
0000
,
1MM1
0000
0000
0000
,
1001
0000
0000
0000
0000
0000
0000
0000
0000
0000
0000
0000
1001
0000
0000
0MM0
0000
0000
0000
0000
0000
0000
0000
0000
0001
0000
0000
0000
0000
0000
0000
0000
,
1000
0000
0MM0
0000
0000
0000
1001
0000
0000
0000
0000
0000
1001
0MM0
0000
0000
,
0000
0000
0001
0000
0000
0000
1000
0MM0
0000
0000
0000
0000
1001
0000
0000
0000
,
0MM0
0000
0000
0000
1001
0000
0000
0000
0000
0000
0000
0000
0000
0000
0000
0000
1MM0
0000
0000
0MM0
0000
0000
0000
0000
0001
0000
0000
0000
0000
0000
0000
0000
,
1000
0001
1000
0001
1000
0001
1000
0001
1000
0001
1000
0001
1000
0001
1000
0001
,
1000
0001
1000
0001
1000
0001
1000
0001
1000
0001
1000
0001
1000
0001
1000
0001
,
1000
0001
1000
0001
1000
0001
1000
0001
1000
0001
1000
0001
1000
0001
1000
0001
,
1000
0001
1000
0001
1000
0001
1000
0001
1000
0001
1000
0001
1000
0001
1000
0001
,
1000
0001
1000
0001
1000
0001
1000
0001
1000
0001
1000
0001
1000
0001
1000
0001
,
1000
0001
1000
0001
1000
0001
1000
0001
1000
0001
1000
0001
1000
0001
1000
0001
,
1000
0001
1000
0001
1000
0001
1000
0001
1000
0001
1000
0001
1000
0001
1000
0001
,
1000
0001
1000
0001
1000
0001
1000
0001
1000
0001
1000
0001
1000
0001
1000
0001
,
4000
3000
0000
0001
0000
0000
1000
0000
0000
0001
0000
0000
1000
0000
0000
0001
0000
0000
4000
3000
0000
0001
0000
0000
1000
0000
0000
0001
0000
0000
1000
0000
0000
0001
0000
0000
4000
3000
0000
0001
0000
0000
1000
0000
0000
0001
0000
0000
,
4000
3000
0000
0001
0000
0000
1000
0000
0000
0001
0000
0000
1000
0000
0000
0001
0000
0000
4000
3000
0000
0001
0000
0000
1000
0000
0000
0001
0000
0000
1000
0000
0000
0001
0000
0000
4000
3000
0000
0001
0000
0000
1000
0000
0000
0001
0000
0000
,
1000
0000
0000
0001
0000
0000
4000
3000
0000
0001
0000
0000
1000
0000
0000
0001
0000
0000
4000
3000
0000
0001
0000
0000
1000
0000
0000
0001
0000
0000
1000
0000
0000
0004
0003
0000
1000
0000
0000
0001
0000
0000
1000
0000
0000
0001
0000
0000
,
1000
0000
0000
0004
0003
0000
1000
0000
0000
0001
0000
0000
1000
0000
0000
0001
0000
0000
4000
3000
0000
0001
0000
0000
1000
0000
0000
0001
0000
0000
4000
3000
0000
0001
0000
0000
1000
0000
0000
0000
0000
0000
0004
0003
0000
0000
0000
0000
,
0000
0000
0000
4000
3000
0000
0000
0000
0000
0000
0000
0000
0000
0000
0000
0000
0000
0000
0000
0000
0000
4004
3003
0000
0000
0000
0000
0000
0000
0000
0000
0000
0000
4004
3003
0000
0000
0000
0000
0000
0000
0000
0000
0000
0000
0000
0000
0000
;
