#TITLE:Shooting Star;
#SUBTITLE:;
#ARTIST:Discotronic;
#TITLETRANSLIT:;
#SUBTITLETRANSLIT:;
#ARTISTTRANSLIT:;
#GENRE:;
#CREDIT:;
#MUSIC:Shooting Star.ogg;
#BANNER:;
#BACKGROUND:;
#CDTITLE:;
#SAMPLESTART:38.504;
#SAMPLELENGTH:12.000;
#SELECTABLE:YES;
#OFFSET:-0.189;
#BPMS:0.000=142.000;
#STOPS:;
#DISPLAYBPM:142.000;
#BGCHANGES:;
#FGCHANGES:;

//--------------- dance-single - ----------------
#NOTES:
     dance-single:
     :
     Beginner:
     3:
     0,0,0,0,0:
0000
0000
0000
0000
,
0000
0000
0000
0000
,
0000
0000
0000
0000
,
0000
0000
0000
0000
,
0000
0000
1000
1000
,
0000
0000
0000
0000
,
0000
0000
0001
0001
,
0000
0000
0000
0000
,
0000
0000
1001
0000
,
1000
0000
0000
0000
,
0000
0000
0001
0000
,
0100
0000
0000
0000
,
0000
0000
0010
0000
,
1000
0000
0100
0000
,
0010
0000
0001
0000
,
0100
0000
0010
0000
,
1000
0000
0001
0001
,
0000
0100
0000
0010
,
0000
1000
0000
0001
,
0000
0100
0000
0010
,
0000
1000
0000
0001
,
0000
0100
0000
0010
,
0000
1000
1000
0000
,
0001
0000
1000
0000
,
0000
0000
1001
1001
,
0000
0001
0000
0100
,
0000
0010
0000
1000
,
0000
0100
0000
0010
,
0000
0001
0000
0100
,
0000
0010
0000
1000
,
0000
0001
0000
0100
,
0000
0010
0010
0000
,
1000
0000
0002
0000
,
0000
0003
0000
0010
,
0000
0010
0000
0100
,
0000
0001
0000
1000
,
1000
0000
0001
0000
,
1000
0000
0001
0000
,
0100
0000
0010
0000
,
1000
0000
0002
0000
,
0000
0003
1001
0000
,
1000
0000
0000
0000
,
0000
0000
0001
0000
,
0001
0000
0000
0000
,
0000
0000
1000
0000
,
0001
0000
0100
0000
,
0010
0000
1000
0000
,
0001
0000
0200
0000
,
0000
0300
0010
0000
,
0010
0000
0010
0000
,
0010
0000
1000
0000
,
1000
0000
0001
0000
,
0001
0000
1000
0000
,
1000
0000
0010
0000
,
0100
0000
0001
0001
,
0001
0001
0001
0000
,
0000
0000
1001
0000
,
1000
0000
0010
0000
,
0100
0000
0001
0000
,
0010
0000
0100
0000
,
0010
0000
0001
0000
,
1000
0000
0010
0000
,
0100
0000
0001
0000
,
1000
0000
0100
0000
,
0010
0000
1001
0000
,
1000
0000
0010
0000
,
0100
0000
0001
0000
,
1000
0000
0100
0000
,
1000
0000
0001
0000
,
0100
0000
0010
0000
,
1000
0000
0001
0000
,
0100
0000
0020
0000
,
0000
0030
1001
0000
;

//--------------- dance-single - XO DT ----------------
#NOTES:
     dance-single:
     XO DT:
     Easy:
     8:
     0,0,0,0,0:
0000
0000
0000
0000
,
0000
0000
0000
0000
,
0000
0000
0000
0000
,
0000
0000
0000
0000
,
0000
0000
1000
0001
,
1000
0000
0000
0001
0000
0100
0000
0001
,
0000
0100
0000
0010
1000
0000
0001
0000
,
0000
1000
0000
0100
0000
0010
0000
0001
,
0000
1000
0000
0000
1001
0000
1000
0000
,
0001
0100
0010
1000
,
0100
0010
0001
1000
,
0010
0100
0001
0010
,
0100
0000
1000
0000
0001
0100
0001
0000
,
1000
0100
1000
0000
0001
1000
0001
0000
,
0010
0100
1000
0000
0001
0000
0100
0000
,
0010
1000
0100
0010
,
0001
1000
0010
1010
,
1000
1001
0001
0101
,
0100
0000
0010
1000
0010
0000
1010
0000
,
1000
0000
0001
0100
1000
0000
0100
0000
,
0001
0100
0010
0000
1000
0000
1100
0000
,
0010
0011
0001
0101
,
0100
0000
0010
1000
0010
0000
1000
0100
,
1000
0001
0000
0100
0010
0000
1000
0000
,
0100
0000
0010
0000
0001
0100
0000
1000
,
0000
0100
0001
0000
0010
1000
0000
0010
,
0000
0001
0100
0000
0001
0000
1000
0100
,
0000
0001
0100
0000
1000
0010
0000
0100
,
0010
1000
0001
0100
0000
0010
0000
0001
,
0000
0010
0100
0000
0001
0100
0000
0010
,
1000
0000
0100
0000
0010
0000
0010
0001
,
0000
0001
0100
0000
0020
0000
0000
0000
,
2030
3001
1002
1000
,
0010
0000
1000
0000
0103
0000
0010
0100
,
0100
0000
0001
0000
1000
0100
0010
0010
,
0001
0100
0010
1000
,
0001
0000
1000
0100
0000
0001
0000
0100
,
2000
0001
0100
0001
,
3100
0010
0000
0100
0001
1000
0001
0000
,
0100
0010
2000
0000
,
0000
0000
3001
0100
0001
0000
0100
0100
,
0100
0010
1000
0100
,
0010
0000
0001
1000
0001
0000
0100
0100
,
0100
0010
1000
0100
,
0010
0000
0001
0000
1000
0010
1000
0010
,
1000
0000
0001
0000
0100
0010
0100
0010
,
0100
0000
0001
0000
1000
0100
0010
0001
,
1000
0100
0010
0001
2000
0000
0000
0000
,
0000
3000
1001
0001
,
0100
0001
0100
0010
,
1000
0100
1000
0001
,
1000
0010
0100
0001
,
0010
0000
0100
0000
1000
0001
1000
0000
,
0010
0100
0010
0000
1000
0100
0010
0000
,
0001
1000
0001
0000
1000
0000
0010
0000
,
0100
0001
0100
0000
,
0000
0010
1010
1000
,
0001
0000
0100
0100
0010
0000
1000
0000
,
0001
0000
1000
0010
1000
0000
0001
0000
,
0100
0000
0010
0010
1000
0000
0001
0000
,
0100
0000
0010
0010
1000
0000
0001
0000
,
0100
0000
0001
0001
1000
0000
0100
0000
,
0010
0000
0001
1000
0001
0000
0100
0000
,
0010
0000
1000
0100
0010
0001
1000
0000
,
0010
0000
0100
0000
0101
0000
0001
1000
,
0001
1000
0001
0000
1000
0000
0001
0100
,
0001
0100
0001
0000
0100
0000
0010
1000
,
0010
1000
0010
0000
1000
0000
0100
0010
,
0001
0010
0100
0000
1000
0000
0001
0100
,
0001
0100
0001
0000
0100
0000
0010
1000
,
0010
1000
0010
0000
1000
0000
0001
0000
,
0100
0010
0200
0000
,
0000
0300
1001
0000
;

//--------------- dance-single - XO- DS JA FS SJ ----------------
#NOTES:
     dance-single:
     XO- DS JA FS SJ:
     Medium:
     11:
     0,0,0,0,0:
0000
0000
0000
0000
,
0000
0000
0000
0000
,
0000
0000
0000
0000
,
0000
0000
0000
0000
,
0000
0000
0001
1000
,
0001
0100
0000
1000
0000
0100
0000
0001
,
0000
1000
0000
0001
0010
0000
0100
0000
,
0000
1000
0000
0010
0000
0001
0000
0010
,
0000
1000
0000
0001
1001
0000
1000
0000
,
0001
0010
0000
1000
0000
0010
0000
0001
,
0000
0100
0000
0010
1000
0000
0100
0000
,
0010
0001
0000
0100
0000
0010
0000
0100
,
0000
0001
0000
1000
1100
0000
0110
0000
,
0011
0000
0001
1000
0001
0000
0011
0000
,
0110
0000
0100
1000
0001
0100
0001
1000
,
0100
0010
0001
0100
0010
0000
1000
0100
,
0001
0100
1000
0100
0010
0001
0101
0000
,
0010
1000
1010
0000
1000
0100
1100
0000
,
0100
0010
0100
1000
1000
0000
1001
0000
,
0001
0000
0011
0001
0000
1000
0100
0010
,
0001
0100
0010
0000
1000
0100
1000
0100
,
0010
0001
0010
0001
1000
0010
0100
0001
,
1000
0100
1000
0100
1000
0000
0001
0100
,
0010
1000
0000
0001
1000
0000
0100
0000
,
0010
0000
0000
0000
0001
0000
0100
0000
0010
0000
1000
0000
0000
M000
0100
0000
,
0001
0000
0010
0000
0100
0000
1000
0000
0001
0000
0010
0000
0000
00M0
1000
0000
,
0100
0010
0100
1000
0010
0001
0010
2000
,
0000
3001
0100
0010
1000
0100
0010
0001
,
0000
0000
1000
0000
0100
0000
1000
0000
0000
M000
0100
0000
0001
0000
0010
0000
,
0000
00M0
1000
0000
0001
0000
0100
0000
0010
0000
1000
0000
0000
M000
0100
0000
,
0001
0010
0100
1000
0010
0001
0010
1000
,
0000
0100
0010
0001
1000
0000
1100
0000
,
0100
0000
0010
0000
0100
0000
1000
0001
2000
0000
0100
0000
3100
0000
0000
0000
,
0020
0001
0031
1000
0100
0010
0001
0100
,
0001
0000
1001
0000
1000
0100
0001
0100
,
1000
0100
0010
0000
0001
0100
0001
1000
,
0002
0000
1000
1003
0100
0000
0010
0001
,
0200
0000
0310
1000
0002
0000
1003
0100
,
1000
0000
0001
0000
0010
0000
0000
0001
0010
0000
0001
0000
0100
0000
0010
0000
,
1000
0100
0010
0001
4000
0000
0000
0000
,
0000
0000
0000
0000
3001
0000
0100
00M0
0100
0000
1000
0000
0001
0000
0010
0000
,
0100
1000
0001
0100
,
0001
0000
0000
0000
1000
0000
0010
0M00
0010
0000
0001
0000
1000
0000
0010
0000
,
0100
0001
1000
0100
,
0010
0000
0000
0000
0001
0000
0100
00M0
0100
0000
1000
0000
0010
0000
0100
0000
,
0001
0000
0000
0000
1000
0000
0010
1000
0010
0000
0100
0000
0001
0000
0100
0000
,
1000
0000
0000
0000
0100
0000
0001
1000
0001
0000
0100
0000
1000
0000
0100
0000
,
0001
0000
0100
0000
0001
0010
0100
1000
0002
0000
0000
0000
0000
0000
0000
0000
,
0000
0000
0003
0000
1000
0100
0010
0001
,
0010
0100
1000
0000
0010
0000
0100
0000
,
0001
0000
1000
0100
1000
0010
0100
0001
,
0010
0001
0100
0010
1000
0000
0001
0000
,
0010
0000
0100
1000
0001
0010
0001
0010
,
0100
1000
0100
1000
0001
0100
0001
0100
,
0010
0000
0000
1000
0000
0000
0010
0000
0000
1000
0000
0000
0001
0000
0010
0000
0100
0000
1000
0000
0100
0000
1000
0000
,
0010
0100
0001
1000
0010
0100
0001
0000
0000
0000
0000
0000
,
0000
0000
1000
1000
1000
0010
0100
0001
,
0100
0100
0001
0010
1000
0010
0001
0100
,
0001
0100
1000
0100
0010
1000
0001
0001
,
0100
0100
0001
0100
1000
0100
0010
1000
,
0100
0010
0001
0010
0001
1000
0010
0010
,
1000
1000
0001
0010
1000
0010
0100
1000
,
0010
0100
0100
0001
1000
0100
0010
0001
,
0100
0000
0010
0000
1000
0000
0001
0000
1000
0000
0001
0100
0001
0000
1000
0010
,
1000
0000
0001
0000
0100
0000
0010
0000
1000
0000
0001
0000
0100
00M0
0100
0000
,
0100
0100
1000
0010
0100
0001
0010
0010
,
0010
0000
0001
0000
0100
0000
0010
0000
1000
0000
0001
0000
0100
00M0
0100
0000
,
0100
0100
1000
0010
0100
0001
1000
1000
,
1000
0000
0001
0000
0100
0000
0010
0000
1000
0000
0100
0000
0010
000M
0010
0000
,
0010
0010
1000
0001
0100
0010
1000
1000
,
1000
0001
0100
0010
1000
0100
0010
0010
,
0010
0010
1000
0001
0200
0000
0000
0000
,
0000
0300
0110
0000
;

//--------------- dance-single - XO DS JA SJ- BR FS ----------------
#NOTES:
     dance-single:
     XO DS JA SJ- BR FS:
     Hard:
     14:
     0,0,0,0,0:
0000
0000
0000
0000
,
0000
0000
0000
0000
,
0000
0000
0000
0000
,
0000
0000
0000
0000
,
0000
0000
0000
0000
1000
0010
1000
0001
,
0100
0001
0000
0100
0000
1000
0000
0100
,
0000
0001
0000
0100
0010
1000
0100
0010
,
0000
0001
0000
0100
0000
1000
0000
0100
,
0000
0001
0000
1000
1010
0010
0100
0001
,
1000
0001
0000
0100
0000
1000
0000
0100
,
0000
0001
0000
1000
0010
0100
0001
1000
,
0100
0010
0000
0001
0000
0010
0000
1000
,
0000
0010
0000
0001
0101
0000
0110
0000
,
1010
0000
0000
0000
1000
0000
0100
1000
0001
0000
0100
0000
0101
0000
0000
0000
,
0001
0000
1000
0000
0001
0000
0100
0010
0100
0000
0010
0000
1000
0000
0010
0000
,
0100
0000
0001
0000
0010
0000
0100
0000
1000
0000
0001
1000
0001
0000
0100
0010
,
1000
0000
0010
0000
0100
0001
0100
0001
1000
0000
0001
0000
1100
0000
0001
0000
,
0010
0001
1010
0001
1000
0001
1100
0001
,
0010
0100
1010
0001
0100
0001
1100
0001
,
0010
0001
1010
0001
0010
0100
1010
0001
,
0100
0000
0010
0000
1000
0000
0000
0000
0001
0000
1000
0100
0010
0000
0001
0000
,
0100
0000
0010
1000
0010
0000
0100
0000
0001
0000
1000
0100
1000
0000
0001
0000
,
0100
0000
0010
1000
0010
0000
0100
0000
0001
0000
0100
0000
0010
0000
1000
0000
,
0001
0100
0010
1000
0001
0100
0001
0100
,
0010
1000
0010
1000
0001
010M
1000
0010
,
0100
0001
1000
0010
1000
M100
0001
0100
,
0010
1000
0100
0010
0001
0100
1000
0100
,
0001
1000
0010
0100
0001
001M
0100
0001
,
1000
0100
0010
0001
0100
1000
0100
0001
,
0100
0010
1000
0001
1000
M010
0001
0100
,
0010
1000
0100
1000
0100
0001
0100
0010
,
0100
1000
0001
0100
0020
1000
0130
0001
,
2000
0000
0100
0000
3001
0000
1000
0010
2000
0000
0100
0000
3001
0000
1000
0000
,
0002
0100
1003
0100
0010
1000
0001
1000
,
0010
0100
0001
0010
0100
1000
0001
0001
,
0100
0010
1000
0001
0010
0001
0100
0001
,
1000
0010
0001
0010
1000
0100
1000
0000
,
0001
0010
0002
0000
0103
0010
0200
0000
,
0301
0000
1000
0000
0002
0000
0000
0000
1003
0000
0001
0100
0001
0000
1000
0000
,
0010
0000
0100
0010
0100
0000
0001
0000
0400
0000
0000
0000
0000
0000
0000
0000
,
0000
0000
0310
1000
0011
1000
0100
0100
,
0100
0010
0001
0100
,
0010
0000
1000
0001
0100
0010
0100
0100
,
0100
0001
1000
0100
,
0010
0000
0001
0000
1000
0000
0001
1000
0001
0000
0100
0000
0010
0000
0010
0000
,
0010
0000
0000
0000
1000
0000
0001
0100
0001
0000
1000
0000
0010
0000
0010
0000
,
0010
0000
0000
0000
1000
0000
0001
0100
0010
0000
1000
0000
0100
0000
0100
0000
,
0100
0000
0100
0000
0010
0001
0010
0001
0020
0000
0000
0000
0000
0000
0000
0000
,
0000
0000
0030
0000
0001
1000
0010
1000
,
0001
0010
0001
0100
0010
1000
0001
0010
,
0100
0000
1000
0000
0001
0000
1000
0100
1000
0000
0100
0000
0010
0000
0001
0000
,
0010
0100
1000
0001
0100
1000
0100
0001
,
0100
0000
0010
1000
0001
0010
0100
1000
0001
0000
0100
0000
0001
0000
0100
0000
,
0110
0010
1000
0010
0110
0100
0001
0010
,
0011
0000
0000
0001
0000
0000
0100
0000
0000
0010
0000
0000
1000
0000
0100
0000
1000
0000
0001
0000
0010
0000
0001
0000
,
1000
0010
0100
0001
1000
0000
0001
0000
0000
0000
0000
0000
,
0000
0000
0000
0000
1000
0000
0001
0000
1100
0000
0010
0000
0100
00M0
0100
0000
,
0100
0000
0100
0000
1000
0001
1000
0001
1000
0000
0010
0000
0100
0000
0100
0000
,
0100
0000
0001
1000
0001
0000
0010
0000
0100
0000
1000
0000
0010
0M00
0010
0000
,
0010
0000
0010
0000
0001
1000
0100
1000
0001
0000
0010
0000
0100
0000
0100
0000
,
0100
0000
1000
0001
1000
0000
0001
0100
0010
0000
1000
0000
0100
00M0
0100
0000
,
0100
0000
0100
0000
0010
1000
0010
1000
0010
0000
0100
0000
0001
0000
0001
0000
,
0001
0000
1000
0010
0100
0000
0001
1000
0001
0000
1000
0000
0010
0M00
0010
0000
,
0010
0000
0010
0000
0001
0100
0010
1000
0001
0000
1000
0100
0010
0000
0001
0010
,
0100
0000
1000
0010
1000
0100
0010
0001
1000
0000
0001
0000
1010
0000
0001
0000
,
0100
00M0
0100
0000
1000
0010
0100
0001
1000
0000
0001
0000
1010
0000
0001
0000
,
0100
00M0
0100
1000
0001
0000
0100
0000
0001
0000
1000
0000
0101
0000
1000
0000
,
0100
00M0
0100
0000
0001
1000
0010
0100
0010
0000
1000
0000
0011
0000
1000
0000
,
0100
00M0
0100
0001
0010
0000
0100
1000
0001
0000
1000
0000
0101
0000
1000
0000
,
0010
0M00
0010
0000
0001
1000
0010
1000
0001
0000
0100
0000
0011
0000
1000
0000
,
0010
0M00
0010
0001
1000
0000
0001
1000
0100
0000
0010
0000
0100
M000
0100
0000
,
0100
0000
0100
0000
0001
0100
0010
1000
0020
0000
0000
0000
0000
0000
0000
0000
,
0000
0030
1001
0000
;

//--------------- dance-single - XO DS JA+ SJ FS+ BR BU ----------------
#NOTES:
     dance-single:
     XO DS JA+ SJ FS+ BR BU:
     Challenge:
     17:
     0.743,0.821,0.308,0.341,0.459,561,38,42,0,0,24,0.743,0.821,0.308,0.341,0.459,561,38,42,0,0,24:
0000
0000
0000
0000
,
0000
0000
0000
0000
,
0000
0000
0000
0000
,
0000
0000
0000
0000
,
0000
0000
0000
0000
0000
0000
0000
0000
1000
0100
1000
0000
0001
0010
0001
0000
,
1000
0010
0000
0100
0000
0001
0000
1000
,
0000
0000
0010
0000
0000
0000
1000
0000
0001
0010
0001
0000
0100
0001
1000
0000
,
0000
0010
0000
0100
0000
0001
0000
1000
,
0000
0000
0010
0000
0000
0000
1000
0000
1010
0000
0010
0000
0100
0001
0100
0000
,
0010
1000
0000
0100
0000
0001
0000
0100
,
0000
0000
1000
0000
0000
0000
0001
0000
0100
0010
0001
0000
0010
0100
1000
0000
,
0001
0100
0000
1000
0000
0100
0000
0001
,
0000
0100
0010
0100
1100
1000
1001
0001
,
0101
0000
0100
0000
0110
0000
0010
1000
0010
0000
0100
0000
0101
0000
0001
0000
,
1001
0000
1000
0000
1010
0000
0010
1000
0001
0100
0010
1000
0100
1000
0100
1000
,
0001
0000
0000
0100
0000
0000
0001
0000
0000
1000
0000
0000
0010
0000
0000
1000
0000
0000
0001
0000
0000
0010
0000
0000
0100
0000
0000
0000
0000
0000
1000
0000
0001
0000
1000
0000
0100
0000
0000
0000
0000
0000
1000
0000
0000
0001
0000
0000
,
0010
0000
0100
0000
1000
0010
1000
0001
0100
0000
0001
0000
1010
0000
0001
0010
,
0100
0000
1000
0000
0101
0000
1000
0010
0100
0000
0001
0000
1100
0000
0001
0100
,
0010
0000
1000
0000
0011
0000
0100
0010
1000
0000
0001
0000
1100
0000
0010
0100
,
0001
0000
1000
0000
0101
0000
1000
0010
0100
0000
0001
0000
1100
0000
0001
0100
,
0001
0000
0100
0000
0010
0000
0000
0000
1000
0000
0010
1000
0010
0000
1000
0000
,
0001
0000
0100
0001
0100
0000
0010
0000
1000
0000
0001
1000
0001
0000
0010
0000
,
0001
0000
1000
0100
1000
0000
0001
0000
0010
0000
0100
0010
0100
0000
0001
0000
,
1000
0000
0001
1000
0001
0000
1000
0010
0100
0001
0100
0010
0100
0001
1000
0100
,
0010
0001
0100
0010
0100
0001
1000
0000
0010
0M00
0010
0000
0001
0000
1000
0000
,
0001
0000
0100
0000
1000
0000
0100
0000
0010
000M
0010
0000
1000
0000
0001
0000
,
0010
0000
0001
1000
0010
0000
1000
0000
0100
0000
01M0
0000
0100
0000
0100
0000
,
0001
0000
1000
0000
0100
00M0
0100
0000
0001
0000
1000
0000
0010
0000
0001
0000
,
0010
1000
1000
0001
0100
1000
0100
0001
,
1000
0000
0001
0000
0100
0000
0001
0000
0100
00M0
0100
0000
1000
0000
0010
0000
,
0100
0001
0010
0001
0100
01M0
0100
0100
,
1000
0010
0001
0010
0200
0010
0301
1000
,
0002
0000
0010
0000
1003
0000
0001
0010
0002
0000
0100
0000
1003
0000
0001
0100
,
0001
0100
0110
0010
1000
0001
1000
1000
,
1000
0000
0010
0100
0001
0000
0100
0000
0001
0000
0010
0100
0010
0000
1000
0000
,
0010
0000
0001
1000
0010
0000
0100
0000
0001
0000
0010
0100
0001
0000
0100
0000
,
1000
0000
0010
0000
0100
00M0
0100
0000
1000
0000
0001
0100
0001
0000
0100
0000
,
0010
0000
0100
0001
0100
0000
0010
0000
1000
0000
0100
0010
0001
0000
0100
0000
,
0001
0000
0000
0000
0100
0000
0001
0000
0010
0000
0000
0000
0100
M000
0100
0000
0001
0000
0000
0000
1000
0100
1000
0100
1000
0000
0000
0000
0100
0000
0010
0000
,
0001
0000
0000
0100
0000
0000
0010
0000
0100
0000
0010
0000
1000
0000
0000
0010
0000
0000
0100
0000
0000
0000
0000
0000
0001
0000
0010
0000
0100
0000
1000
0000
0001
0000
0100
0000
0010
0000
1000
0000
0100
0000
0010
0000
0001
0000
1000
0000
,
0010
0100
0001
1000
0100
1000
0001
0010
0100
1000
0001
1000
0001
0000
0000
0100
0000
0000
1000
0000
0000
0100
0000
0000
,
0010
1000
0001
0100
0010
0100
0001
0100
,
0001
0100
0010
0010
1000
0100
0001
0100
,
1000
0010
0100
0001
0100
0010
1000
0001
,
1000
0000
0000
0000
0000
0000
0001
0000
1000
0000
0001
0000
1000
0000
0000
0000
0000
0000
0001
0000
0000
0010
0000
0000
0100
0000
0000
0000
0000
0000
0100
0000
0000
0000
0000
0000
0100
0000
0000
0000
0000
0000
0100
0000
0000
0000
0000
0000
,
1000
0000
0000
0000
0010
0000
1000
0001
0010
0000
0010
0000
0010
0000
0010
0000
,
0010
0000
0000
0000
0000
0000
0000
0000
0001
0000
0000
0000
0010
000M
0010
0000
0100
0000
0000
0000
0001
0000
0000
0000
0001
0000
0000
0000
1000
0000
0000
0000
,
0010
0000
1000
0000
0100
0010
0100
0010
0004
0000
0000
0000
0000
0000
0000
0000
,
0000
0000
0003
0000
1000
0100
0010
1000
,
0010
0000
0001
0000
0100
0000
0001
1000
0001
0000
1000
0100
1000
0000
0001
0010
,
0001
0000
0000
0000
1000
0000
0100
0000
1000
0000
0000
0000
0001
0010
0001
0010
0001
0000
0000
0000
1000
0000
0100
0000
1000
0000
0000
0000
0010
0000
0100
0000
,
0001
0000
0100
0010
1000
0000
0001
0100
0010
0000
1000
0010
0100
0000
0001
1000
,
0001
0000
0000
0000
1000
0001
1000
0001
1000
0000
0001
0000
0010
0M00
0010
0000
1000
0000
0000
0000
0001
0000
0010
0000
0100
0000
0000
0000
1000
0000
0000
0000
,
0011
0000
1000
0010
0100
0000
0001
0000
1010
0000
0001
0100
0010
0000
1000
0000
,
0011
0000
0000
0000
0000
0000
1000
0000
0000
0010
0000
0000
0100
0000
0000
0000
0000
0000
0001
0000
0000
0000
0000
0000
1000
0000
0000
0000
0010
0000
0M00
0000
0010
0000
0000
0000
0001
0000
0000
0000
0100
0000
00M0
0000
0100
0000
0000
0000
,
1000
0000
0010
0M00
0010
0000
0001
0000
0100
00M0
0100
0000
1000
0000
0000
0001
0000
0000
0100
0000
0000
0010
0000
0000
,
1000
0100
0010
0001
0011
0010
0100
0100
,
0100
0000
0100
0000
1000
0001
0100
0001
1000
0000
0010
0000
0100
0000
0100
0000
,
0100
0000
0100
0001
1000
0000
0001
0000
0010
0000
0100
0000
1000
0000
1000
0000
,
1000
0000
1000
0000
0001
0100
0010
1000
0001
0000
1000
0000
0010
0000
0010
0000
,
0010
0000
0010
0100
0001
0000
1000
0010
1000
0000
0001
0000
0100
0000
0100
0000
,
0100
0000
0100
0000
0010
1000
0001
1000
0100
0000
0010
0000
0001
0000
0001
0000
,
0001
0000
0001
1000
0010
0000
0100
0001
1000
0000
0010
0000
0100
0000
0100
0000
,
0100
0000
0000
0000
0100
0000
0000
0000
0001
0000
1000
0000
0010
0000
0100
0000
0001
0000
0000
0000
1000
0100
1000
0100
1000
0000
0000
0000
0001
0010
0001
0010
,
0001
0000
1000
0010
0100
0001
1000
0010
1100
0000
0001
1000
0010
0M00
0010
0000
,
0010
0000
0010
0000
0001
0010
0100
1000
0002
0000
1003
0001
0100
00M0
0100
0000
,
0100
0000
0100
1000
0001
0000
1000
0000
0001
0000
0100
0001
0010
0000
0M10
0000
,
0010
0000
0010
0000
0100
0001
1000
0010
1000
0000
0001
1000
0100
00M0
0100
0000
,
0100
0000
0100
0001
1000
0000
0001
0010
0001
0000
1000
0001
0010
0000
0M10
0000
,
0010
0000
0010
0000
1000
0100
0010
0001
1000
0000
0001
0010
0100
M000
0100
0000
,
0100
0000
0100
0001
1000
0000
0010
0100
0001
0000
1000
0000
0010
0000
0100
0000
,
0010
0000
0100
0000
0001
1000
0001
0010
0400
0000
0000
0000
0000
0000
0000
0000
,
0000
0300
1001
0000
;

//--------------- dance-double - XO DS JA+ SJ FS+ BR BU- ----------------
#NOTES:
     dance-double:
     XO DS JA+ SJ FS+ BR BU-:
     Challenge:
     17:
     0,0,0,0,0:
00000000
00000000
00000000
00000000
,
00000000
00000000
00000000
00000000
,
00000000
00000000
00000000
00000000
,
00000000
00000000
00000000
00000000
,
00000000
00000000
00000000
00000000
00000000
00000000
00000000
00000000
00010000
00001000
00010000
00000000
00001000
00010000
00001000
00000000
,
00010000
00001000
00000000
00100000
00000000
00010000
00000000
01000000
,
00000000
00000000
00100000
00000000
00000000
00000000
10000000
00000000
00010000
00100000
01000000
00000000
10000000
01000000
00100000
00000000
,
00000000
00010000
00000000
01000000
00000000
00001000
00000000
00010000
,
00000000
00000000
00000100
00000000
00000000
00000000
00001000
00000000
00001100
00000000
00000100
00000000
00001000
00000001
00001000
00000000
,
00000001
00000010
00000001
00000010
00000100
00001000
00000100
00001000
,
00000010
00000000
00010000
00000000
00000010
00000000
00010000
00000000
00000100
00001000
00000100
00000000
00010000
00001000
00010000
00000000
,
00001000
01000000
00001000
01000000
00100000
10000000
00100000
10000000
,
01000000
10000000
00010000
10000000
10010000
00010000
01000000
00100000
,
10100000
00000000
10000000
00000000
00010000
00000000
00100000
00001000
00010000
00000000
00001000
00000000
00010000
00000000
00000100
00000000
,
00001100
00000000
00001000
00000000
00000010
00000000
00000100
00000001
00000100
00000001
00000010
00000100
00001000
00000001
00000100
00000010
,
00001000
00000000
00000000
00000100
00000000
00000000
00010000
00000000
00000000
00001000
00000000
00000000
00010000
00000000
00000000
00000100
00000000
00000000
00001000
00000000
00000000
00000100
00000000
00000000
00010000
00000000
00000000
00000000
00000000
00000000
00001000
00000000
00010000
00000000
00001000
00000000
00010000
00000000
00000000
00000000
00000000
00000000
00001000
00000000
00000000
01000000
00000000
00000000
,
00100000
00000000
10000000
00000000
00010000
00100000
01000000
10000000
00110000
00000000
10000000
00000000
01010000
00000000
10000000
00000000
,
00010000
01000000
00001000
00000000
00110000
00000000
00001000
00000000
00010000
00000000
00000010
00000000
00001100
00000000
00000001
00000000
,
00001000
00000010
00000100
00000000
00000011
00000000
00001000
00000000
00000001
00000000
00001000
00000000
00000101
00000000
00001000
00000100
,
00010000
00001000
00110000
00001000
01000000
00001000
00110000
00001000
,
00010000
00000000
00000100
00000000
00001000
00000000
00000000
00000000
00000001
00000000
00001000
00000100
00001000
00000000
00000010
00000000
,
00001000
00000000
00000001
00000010
00001000
00000000
00000010
00000000
00000001
00000000
00001000
00000100
00010000
00000000
00001000
00000000
,
01000000
00000000
00100000
00010000
00100000
00000000
10000000
00000000
00010000
00000000
01000000
00010000
01000000
00000000
00100000
00000000
,
10000000
00000000
01000000
00000000
00100000
00000000
00010000
00000000
10000000
00100000
01000000
00010000
10000000
01000000
00100000
00010000
,
10000000
00100000
01000000
00010000
00100000
00001000
00010000
00000000
00001000
000M0000
00001000
00000000
00000100
00000000
00001000
00000000
,
00000001
00000000
00001000
00000000
00000100
00000000
00000010
00000000
00000100
0000M000
00000100
00000000
00000001
00000000
00001000
00000000
,
00000010
00000000
00001000
00000001
00001000
00000000
00000001
00000000
00000100
000000M0
00000100
00000000
00000100
00000000
00000100
00000000
,
00001000
00000000
00000010
00000000
00010000
00000000
00000100
00000000
00010000
0000M000
00010000
00000000
00100000
00000000
01000000
00000000
,
10000000
00000000
00010000
00000000
01000000
00M00000
01000000
00000000
10000000
00000000
00100000
00000000
01000000
00000000
00010000
00000000
,
10000000
00000000
01000000
00000000
00100000
00000000
00001000
00000000
00010000
0000M000
00010000
00000000
00100000
00000000
00001000
00000000
,
00010000
00000000
00000010
00000000
00000100
00000000
00000010
00000000
00000100
0000M000
00000100
00000000
00000100
00000000
00000100
00000000
,
00001000
00000001
00000100
00000010
00020000
00000100
00031000
00010000
,
00000200
00000000
00001000
00000000
00010300
00000000
00001000
01000000
00010000
00000000
01000000
00000000
10000000
00000000
01000000
00000000
,
00010000
00100000
01000000
10000000
00010000
00100000
01000000
01000000
,
01000000
00000000
10000000
00010000
01000000
00000000
00100000
00000000
01000000
00000000
00010000
00100000
01000000
00000000
10000000
00000000
,
01000000
00000000
00100000
00010000
00100000
00000000
00001000
00000000
00010000
00000000
00000100
00001000
00000100
00000000
00001000
00000000
,
00000001
00000000
00001000
00000000
00000100
00000000
00000100
00000000
00001100
00000000
00001000
00000010
00001000
00000000
00000100
00000000
,
00010000
00000000
00001000
00010000
00000100
00000000
00001000
00000000
00000001
00000000
00000010
00000001
00001000
00000000
00000010
00000100
,
00000010
00000000
00000000
00000000
00001000
00000000
00000001
00000000
00001000
00000000
00000000
00000000
00000100
000000M0
00000100
00000000
00000001
00000000
00000000
00000000
00001000
00000100
00001000
00000100
00001000
00000000
00000000
00000000
00000100
00000000
00010000
00000000
,
00001000
00000000
00000000
00100000
00000000
00000000
00010000
00000000
01000000
00000000
00100000
00000000
01000000
00000000
00000000
00100000
00000000
00000000
10000000
00000000
00000000
00010000
00000000
00000000
20000000
00000000
00000000
00000000
00000000
00000000
00000000
00000000
00000000
00000000
00000000
00000000
00000000
00000000
00000000
00000000
00000000
00000000
00000000
00000000
00000000
00000000
00000000
00000000
,
00000000
00000000
30010000
10000000
00100000
00010000
00100000
01000000
,
00010000
00100000
00001000
00010000
00000100
00001000
00000001
00000010
,
00000100
00001000
00000100
00000001
00000100
00001000
00000100
00000001
,
00000100
00001000
00000010
00001000
00000100
00010000
00001000
00100000
,
00010000
00000000
00000000
00000000
00000000
00000000
01000000
00000000
00001000
00000000
01000000
00000000
00010000
00000000
00000000
00000000
00000000
00000000
01000000
00000000
00000000
00100000
00000000
00000000
10000000
00000000
00000000
00000000
00000000
00000000
10000000
00000000
00000000
00000000
00000000
00000000
10000000
00000000
00000000
00000000
00000000
00000000
10000000
00000000
00000000
00000000
00000000
00000000
,
00020000
00000000
00000000
00000000
01030000
00000000
00001000
00010000
00001000
00000000
00010000
00000000
00010000
00000000
00010000
00000000
,
00001000
00000000
00000000
00000000
00000000
00000000
00000000
00000000
00010000
00000000
00000000
00000000
00001000
000M0000
00001000
00000000
00000100
00000000
00000000
00000000
00000010
00000000
00000000
00000000
00000001
00000000
00000000
00000000
00000001
00000000
00000000
00000000
,
00000001
00000000
00001000
00000000
00000010
00001000
00000010
00001000
00000004
00000000
00000000
00000000
00000000
00000000
00000000
00000000
,
00000000
00000000
00000003
00000000
00001001
00000001
00001000
00000100
,
00010000
00000000
00001000
00010000
00001000
00000000
00010000
00001000
00010000
00000000
00001000
01000000
00100000
00000000
01000000
00100000
,
10000000
00000000
00000000
00000000
01000000
00000000
00100000
00000000
00010000
00000000
00000000
00000000
10000000
01000000
10000000
01000000
10000000
00000000
00000000
00000000
00100000
00000000
01000000
00000000
00010000
00000000
00000000
00000000
00100000
00000000
00001000
00000000
,
00100000
00000000
00001000
00010000
00001000
00000000
00010000
00000100
00010000
00000000
00000100
00001000
00000100
00000000
00001000
00000001
,
00001000
00000000
00000000
00000000
00000010
00000100
00000010
00000100
00000010
00000000
00001000
00000000
00000001
00000000
00001000
00000000
00000011
00000000
00000000
00000000
00010000
00000000
00001000
00000000
00010000
00000000
00000100
00000000
00001000
00000000
00000010
00000000
,
00001100
00000000
00000010
00010000
00001000
00010000
00001000
01000000
00110000
00000000
10000000
01000000
00100000
00010000
10000000
00010000
,
10100000
00000000
00000000
00000000
00000000
00000000
00010000
00000000
00000000
10000000
00000000
00000000
00100000
00000000
00000000
01000000
00000000
00000000
00010000
00000000
00000000
10000000
00000000
00000000
00010000
00000000
00000000
00000000
00100000
00000000
0M000000
00000000
00100000
00000000
00000000
00000000
10000000
00000000
00000000
00000000
01M00000
00000000
00000000
00000000
01000000
00000000
00000000
00000000
,
00010000
00000000
00001000
000M0000
00001000
00000000
00000100
00000000
00000010
0000000M
00000010
00000000
00001000
00000000
00000000
00000100
00000000
00000000
00001000
00000000
00000000
00000010
00000000
00000000
,
00000100
00000001
00001000
00000010
00001010
00001000
00000100
00000100
,
00000100
00000000
00000100
00000000
00010000
00001000
00010000
00001000
01000000
00000000
00100000
00000000
10000000
00000000
10000000
00000000
,
10000000
00000000
00010000
01000000
00100000
00000000
10000000
00000000
01000000
00000000
00100000
00000000
00010000
00000000
00010000
00000000
,
00010000
00000000
00010000
00000000
01000000
00001000
01000000
00001000
00100000
00000000
00001000
00000000
00010000
00000000
00010000
00000000
,
00010000
00000000
00000100
00001000
00000100
00000000
00001000
00000001
00001000
00000000
00000010
00000000
00000100
00000000
00000100
00000000
,
00000100
00000000
00000100
00000000
00000001
00001000
00000100
00001000
00000001
00000000
00001000
00000000
00000010
00000000
00000010
00000000
,
00000010
00000000
00000000
00000000
00010000
00000000
00000010
00000000
00001000
00000000
00000000
00000000
00000100
000000M0
00000100
00000000
00000001
00000000
00000000
00000000
00001000
00000000
00000000
00000000
00000010
00000000
00000000
00000000
00000010
00000000
00000000
00000000
,
00000010
00000000
00000000
00000000
00000010
00000000
00000000
00000000
00010000
00000000
00001000
00000000
00010000
00000000
00000100
00000000
00010000
00000000
00000000
00000000
00001000
00010000
00001000
00010000
00001000
00000000
00000000
00000000
00100000
00010000
00100000
00010000
,
00100000
00000000
00010000
10000000
01000000
00100000
00010000
10000000
00010000
00000000
10000000
00010000
01000000
00M00000
01000000
00000000
,
01000000
00000000
01000000
00000000
10000000
00100000
01000000
00010000
01000000
00000000
00001000
00000000
00010000
00M00000
00010000
00000000
,
00010000
00000000
00010000
00100000
00001000
00000000
00010000
00000000
00000010
00000000
00001000
00000000
00000010
00000M00
00000010
00000000
,
00000010
00000000
00000010
00000000
00000001
00000100
00000010
00001000
00000001
00000000
00001000
00000000
00000100
000000M0
00000100
00000000
,
00000100
00000000
00000100
00000001
00001000
00000000
00000100
00010000
00001000
00000000
01000000
00000000
00100000
000M0000
00100000
00000000
,
00100000
00000000
00100000
00000000
00010000
10000000
01000000
10000000
00010000
00000000
10000000
00000000
01000000
00M00000
01000000
00000000
,
01000000
00000000
01000000
00010000
00100000
00000000
00001000
00010000
00001000
00000000
00010000
00000000
00000100
00000000
00001000
00000000
,
00000001
00000000
00001000
00000000
00000010
00000100
00000010
00001000
00000020
00000000
00000000
00000000
00000000
00000000
00000000
00000000
,
00000000
00000030
00001010
00000000
;
