#TITLE:線香花火 SDVX edit;
#SUBTITLE:;
#ARTIST:kamome sano;
#TITLETRANSLIT:Senkou hanabi SDVX edit;
#SUBTITLETRANSLIT:;
#ARTISTTRANSLIT:;
#GENRE:;
#CREDIT:Moonside;
#BANNER:Senkou hanabi SDVX edit.png;
#BACKGROUND:Senkou hanabi SDVX edit-bg.png;
#LYRICSPATH:;
#CDTITLE:;
#MUSIC:Senkou hanabi SDVX edit.ogg;
#OFFSET:-0.522000;
#SAMPLESTART:43.287998;
#SAMPLELENGTH:9.574000;
#SELECTABLE:YES;
#BPMS:0.000000=94.000000
,36.000000=188.000000
,292.000000=94.000000
;
#STOPS:
;
#BGCHANGES:;
#KEYSOUNDS:;
#ATTACKS:;

//---------------dance-single - ----------------
#NOTES:
     dance-single:
     :
     Easy:
     5:
     0.262641,0.285116,0.120275,0.292096,0.000000,214.000000,200.000000,14.000000,34.000000,0.000000,0.000000,0.262641,0.285116,0.120275,0.292096,0.000000,214.000000,200.000000,14.000000,34.000000,0.000000,0.000000:
0000
0000
0000
0000
,
1000
1000
2000
3000
,
0001
0001
0002
0003
,
0100
0100
0200
0300
,
0010
0010
0020
0030
,
1000
0001
2000
3000
,
0010
0100
0020
0030
,
1000
0100
0020
0030
,
0001
0010
0200
0300
,
1000
0100
1000
0200
,
1300
0000
1100
0000
,
0010
0001
0010
0001
,
0020
0030
0011
0000
,
0001
0010
0100
0010
,
0002
0003
1001
0000
,
1000
0100
0010
0100
,
2000
3000
1001
0000
,
0100
1000
0100
1000
,
0200
0300
0110
0000
,
0010
0001
0010
0001
,
0020
0030
0110
0000
,
1000
0001
1000
0001
,
0200
0300
0010
0000
,
0220
0000
0000
0000
,
0330
0000
0010
0010
,
1000
0001
1000
0001
,
1000
0100
0100
0010
,
0001
0010
0001
0010
,
0100
0000
1000
1000
,
0001
0010
0001
0010
,
0002
0003
1000
0000
,
0010
0100
0010
0100
,
0020
0000
0030
0000
,
1000
0100
1000
0100
,
2000
0000
3000
0000
,
0001
0010
0001
0010
,
0002
0000
1003
0000
,
1000
0100
0010
0100
,
1000
0000
1001
0000
,
0001
0010
0100
1000
,
0000
0001
0001
0001
,
1001
1000
0100
0010
,
0200
0000
0300
1000
,
0001
0010
0001
0010
,
0200
0300
1000
0000
,
1000
0001
0010
0100
,
1000
0000
1000
0000
,
1000
0001
1000
0001
,
2002
3003
0000
0010
,
0100
0010
0100
0010
,
2000
3000
0000
0001
,
1000
0001
1000
0002
,
0003
0000
0001
0001
,
1000
0100
0010
0001
,
0002
0003
1000
0001
,
1000
0001
0200
0300
,
0020
0030
0000
0000
,
2002
0000
0000
3003
,
0000
0000
0000
0010
,
0100
0010
1000
0001
,
1000
0000
0001
0010
,
0100
0000
0000
0000
,
0000
0000
0000
0001
,
1001
0000
0000
1000
,
1001
0000
0100
0010
,
0100
0000
0010
0000
,
1000
0000
0000
0001
,
0001
0000
0000
0100
,
0100
0000
0010
0000
,
1000
0000
0000
1000
,
1000
0000
0000
0001
,
0001
0000
0010
0000
,
0100
0000
1000
0001
,
2002
0000
0000
3003
;

//---------------dance-single - ----------------
#NOTES:
     dance-single:
     :
     Medium:
     9:
     0.395189,0.418814,0.223368,0.171821,0.077320,322.000000,296.000000,26.000000,20.000000,0.000000,0.000000,0.395189,0.418814,0.223368,0.171821,0.077320,322.000000,296.000000,26.000000,20.000000,0.000000,0.000000:
// measure 0
0000
0000
0000
0000
,  // measure 1
1000
0000
0000
0100
0000
0000
1000
0000
0000
0100
0000
0000
0010
0000
0000
0000
,  // measure 2
0001
0000
0000
0010
0000
0000
0001
0000
0000
0010
0000
0000
0100
0000
0000
0000
,  // measure 3
1000
0000
0000
0001
0000
0000
1000
0000
0000
0001
0000
0000
0100
0000
0000
0000
,  // measure 4
0010
0000
0000
1000
0000
0000
0001
0000
0000
0100
0000
0000
0010
1000
0000
1000
,  // measure 5
0010
0000
0000
0100
0000
0000
0010
0000
0000
0100
0000
0000
0010
0000
0000
0000
,  // measure 6
1000
0000
0000
0100
0000
0000
0010
0000
0000
0001
0000
0000
0010
0000
0000
0000
,  // measure 7
0001
0000
0000
0100
0000
0000
0010
0000
0000
1000
0000
0000
0001
0000
0000
0000
,  // measure 8
1000
0000
0000
1000
0000
0000
0001
0000
0000
0001
0000
0000
1001
0000
0000
0000
,  // measure 9
1000
0000
1000
0001
0000
0000
0001
2000
,  // measure 10
0000
3000
0000
0000
0000
0000
0000
0000
,  // measure 11
0001
0000
0000
0001
0000
0000
0001
0000
,  // measure 12
1000
0000
1000
0100
0000
0000
0100
2000
,  // measure 13
0000
0000
0000
3000
0000
0000
0001
0000
,  // measure 14
0010
0100
0010
0001
,  // measure 15
0100
0010
1000
0100
,  // measure 16
0010
0001
0011
0110
,  // measure 17
1100
0000
0000
1000
0000
0000
0001
0000
,  // measure 18
0000
0001
0000
0000
0100
0000
0100
0010
,  // measure 19
0000
0010
0100
0010
,  // measure 20
1000
0100
0010
0001
,  // measure 21
0001
0000
1000
0100
0000
0000
0100
1000
,  // measure 22
0000
0000
1000
0010
0000
0000
0010
0200
,  // measure 23
0000
0000
0000
0000
,  // measure 24
0300
0000
0010
0010
,  // measure 25
1001
0000
1000
1000
0000
0001
0000
0010
,  // measure 26
0000
0000
0000
0000
0001
0010
0100
0010
,  // measure 27
0001
0000
0001
1000
0000
1000
0000
1001
,  // measure 28
0000
0000
0000
0000
1000
0100
0010
0100
,  // measure 29
1000
0000
1000
0001
0000
0001
0000
1001
,  // measure 30
0000
0000
0000
0000
1000
0010
0100
0010
,  // measure 31
1000
0000
0010
0100
0000
0010
0000
0220
,  // measure 32
0000
0000
0000
0330
0000
0000
0010
0100
,  // measure 33
0010
0000
1000
0001
0000
0001
0000
2002
,  // measure 34
0000
3003
0000
0000
0000
0000
0001
1000
,  // measure 35
0001
0000
0100
0010
0000
0010
0000
0220
,  // measure 36
0000
0330
0000
0000
0010
1000
0000
1000
,  // measure 37
0010
0000
0010
0100
0000
0001
0000
0001
,  // measure 38
0000
1000
0100
0010
,  // measure 39
0001
0010
0100
1000
,  // measure 40
0000
1100
1100
1100
,  // measure 41
1000
0000
0001
0100
0000
0010
0000
0110
,  // measure 42
0000
0000
0000
0000
0000
0000
0010
1000
,  // measure 43
0001
0000
0001
1000
0000
1000
0000
1001
,  // measure 44
0000
0000
0000
0000
0001
0010
0000
0010
,  // measure 45
0001
0000
1000
0001
0000
0100
0000
0110
,  // measure 46
0000
0000
0000
0000
0010
0100
0010
0100
,  // measure 47
0010
0000
1000
0100
0000
0010
0000
1100
,  // measure 48
0000
0000
0000
0000
0000
0000
1000
0001
,  // measure 49
1000
0000
0001
0100
0000
0010
0000
0110
,  // measure 50
0000
0000
0000
0000
0000
0000
0010
1000
,  // measure 51
0100
0000
0010
0001
0000
0010
0000
0011
,  // measure 52
0000
0000
0000
0000
0001
0010
0100
0010
,  // measure 53
0001
0000
1000
0001
0000
0110
0000
1001
,  // measure 54
0000
1000
0100
1000
,  // measure 55
0001
0000
0010
0100
0000
0010
0001
2000
,  // measure 56
0000
0000
3000
0001
,  // measure 57
1001
0000
1000
0001
0000
0001
0100
0000
,  // measure 58
0100
0010
0000
0010
2000
0000
3000
0000
,  // measure 59
0001
0000
0001
1000
0000
1000
0010
0000
,  // measure 60
0010
0100
0000
0100
0002
0000
0003
0000
,  // measure 61
1000
0000
1000
0100
0000
0100
0010
0000
,  // measure 62
0010
0100
0000
0100
2000
0000
3000
0000
,  // measure 63
0001
0000
0001
0010
0000
0010
0100
0000
,  // measure 64
0100
0010
0000
0010
0001
0000
1000
0000
,  // measure 65
1001
0000
0100
0010
0000
0010
1000
0000
,  // measure 66
1000
0001
0000
0001
0200
0000
0300
0000
,  // measure 67
0010
0000
1000
0100
0000
0010
0100
0000
,  // measure 68
1000
0001
0000
0001
2000
0000
3000
0000
,  // measure 69
0100
0000
0010
0001
0000
0001
0100
0000
,  // measure 70
0100
0010
0000
0010
2000
0000
3000
0000
,  // measure 71
0001
0000
1000
0001
0000
0100
0010
0000
,  // measure 72
1000
0001
0000
0100
0010
0000
0001
0000
,  // measure 73
2002
0000
3003
0000
,  // measure 74
0220
0000
0330
0000
,  // measure 75
1001
0000
0000
0000
;

//---------------dance-single - ----------------
#NOTES:
     dance-single:
     :
     Hard:
     14:
     0.544919,0.676546,0.369416,0.189003,0.167526,444.000000,401.000000,43.000000,22.000000,0.000000,0.000000,0.544919,0.676546,0.369416,0.189003,0.167526,444.000000,401.000000,43.000000,22.000000,0.000000,0.000000:
0000
0000
0000
0000
0000
0000
0000
1000
,
1001
0000
0001
1000
0000
0000
1000
0001
0000
0002
0000
0000
0000
0003
0000
0000
,
1000
0000
0100
0010
0000
0010
0100
1000
0001
0000
0001
0100
0000
0000
0100
0010
,
0100
0000
0000
0001
0000
0000
0100
0000
0100
0000
0010
0000
1000
0000
0100
0000
,
0010
0001
0010
0100
1000
0100
0010
0001
,
0011
0000
0000
0110
0000
0000
1100
0000
0000
1001
0000
0000
1100
0000
1000
0001
,
1000
0010
0100
0001
1000
0100
0010
0001
,
0100
0000
0010
1000
0000
0000
1000
0010
0000
0000
0100
0001
0000
0000
0001
0010
,
0002
0000
0000
0000
0000
0000
1000
0000
0000
0000
0000
0000
1000
0000
0000
0000
0000
0000
1003
0000
0000
0000
0000
0000
1000
0000
0000
0000
0001
1000
0001
0000
,
1000
0100
0010
0100
0000
0000
1000
0002
,
0000
0000
1003
0000
0010
0010
0010
0000
,
0100
0000
0001
1000
0000
1000
0001
0000
,
0101
0000
0100
0002
0000
0000
0013
0100
,
1000
0000
0001
1000
0000
1000
0001
0000
,
1000
0100
1000
0000
0010
0000
0100
0000
,
0001
0000
0010
0000
0100
1000
0100
0000
,
0010
0001
0010
0001
,
0011
0000
0001
0010
0000
0010
0001
0000
,
1000
0001
0000
0001
1000
0000
1000
0100
,
0010
0001
1000
0100
,
0010
0001
0010
0000
0100
0000
1000
0000
,
0001
0000
1000
0001
0000
0000
0100
0010
,
0000
0000
0010
1000
0000
0000
0001
1000
,
0002
1000
0100
0013
,
0100
0000
0001
0100
0000
0010
0000
1000
0100
0000
0010
0000
0001
0000
0000
0000
,
1001
0001
1000
0100
0000
0010
0000
0001
,
0000
0200
0000
0000
0301
1000
0100
0010
,
0001
0000
1000
0100
0000
0010
0000
0022
,
0000
0033
0000
0000
0001
0100
0010
0100
,
0001
0000
1000
0010
0000
1010
0000
0101
,
0000
0000
0001
0000
0001
0100
0010
1000
,
0010
0000
1000
0001
0000
0101
0000
2010
,
0000
0000
0010
0000
3010
0000
1000
0001
,
0100
0000
0010
0100
0000
0110
0000
1002
,
0000
0000
1003
0000
1000
0000
0010
0100
,
0001
0000
1000
0001
0000
0011
0000
2200
,
0000
3300
0000
0000
1000
0100
0000
0010
,
0100
0000
1000
0100
0000
0101
0000
1010
,
0000
1000
0100
0010
,
0001
0001
0010
0100
,
1000
0000
0000
0100
1000
0000
0010
0000
0100
0001
0000
0000
0010
0001
0010
0001
,
0010
0100
1000
0001
0000
1001
0000
1100
,
0000
0000
0010
0000
0001
0000
1000
0100
,
0010
0100
1000
0001
0000
0011
0000
1200
,
0000
0000
1300
0000
1000
0100
0000
0010
,
0001
0000
0001
1000
0000
1010
0000
0101
,
0000
0000
0001
0000
0001
0010
0100
1000
,
0100
0000
0010
0100
0000
1000
0000
2200
,
0000
0000
3300
0000
0010
0000
0001
0010
,
0001
0000
0010
0100
0000
1000
0000
0010
,
0000
0000
0100
0000
0001
0100
0010
1000
,
0100
0000
0010
0001
0000
0011
0000
1100
,
0000
0000
1001
0000
0001
0010
0100
1000
,
0100
0010
0001
1001
0000
1100
0000
0011
,
0000
0001
1000
0100
,
0010
0000
0001
1000
0000
1000
0001
1000
,
0100
0000
0000
0100
1000
0000
0010
0000
0100
0001
0000
0000
0010
0001
0010
0001
,
2000
0000
0001
3001
0000
0001
0100
0010
,
1000
0000
0000
1001
0000
1000
0010
0100
,
0001
0010
0000
0011
0000
0001
1000
0001
,
0000
0000
1000
0000
0001
0010
0001
0010
,
0001
0000
0000
1001
0000
0000
1100
0000
,
0000
0110
0000
0000
0011
0001
0010
0100
,
1000
0000
0000
1000
0000
0001
0100
0010
,
1000
0000
1000
0100
0000
0100
0010
0001
,
0020
0000
0100
0130
0000
0010
0001
1000
,
0001
0000
0000
1010
0000
0010
0100
0001
,
0000
0000
0001
0000
0000
0001
0010
0200
,
0000
0000
0300
0000
1000
0100
0010
0001
,
0020
0000
0000
0030
0000
0001
0010
0200
,
0000
0000
0300
0000
0000
0001
1000
0001
,
1000
0100
0010
0100
1000
0100
0010
0001
,
1000
0000
0000
0100
1000
0000
0001
0000
1000
0001
0000
0000
0001
1000
0001
0000
,
1002
0000
0000
0010
0000
0000
0100
0000
0000
0010
0000
0000
1003
0000
0000
0000
,
2001
0000
0000
0100
0000
0000
0010
0000
0000
0100
0000
0000
3001
0000
0000
0000
,
0110
0000
0000
0000
;
