#TITLE:青春は花火のように;
#SUBTITLE:;
#ARTIST:Linked Horizon;
#TITLETRANSLIT:Seishun wa Hanabi no you ni;
#SUBTITLETRANSLIT:;
#ARTISTTRANSLIT:;
#GENRE:;
#CREDIT:;
#BANNER:Seishun wa Hanabi no you ni.png;
#BACKGROUND:Seishun wa Hanabi no you ni-bg.png;
#LYRICSPATH:Seishun wa Hanabi no you ni.lrc;
#CDTITLE:;
#MUSIC:Seishun wa Hanabi no you ni.ogg;
#OFFSET:-0.001000;
#SAMPLESTART:46.915241;
#SAMPLELENGTH:18.920004;
#SELECTABLE:YES;
#BPMS:0.000000=183.380005
;
#STOPS:
;
#BGCHANGES:0.000=Seishun wa Hanabi no you ni.avi=1.000=0=0=0=StretchNoLoop====,
99999=-nosongbg-=1.000=0=0=0 // don't automatically add -songbackground-
;
#KEYSOUNDS:;
#ATTACKS:;

//---------------dance-single - ----------------
#NOTES:
     dance-single:
     :
     Hard:
     15:
     0.809241,0.965546,0.509933,0.642959,0.360278,511.000000,465.000000,46.000000,58.000000,0.000000,0.000000,0.809241,0.965546,0.509933,0.642959,0.360278,511.000000,465.000000,46.000000,58.000000,0.000000,0.000000:
0000
0000
0000
0000
,
0000
0000
0000
0000
,
0101
0000
1000
0100
0010
0000
0002
0000
0000
0000
2003
0000
0000
0000
3010
0000
,
0000
1010
0000
0101
0000
0001
1000
0000
,
0001
0000
1000
0100
1000
0000
0002
0000
0000
0000
0023
0000
0000
0000
2330
0000
,
0000
3020
0000
0331
1000
0001
0100
0010
,
1000
0000
0001
0010
0100
0000
2000
0000
0000
0000
3002
0000
0000
0000
0103
0000
,
0000
0101
0000
1010
0000
1000
0001
0000
,
1000
0000
0001
0010
0001
0000
2000
0000
0000
0000
3200
0000
0000
0000
0332
0000
,
0000
0203
0000
1330
0001
1000
0010
0100
,
0101
0000
1000
0100
1003
0100
0020
0000
,
0032
0000
0000
0000
1003
0000
0010
0000
0100
0000
0001
0000
0010
0000
0100
1000
,
0001
0000
1000
0001
0100
0001
1000
0010
,
0200
0000
0000
0000
0301
0000
1000
0010
1000
0000
0001
0000
0010
0000
0100
0000
,
1100
0000
0000
0000
0001
0000
0010
0000
0001
3000
0010
0000
0200
0000
0000
0000
,
2300
0000
0000
0000
3001
0000
0100
0000
0010
0000
1000
0000
0100
0000
0010
0001
,
2000
0000
3002
0000
1003
0100
0010
0001
,
0012
0000
0000
0000
1033
0000
0010
0000
0100
0000
0210
0000
0000
0000
0301
1000
,
0100
0000
0000
0000
1000
0000
0100
0000
0001
0000
0100
0000
1000
0000
0010
0100
,
0010
0000
1000
0000
0001
0000
0010
0000
0100
0000
1000
0000
0001
0000
1000
0010
,
0100
0000
0001
0000
0010
0000
0100
1000
0001
0000
1000
0000
0001
0000
0100
0010
,
1000
0000
0100
0010
0001
0000
1000
0010
0100
0000
0001
0010
0100
1000
0010
0100
,
0001
0100
0010
1000
0002
0010
1003
0001
,
2000
0100
3001
1000
0002
0010
1003
0001
,
1000
0010
0100
0010
0001
0010
1000
0100
,
1100
0000
0101
1002
0000
0100
3103
0000
,
1001
0001
0100
0010
2000
0100
3001
1000
,
0002
0010
1003
0001
2000
0010
3001
1000
,
0001
0100
0010
0100
1000
0100
0001
0010
,
0011
0000
1010
2001
0000
0010
3013
0000
,
1001
0000
0001
0100
0010
0100
0001
1000
,
0100
0000
0010
0001
1000
0000
0020
0000
0000
0000
0130
0000
0002
0000
0000
0000
,
1003
0000
0100
0000
1000
0000
0001
0000
0100
0000
0010
1000
0001
0000
0102
0000
,
0000
1003
0100
1100
0000
2002
0000
3003
,
0001
0000
1000
0100
0010
0000
0001
0000
1000
0100
1000
0000
0001
0000
1000
0010
,
0100
0000
0001
0000
1000
0001
0100
0001
1000
0000
0000
0000
0000
0000
2001
0000
,
0000
0000
3001
0010
0100
0000
1000
0000
0010
0000
0130
0000
1000
0000
0100
0000
,
0001
0000
1000
0100
0010
0000
0001
0000
1000
0000
0010
0000
0100
0000
0102
0000
,
0000
0000
1003
0100
0020
0000
0000
0000
0130
0000
0100
0000
1000
0000
0001
0100
,
0010
0000
1000
0100
0010
0000
0011
0000
0000
0000
1010
0000
0000
0000
1002
0000
,
0000
0000
1003
0100
0010
0000
0001
0000
0100
0000
0310
0000
0001
0000
0010
0000
,
1000
0000
0001
0010
0100
0000
1000
0000
0001
0000
0100
0000
0010
0000
2010
0000
,
0000
0000
0100
0000
0001
0001
3001
0000
,
1000
0000
0001
0010
0100
1000
0010
0100
0001
1000
0100
0010
0001
1000
0001
0000
,
0000
0000
1000
0100
0010
0000
0100
1000
0010
0000
1000
0100
0010
0000
0001
0000
,
1000
1000
0010
1010
0000
0101
0000
2001
,
0000
0000
3001
0010
0100
0000
0010
0001
0100
0000
0001
0010
0100
0000
1000
0000
,
0001
0100
0010
0120
0000
1030
0001
1002
,
0000
0000
3013
0000
0001
0100
0101
0000
,
2000
0000
0000
0000
3200
0000
0000
0000
0310
0000
0001
0100
0010
1000
0001
1000
,
0100
0000
0000
0000
,
1001
0000
0000
0000
0101
0000
0000
0000
1000
0000
0100
0000
0010
0001
0100
0010
,
1000
0000
0001
0010
0100
0000
1000
0000
0010
0000
0100
0000
0001
0000
0101
0000
,
0000
0110
0000
1010
0000
0001
2000
0000
,
3100
0100
0010
0002
0000
0233
0000
2300
,
0000
3200
0000
0301
0010
0100
1000
0000
,
1001
0000
1000
0100
0010
0000
0001
0000
0100
0000
0010
0000
1000
0000
1010
0000
,
0000
0110
0000
0101
0000
1000
0002
0000
,
0013
0010
0100
2000
0000
3320
0000
0032
,
0000
0000
0023
0000
0000
0000
1030
0000
0100
0000
1000
0001
1000
0001
0100
0010
,
1000
0000
0001
0010
0100
0000
1000
0010
0100
0000
0001
0010
0100
0000
1000
0100
,
0010
0000
0001
0100
0010
0000
1000
0100
0010
0000
0001
0100
0010
0000
0000
0000
,
1001
0000
0000
0110
2002
0000
0000
0000
,
0000
0000
0000
3303
,
1100
0000
1000
0100
0010
0000
0012
0000
0000
0000
1003
0000
0010
0000
1000
0001
,
1000
0000
0001
0100
0010
0000
1000
0100
0010
0000
0002
0000
0000
0000
0000
0000
,
0000
0000
0000
0000
,
1033
0000
0000
0000
;

//---------------dance-single - ----------------
#NOTES:
     dance-single:
     :
     Medium:
     13:
     0.633457,0.668455,0.498847,0.764899,0.094227,400.000000,355.000000,45.000000,69.000000,0.000000,0.000000,0.633457,0.668455,0.498847,0.764899,0.094227,400.000000,355.000000,45.000000,69.000000,0.000000,0.000000:
0000
0000
0000
0000
,
0000
0000
0000
0000
,
1002
0000
1003
0100
0000
1100
0000
0110
,
0000
0011
0000
1001
0000
1000
0020
0000
,
0130
0000
0301
2000
0000
3002
0000
0203
,
0000
2300
0000
3200
0000
0301
0010
0100
,
2000
0000
3001
0010
0000
0011
0000
0110
,
0000
1100
0000
1001
0000
0001
0200
0000
,
0310
0000
1000
0002
0000
2003
0000
3020
,
0000
0032
0000
0023
0000
1030
0100
0010
,
0011
0000
1000
0000
1000
0000
0001
0100
,
0010
0000
0000
0000
1000
0000
0100
0000
0010
0000
0000
0000
0001
0000
1000
0001
,
2000
0000
0100
0000
3001
0100
1000
0100
,
0002
0000
0100
0000
1003
0100
0001
0100
,
1000
0000
0001
0000
0001
0000
1000
0010
,
0100
0000
0000
0000
0001
0000
0010
0000
0100
0000
0000
0000
1000
0000
0001
1000
,
0002
0000
0203
0000
0310
1000
0001
0000
,
2000
0000
0000
0000
0000
0000
3001
0000
0000
0000
0101
0000
0000
0000
1000
0001
,
1000
0000
1100
0000
0100
0000
1000
0100
,
0010
0000
0001
0100
0010
0000
1000
0100
,
0010
0001
0010
0001
1000
0001
1000
0001
,
0101
0000
0000
0000
1001
0000
0000
0000
1000
0000
0100
0000
0010
0000
0001
1000
,
0002
0000
1003
0000
0002
0133
1000
0100
,
0020
1030
0100
0001
0200
1300
0001
0100
,
0020
0000
1000
0000
0001
0000
1030
0001
,
0101
0000
1000
0200
0000
0000
0310
0000
,
2001
0000
3010
0000
2000
3310
0001
0010
,
0200
0301
0010
1000
0020
0031
1000
0010
,
0200
0000
0001
0000
1000
0000
0301
1000
,
1010
0000
0001
0020
0000
0000
0130
0000
,
2001
0000
3001
0100
0010
0100
0001
1000
,
0100
0010
0100
0010
0001
0100
0010
1000
,
0002
0000
1003
0010
0100
0010
1000
1020
,
0000
0130
0000
0101
0000
2001
0000
0000
,
3001
0100
0001
0000
0003
0000
1000
0100
1000
0000
0033
0000
0001
1000
0001
0000
,
1000
0010
0001
0010
1000
0000
0000
2001
,
0000
3001
0100
0001
1000
0100
1000
0001
,
0010
0010
0100
1000
0000
1100
0000
1002
,
0000
1003
0010
0100
0001
0100
0010
1000
,
0001
0001
1000
0100
0000
1100
0000
2001
,
0000
3001
0100
0010
1000
0100
0010
0001
,
1000
1000
0001
0200
0000
0310
0000
2010
,
0000
0001
0100
3001
,
1000
0100
0010
0001
0100
0010
1000
1002
,
0000
1003
0100
0001
0200
0000
2300
0000
,
3001
0100
0010
2000
0000
3001
0000
0201
,
0000
0310
1300
0010
0001
0010
0100
0001
,
1000
0100
0010
0002
0000
1003
0100
2000
,
0000
3010
1020
0130
,
0201
0000
0000
0000
0302
0000
0000
0000
0013
0000
0100
0000
0010
0000
0001
1000
,
0001
0000
0000
0000
,
1100
0101
1010
0011
,
2001
0000
0000
0000
3001
0100
3002
0000
0000
0000
1003
0000
0000
0000
1100
0000
,
0000
0110
0000
0011
0000
1000
0001
0000
,
1000
0010
0001
0020
0000
0230
0000
0302
,
0000
0023
0000
0230
0000
1300
0001
0000
,
1002
0000
0000
0000
1003
0010
2003
0000
0000
0000
3001
0000
0000
0000
0011
0000
,
0000
0110
0000
1100
0000
0001
1000
0000
,
0001
0100
1000
0200
0000
0320
0000
2030
,
0000
3200
0000
0320
0000
0031
1000
0001
,
1000
0000
0000
0001
0100
0000
0000
0001
0100
0000
0000
0010
1000
0000
0000
0000
,
0001
0000
0000
1000
0100
0000
0000
1000
0100
0000
0000
0010
0001
0000
0000
0000
,
2000
0000
0000
0001
0002
0000
0000
0000
,
0000
0000
0000
3003
,
0001
0000
1000
0100
1000
0000
0002
0000
0000
0000
2003
0000
0000
0000
3010
0000
,
0000
0110
0000
0110
0000
0002
0000
0000
,
0000
0000
0000
0000
,
1003
0000
0000
0000
;

//---------------dance-single - ----------------
#NOTES:
     dance-single:
     :
     Easy:
     8:
     0.411747,0.482773,0.243881,0.376907,0.000000,260.000000,238.000000,22.000000,34.000000,0.000000,0.000000,0.411747,0.482773,0.243881,0.376907,0.000000,260.000000,238.000000,22.000000,34.000000,0.000000,0.000000:
// measure 0
0000
0000
0000
0000
,  // measure 1
0000
0000
0000
0000
,  // measure 2
2001
0000
0000
3001
0000
0100
0000
0010
,  // measure 3
0000
0010
0000
1000
0000
0001
0000
0000
,  // measure 4
1000
0000
1000
0100
0000
0100
0000
0010
,  // measure 5
0000
0001
0000
1000
0000
0001
0000
0000
,  // measure 6
1002
0000
0000
1003
0000
0010
0000
0100
,  // measure 7
0000
0100
0000
0001
0000
1000
0000
0000
,  // measure 8
0001
0000
0001
0010
0000
0010
0000
0100
,  // measure 9
0000
1000
0000
0001
0000
1000
0000
0000
,  // measure 10
2002
3003
0001
1000
,  // measure 11
0100
0000
0100
0000
0010
0000
0001
1000
,  // measure 12
0020
0000
0330
0000
0010
0000
1000
0100
,  // measure 13
0020
0000
0330
0000
0010
0000
0001
1000
,  // measure 14
0001
0000
0001
1000
,  // measure 15
0010
0010
1000
0001
,  // measure 16
0010
0010
0100
0000
,  // measure 17
1000
0000
0000
1000
0000
0000
0001
0100
,  // measure 18
0001
0000
0000
0000
0001
0000
1000
0010
,  // measure 19
1000
0010
0100
0100
,  // measure 20
0001
0000
1000
0000
0001
0000
1000
0100
,  // measure 21
2000
3200
0320
0031
,  // measure 22
2002
3003
2000
3010
,  // measure 23
0200
0301
0020
0130
,  // measure 24
1000
1000
0001
0001
,  // measure 25
1000
0000
1000
0200
0000
0000
0310
0000
,  // measure 26
2002
3003
0002
0013
,  // measure 27
0200
1300
0020
0130
,  // measure 28
0001
0001
1000
1000
,  // measure 29
0001
0000
0001
0020
0000
0000
0130
0000
,  // measure 30
1001
0000
1000
0000
0001
0100
0001
0000
,  // measure 31
2000
0000
0000
3200
0000
0000
0310
0000
,  // measure 32
0001
0000
1000
0000
0010
0000
0100
0010
,  // measure 33
0000
0010
0000
1000
0000
0001
0000
0000
,  // measure 34
1001
0000
0000
1100
0000
0000
1001
0000
,  // measure 35
0000
0101
0000
0000
0110
0000
0000
1001
,  // measure 36
0000
1000
0001
0100
,  // measure 37
0010
1000
0010
0000
0100
0000
0000
0000
,  // measure 38
0001
0000
1000
0000
0100
0010
0100
0000
,  // measure 39
1000
0001
0010
0000
,  // measure 40
0001
0000
1000
0000
0001
0100
0001
0000
,  // measure 41
0100
0010
1000
0000
,  // measure 42
0002
0000
0013
0100
,  // measure 43
2000
0000
3010
0000
,  // measure 44
1000
0001
1000
0000
0001
0100
0001
0000
,  // measure 45
1000
0100
0010
0000
,  // measure 46
0001
0010
0001
0000
1000
0010
1000
0000
,  // measure 47
0001
0100
0010
0000
,  // measure 48
2000
0000
3200
0000
,  // measure 49
0310
0001
1000
0001
,  // measure 50
2002
0000
3303
0000
,  // measure 51
0110
0110
1001
0110
,  // measure 52
2001
0000
0000
3100
0000
0100
0000
0010
,  // measure 53
0000
0010
0000
0001
0000
1000
0000
0000
,  // measure 54
0001
0000
0001
0100
0000
0100
0000
0010
,  // measure 55
0000
1000
0000
0001
0000
1000
0000
0000
,  // measure 56
1002
0000
0000
0013
0000
0010
0000
0100
,  // measure 57
0000
0100
0000
1000
0000
0001
0000
0000
,  // measure 58
1000
0000
1000
0010
0000
0010
0000
0100
,  // measure 59
0000
0001
0000
1000
0000
0001
0000
0000
,  // measure 60
1000
0100
1000
0100
1000
0000
0000
0000
,  // measure 61
0001
0100
0001
0100
0001
0000
0000
0000
,  // measure 62
2000
0000
0000
0001
0002
0000
0000
0000
,  // measure 63
0000
0000
0000
3003
,  // measure 64
0001
0000
0001
0100
0000
0100
0000
0010
,  // measure 65
0000
0110
0000
0110
0000
2001
0000
0000
,  // measure 66
0000
0000
0000
0000
,  // measure 67
3001
0000
0000
0000
;

//---------------dance-single - ----------------
#NOTES:
     dance-single:
     :
     Beginner:
     3:
     0.166282,0.254620,0.055427,0.000000,0.000000,105.000000,100.000000,5.000000,0.000000,0.000000,0.000000,0.166282,0.254620,0.055427,0.000000,0.000000,105.000000,100.000000,5.000000,0.000000,0.000000,0.000000:
// measure 0
0000
0000
0000
0000
,  // measure 1
0000
0000
0000
0000
,  // measure 2
1000
0000
1000
0000
,  // measure 3
1000
0000
0000
0000
,  // measure 4
0001
0001
0000
0000
,  // measure 5
0001
0000
0000
0000
,  // measure 6
0100
0000
0100
0000
,  // measure 7
0100
0000
0000
0000
,  // measure 8
0010
0010
0000
0000
,  // measure 9
0010
0000
0000
0000
,  // measure 10
1001
0000
0000
0000
,  // measure 11
1000
0000
1000
0000
,  // measure 12
0100
0000
0000
0000
,  // measure 13
0010
0000
0000
0000
,  // measure 14
0001
0000
0000
0000
,  // measure 15
0001
0000
0001
0000
,  // measure 16
0100
0000
0000
0000
,  // measure 17
0010
0000
0000
0000
,  // measure 18
1000
0000
1000
0000
,  // measure 19
1000
0000
0000
0000
,  // measure 20
0100
0000
0100
0000
,  // measure 21
0010
0000
0010
0000
,  // measure 22
0001
0000
0000
0000
,  // measure 23
1000
0000
1000
0000
,  // measure 24
1000
0000
0000
0000
,  // measure 25
0010
0010
0000
0000
,  // measure 26
0010
0000
0000
0000
,  // measure 27
0100
0000
0100
0000
,  // measure 28
0100
0000
0000
0000
,  // measure 29
0001
0001
0000
0000
,  // measure 30
0001
0000
0000
0000
,  // measure 31
0010
0000
0010
0000
,  // measure 32
0100
0000
0000
0000
,  // measure 33
1000
0000
0000
0000
,  // measure 34
0010
0000
0010
0000
,  // measure 35
0010
0010
0010
0000
,  // measure 36
1001
0000
1000
0000
,  // measure 37
0001
0000
0000
0000
,  // measure 38
0001
0000
0001
0000
,  // measure 39
0100
0000
0000
0000
,  // measure 40
0010
0000
0010
0000
,  // measure 41
1000
0000
0000
0000
,  // measure 42
0001
0000
0000
0000
,  // measure 43
1000
0000
0000
0000
,  // measure 44
0100
0100
0100
0000
,  // measure 45
0100
0000
0000
0000
,  // measure 46
0010
0010
0010
0000
,  // measure 47
0010
0000
0000
0000
,  // measure 48
0001
0000
0000
0000
,  // measure 49
1000
0000
1000
0000
,  // measure 50
1000
0000
0000
0000
,  // measure 51
0010
0000
0000
0000
,  // measure 52
1001
0000
1000
0000
,  // measure 53
1000
0000
0000
0000
,  // measure 54
0001
0001
0000
0000
,  // measure 55
0001
0000
0000
0000
,  // measure 56
0100
0000
0100
0000
,  // measure 57
0010
0000
0000
0000
,  // measure 58
1000
1000
0000
0000
,  // measure 59
1000
0000
0000
0000
,  // measure 60
0001
0001
0001
0000
,  // measure 61
1000
1000
1000
0000
,  // measure 62
0010
0000
0110
0000
,  // measure 63
0000
0000
0000
0000
,  // measure 64
1001
0000
0000
0000
0000
0000
0000
0001
,  // measure 65
0000
0001
0000
0001
0000
0001
0000
0000
;

//---------------dance-double - ----------------
#NOTES:
     dance-double:
     :
     Hard:
     15:
     0.817159,0.965546,0.620788,0.676215,0.360278,516.000000,460.000000,56.000000,61.000000,0.000000,0.000000,0.817159,0.965546,0.620788,0.676215,0.360278,516.000000,460.000000,56.000000,61.000000,0.000000,0.000000:
00000000
00000000
00000000
00000000
,
00000000
00000000
00000000
00000000
,
00010100
00000000
00010000
00000100
00000010
00000000
00000002
00000000
00000000
00000000
00000103
00000000
00000000
00000000
00000101
00000000
,
00000000
00001010
00000000
00010100
00000000
00010000
00002000
00000000
,
00103000
00000000
00010000
10000000
00010000
00000000
02000000
00000000
00000000
00000000
23000000
03000000
00000000
00000000
32300000
00000000
,
00000000
03032000
00000000
00103000
00100000
00010000
01000000
00001000
,
00100000
00000000
00001000
00100000
01000000
00000000
20000000
00000000
00000000
00000000
30100000
00000000
00000000
00000000
10100000
00000000
,
00000000
01010000
00000000
00101000
00000000
00001000
00020000
00000000
,
00030100
00000000
00001000
00000001
00001000
00000000
00000020
00000000
00000000
00000000
00000032
00000030
00000000
00000000
00000323
00000000
,
00000000
00023030
00000000
00030100
00000100
00010000
00001000
00100000
,
00110000
00000000
10000000
01000000
10000000
01000000
00200000
00000000
,
00332000
00000000
00000000
00000000
00013000
00000000
00000010
00000000
00000100
00000000
00000001
00000000
00001000
00000000
00000001
00000100
,
00000010
00000000
00001000
00000100
00001000
00000100
00020000
00000000
,
00031000
00000000
00100000
00000000
00031000
00000000
00010000
00000100
00010000
00000000
00000010
00000000
00000110
00000000
00000000
00000000
,
00001001
00000000
00000001
00000010
00000001
00000010
00000200
00000000
,
00023300
00000000
00000000
00000000
00031000
00000000
01000000
00000000
00100000
00000000
10000000
00000000
00010000
00000000
10000000
00100000
,
02000000
00000000
03002000
00000000
00013000
01000000
10000000
01000000
,
00200000
00000000
00000000
00000000
00301000
00000000
00001000
00000000
00010000
00000000
00010200
00000000
00000000
00000000
00001300
00000001
,
00000100
00000000
00000000
00000000
00000001
00000000
00000100
00000000
00001000
00000000
00000100
00000000
00000001
00000000
00001000
00000100
,
00001000
00000000
00000100
00000000
00010000
00000000
00001000
00000000
00100000
00000000
00010000
00000000
10000000
00000000
00010000
01000000
,
00100000
00000000
10000000
00000000
01000000
00000000
00100000
00001000
00010000
00000000
00000100
00000000
00001000
00000000
00000001
00000100
,
00000010
00000000
00001000
00000100
00010000
00000000
00001000
00100000
00010000
00000000
10000000
00100000
01000000
00010000
00100000
01000000
,
10000000
00100000
01000000
00010000
00200000
00001000
00310000
00100000
,
00002000
00010000
00103000
00001000
00020000
00000010
00031000
00010000
,
00000100
00000010
00000001
00000100
00001000
00000100
00000001
00001000
,
00001100
00000000
00010100
00002100
00000000
00000001
00003001
00000000
,
00002001
00000000
00003010
00001000
00000200
00010000
00001300
00000100
,
00020000
00001000
00030100
00010000
00002000
01000000
00013000
00001000
,
00100000
01000000
10000000
00100000
00010000
00100000
10000000
00010000
,
00110000
00000000
00101000
00120000
00000000
10000000
10030000
00000000
,
10010000
00000000
00000000
00000000
00010000
00000000
01000000
00000000
00100000
00000000
01000000
00000000
00001000
00000000
00010000
00000100
,
00002000
00000000
00003010
00000010
00000100
00000001
00001000
00000001
,
00000201
00000000
00000000
00000000
00000310
00000000
00000010
00000000
00001000
00000000
00000100
00010000
00001000
00000000
00011000
00000000
,
00000000
00100000
00001000
00201000
00000000
00310000
10000000
00000000
,
00010000
00000000
10000000
00100000
10000000
00000000
00010000
00000000
00100000
00001000
00010000
00000000
00001000
00000000
00010000
00000100
,
00010000
00000000
00000100
00001000
00000010
00000100
00000001
00001000
00000001
00000000
00000000
00000000
00000000
00000000
00000201
00003000
,
00000000
00000000
00000301
00000010
00000100
00000000
00001000
00000000
00000010
00000000
00000001
00000000
00000010
00000000
00001000
00000000
,
00000100
00000000
00010000
00001000
00010000
00000000
00001000
00000000
00100000
00000000
00010000
00000000
01000000
00000000
02010000
00000000
,
00000000
00000000
03100000
10000000
00010000
00000000
00100000
00000000
00001000
00000000
00001000
00000000
00010000
00000000
00010000
00000000
,
00000100
00000000
00010000
00001000
01000000
00000000
01010000
00000000
00000000
00000000
01100000
00000000
00000000
00000000
10200000
00030000
,
00000000
00000000
10300000
01000000
00100000
00000000
00010000
00000000
01000000
00000000
10000000
00000000
01000000
00000000
00010000
00000000
,
00100000
00000000
00001000
00010000
00001000
00000000
00010000
00000000
00000100
00000000
00001000
00000000
00000010
00000000
00001020
00000000
,
00000000
00000000
00000130
00000001
00002000
00000300
00000000
00000000
00003100
00000000
00010000
00000000
00020100
00000000
00000000
00000000
,
00031000
00000000
00100000
00010000
00100000
00010000
10000000
00100000
01000000
00010000
00100000
01000000
10000000
00010000
20000000
00000000
,
00000000
00000000
30010000
01000000
00100000
00000000
01000000
00010000
00100000
00000000
00010000
00100000
01000000
00000000
00100000
00000000
,
00001000
00001000
00010000
00010200
00000000
00001300
00000001
00000102
,
00000000
00000000
00001003
00000010
00000100
00000000
00000010
00001000
00000100
00000000
00001000
00000100
00000010
00000000
00000100
00000000
,
00010000
00010000
00001000
00201000
00000000
00310000
01000000
01200000
,
00000000
00000000
10300000
00000000
12000000
00000000
03100000
00001000
,
00021000
00000000
00000000
00000000
00030020
00000000
00000000
00000000
00000130
00000000
00000001
00000100
00000010
00001000
00000100
00000010
,
00000001
00000000
00000000
00000000
,
00001001
00011000
10010000
01100000
,
01010000
00000000
01000000
00100000
10000000
00000000
01000000
00000000
00100000
00000000
00001000
00000000
00010000
00000000
00010100
00000000
,
00000000
00101000
00000000
00010100
00000000
00012000
00000000
00003100
,
00000010
00000010
00001000
00000200
00000000
00000302
00000000
00000203
,
00000000
00020300
00000000
00031000
00000100
00000001
00001000
00000100
,
00001000
00000000
00000010
00000100
00000001
00000000
00000010
00000000
00000100
00000000
00010000
00000000
00001000
00000000
00101000
00000000
,
00000000
00010100
00000000
00101000
00000000
00021000
00000000
00130000
,
01000000
01000000
00010000
00200000
00000000
20300000
00000000
30200000
,
00000000
00000000
00302000
00000000
00000000
00000000
00013000
00000000
00100000
00000000
10000000
00010000
10000000
00010000
10000000
00010000
,
01000000
00000000
00010000
00100000
01000000
00000000
00100000
00001000
00010000
00000000
00001000
00010000
00000100
00000000
00001000
00000010
,
00000100
00000000
00000001
00000010
00000100
00000000
00001000
00000100
00010000
00000000
00001000
00100000
00010000
00000000
01000000
00000000
,
02010000
00000000
00000000
03001000
00022000
00000000
00000000
00000000
,
00000000
00000000
00000000
00033000
,
00101000
00000000
00100000
00010000
01000000
00000000
01010000
00000000
00000000
00000000
10000000
00000000
01000000
00000000
11000000
00000000
,
00000000
00110000
00000000
00001100
00000000
00000012
00000000
00000000
,
00000000
00000000
00000000
00000030
,
00001003
00000000
00000000
00000000
;

//---------------dance-double - ----------------
#NOTES:
     dance-double:
     :
     Medium:
     13:
     0.663546,0.668455,0.709471,0.842497,0.094227,419.000000,355.000000,64.000000,76.000000,0.000000,0.000000,0.663546,0.668455,0.709471,0.842497,0.094227,419.000000,355.000000,64.000000,76.000000,0.000000,0.000000:
00000000
00000000
00000000
00000000
,
00000000
00000000
00000000
00000000
,
00012000
00000000
00103000
00010000
00000000
10000000
00000000
10010000
,
00000000
10100000
00000000
01010000
00000000
01002000
00000000
00000000
,
00013000
00010000
00000100
00000020
00000000
00000032
00000000
00000203
,
00000000
00002300
00000000
00023000
00000000
00030100
00010000
00001000
,
00021000
00000000
00030100
00001000
00000000
00000001
00000000
00001001
,
00000000
00000101
00000000
00001010
00000000
00020010
00000000
00000000
,
00031000
00001000
00100000
02000000
00000000
23000000
00000000
30200000
,
00000000
00320000
00000000
00032000
00000000
00103000
01000000
10000000
,
10020000
00000000
01000000
00000000
01030000
00000000
00010000
00100000
,
00001000
00000000
00000000
00000000
00001000
00000000
00000000
00000000
00010000
00000000
00000100
00000000
00000010
00000000
00000001
00001000
,
00000002
00000000
00000103
00001000
00010000
00001000
00000100
00000001
,
00002000
00000000
00003100
00010000
00000100
00000010
00000001
00001000
,
00002001
00000000
00000010
00000000
00003010
00000000
00001000
00000100
,
00020000
00000000
00000000
00000000
00230000
00000000
00000000
00000000
10300000
00000000
01000000
00000000
30100000
00000000
00010000
10000000
,
00020000
00000000
02030000
00000000
03100000
00100000
10000000
00010000
,
02010000
00000000
00000000
00000000
03001000
00000000
00010000
00000000
00000100
00000000
00010200
00000000
00000000
00000000
00001300
00000001
,
00001000
00000000
00000001
00000100
00001000
00000100
00000010
00010000
,
00002000
00000000
00013000
00001000
00100000
00001000
00010000
00100000
,
20100000
00000000
30010000
00100000
00120000
00000000
10030000
00010000
,
10010000
00011000
00001001
00000110
,
00001001
00000000
00000001
00000100
00002000
00003100
00000010
00001000
,
00000200
00010300
00001000
00010000
00200000
10300000
01000000
00100000
,
00020000
00100000
00000010
00130000
,
00102000
00000000
01003000
02000000
00000000
00100000
03100000
00000000
,
10010000
00000000
10000000
00100000
00020000
00130000
01000000
00010000
,
00200000
00301000
00010000
00001000
00000200
00000301
00000010
00000100
,
00002000
00000100
01000000
00003100
,
00020100
00000000
00030010
00000020
00000000
00000100
00000130
00000000
,
00001001
00000000
00000001
00000100
00000010
00000100
00001000
00000100
,
00000020
00000000
00010030
00020000
00000000
00031000
00002000
00000000
,
00103000
00000000
30001000
00100000
00010000
01000000
00100000
20100000
,
00000000
30010000
00000000
01100000
00000000
10020000
00000000
00000000
,
00130000
00001000
00100000
00000000
00000000
00000000
00001000
00010000
00001000
00000000
00000000
00000000
00010000
00000100
00010000
00000000
,
00000100
00000000
00000010
00000000
00000001
00000000
00001000
00000001
00001000
00000000
00000000
00000000
00000000
00000000
00000201
00000000
,
00003000
00001300
00010000
00001000
00020000
00000000
00230000
00000000
,
10300000
01000000
00010000
01000000
10000000
00100000
00000000
10200000
,
00030000
00310000
00001000
00010000
00001000
00000010
00000001
00001000
,
00001001
00000000
00001000
00002100
00000000
00003001
00000000
00001002
,
00000000
00000103
00001000
00000100
00000020
00000300
00020030
00000000
,
00031000
00100000
01000000
10000000
00010000
10000000
00100000
02100000
,
00000000
00010000
10000000
03010000
,
10000000
01000000
10000000
01000000
00100000
00001000
00010000
00012000
,
00000000
00003100
00000001
00000100
00000010
00001000
00000001
00000000
,
00001000
00001000
00000100
00020100
00000000
00030010
00000000
00021000
,
00000000
00130000
10000000
00100000
01000000
00010000
10000000
10000000
,
00010000
00010000
00100000
00102000
00000000
00013000
00000100
00000120
,
00000000
00000000
00000031
00000000
00000201
00000000
00000310
00001000
,
00000200
00000000
00000000
00000000
00020300
00000000
00000000
00000000
00031000
00000000
00100000
00001000
00100000
00000000
00010000
10000000
,
00010000
00000000
00000000
00000000
,
10010000
00011000
00001001
00000110
,
00001002
00000000
00000000
00000000
00000103
00000010
00001000
00000000
00000000
00000000
00000001
00000000
00000000
00000000
00000101
00000000
,
00000000
00001010
00000000
00001100
00000000
00001002
00000000
00000000
,
00001003
00000010
00010000
00000200
00000000
00020300
00000000
00032000
,
00000000
00203000
00000000
01300000
00000000
10000000
00010000
00000000
,
20010000
00000000
00000000
00000000
30100000
01000000
00010000
00000000
00000000
00000000
10000000
00000000
00000000
00000000
10100000
00000000
,
00000000
01010000
00000000
00110000
00000000
20010000
00000000
00000000
,
30010000
01000000
00001000
00200000
00000000
00302000
00000000
00023000
,
00000000
00030200
00000000
00000310
00000000
00000001
00001000
00000001
,
00000101
00000000
00000000
00001000
00000100
00000000
00000000
00001000
00000100
00000000
00000000
00010000
00001000
00000000
00000000
00000000
,
00011000
00000000
00000000
00100000
00010000
00000000
00000000
00100000
00010000
00000000
00000000
10000000
00100000
00000000
00000000
00000000
,
20010000
00000000
00000000
00100000
00200000
00000000
00000000
00000000
,
00000000
00000000
00000000
30300000
,
10010000
00000000
10000000
11000000
00000000
01100000
00000000
00110000
,
00000000
00011000
00000000
00000110
00000000
00001002
00000000
00000000
,
00000000
00000000
00000000
00000000
,
00001003
00000000
00000000
00000000
;

//---------------dance-double - ----------------
#NOTES:
     dance-double:
     :
     Easy:
     8:
     0.437085,0.519910,0.365821,0.509933,0.000000,276.000000,243.000000,33.000000,46.000000,0.000000,0.000000,0.437085,0.519910,0.365821,0.509933,0.000000,276.000000,243.000000,33.000000,46.000000,0.000000,0.000000:
00000000
00000000
00000000
00000000
,
00000000
00000000
00000000
00000000
,
00021000
00000000
00000000
00030100
00000000
00000100
00000000
00000010
,
00000000
00000001
00000000
00001000
00000000
00000001
00000000
00000000
,
00001000
00000000
00001000
00000100
00000000
00000100
00000000
00010000
,
00000000
00001000
00000000
00100000
00000000
00002000
00000000
00003000
,
00012000
00000000
00000000
00103000
00000000
00100000
00000000
01000000
,
00000000
10000000
00000000
00010000
00000000
10000000
00000000
00000000
,
00010000
00000000
00010000
00100000
00000000
00100000
00000000
00001000
,
00000000
00010000
00000000
00000100
00000000
00020000
00000000
00000000
,
00031000
00000000
00010000
00001000
,
00100000
00000000
00100000
00000000
01000000
00000000
10000000
00010000
,
20000000
00000000
30100000
01000000
,
00020000
00000000
00130000
00001000
,
00021000
00000000
00030100
00000010
,
00000010
00000000
00000001
00000000
00001000
00000000
00000001
00000100
,
00000001
00000100
00000010
00001000
,
00000200
00000000
00000000
00020300
00000000
00000000
00031000
00000000
,
00022000
00000000
00033000
00000000
00001000
00000000
00100000
00010000
,
00100000
00000000
00001000
00000000
00010000
00000000
00000010
00001000
,
00000010
00010000
00001000
00100000
,
01100000
01100000
10010000
10010000
,
22000000
33000000
00020000
01030000
,
00002000
00013000
00000200
00001300
,
00000001
00000100
00000001
00000000
00001000
00000100
00001000
00000000
,
00000001
00000000
00000001
00000010
00000000
00000000
00001001
00000000
,
00000022
00000033
00002000
00003010
,
00020000
00031000
00200000
00310000
,
10000000
00100000
10000000
00000000
00010000
00100000
00010000
00000000
,
10000000
00000000
10000000
01000000
00000000
00000000
10010000
00000000
,
02020000
03030000
00010000
00100000
,
00001000
00000000
00001000
00000000
00010000
00000100
00010000
00000000
,
00000200
00000000
00000300
00000000
00001000
00000000
00000001
00000100
,
00000000
00000010
00000000
00001000
00000000
00000001
00000000
00000000
,
00001001
00000000
00000000
00001100
00000000
00000000
00001001
00000000
,
00000000
00000101
00000000
00000000
00000110
00000000
00000000
00002001
,
00000000
00003100
00010000
00010000
,
00001000
00100000
00001000
00000000
00100000
00000000
00010000
20000000
,
00000000
00000000
30010000
00000000
01000000
00000000
00100000
10000000
,
00100000
00000000
01000000
00002000
00000000
00013000
00000000
00022000
,
00000000
00033000
00010000
00000000
00000100
00000000
00000010
00000000
,
00000001
00001000
00000001
00000000
00001000
00000000
00000001
00000200
,
00000000
00000310
00000000
00000010
,
00001000
00000000
00000100
00000000
00010000
00000000
00001000
00200000
,
00000000
00310000
10000000
11000000
,
00010000
00000000
01010000
00000000
00100000
00000000
00001000
00020000
,
00000000
00030100
00001000
00001100
,
00000001
00000000
00000101
00000000
00001000
00000000
00000001
00000200
,
00000000
00000310
00002000
00003100
,
00020000
00000000
00031000
00000000
00100000
00010000
00100000
00000000
,
10010000
00000000
30030000
00000000
,
20000000
32000000
03020000
00032000
,
00023000
00000000
00000000
00030100
00000000
00000100
00000000
00000010
,
00000000
00000010
00000000
00000001
00000000
00001000
00000000
00000000
,
00000001
00000000
00000001
00000100
00000000
00000010
00000000
00001000
,
00000000
00000100
00000000
00010000
00000000
00001000
00000000
00000000
,
00012000
00000000
00000000
00103000
00000000
00100000
00000000
01000000
,
00000000
01000000
00000000
10000000
00000000
00010000
00000000
00000000
,
10000000
00000000
10000000
00100000
00000000
01000000
00000000
00010000
,
00000000
00100000
00000000
00001000
00000000
00010000
00000000
00000000
,
00101000
00101000
00002000
00003000
,
00010010
00010010
00020000
00031000
,
00002000
00000000
00000000
00010000
00020000
00000000
00000000
00000000
,
00000000
00000000
00033000
00000000
,
00001000
00000000
00001000
00100000
00000000
00010000
00000000
10000000
,
00000000
01100000
00000000
01100000
00000000
20010000
00000000
00000000
,
00000000
00000000
00000000
00000000
,
30010000
00000000
00000000
00000000
;
