#TITLE:Sealed Ground;
#SUBTITLE:;
#ARTIST:Kenichi Tokoi;
#TITLETRANSLIT:;
#SUBTITLETRANSLIT:;
#ARTISTTRANSLIT:;
#GENRE:;
#CREDIT:;
#BANNER:Sealed Ground.png;
#BACKGROUND:Sealed Ground-bg.png;
#LYRICSPATH:;
#CDTITLE:;
#MUSIC:Sealed Ground.ogg;
#OFFSET:-0.036000;
#SAMPLESTART:18.014029;
#SAMPLELENGTH:15.000000;
#SELECTABLE:YES;
#BPMS:0.000000=160.000000
;
#STOPS:
;
#BGCHANGES:;
#KEYSOUNDS:;
#ATTACKS:;

//---------------dance-single - ----------------
#NOTES:
     dance-single:
     :
     Hard:
     13:
     0.621052,0.633649,0.221469,0.410129,0.176355,530.000000,503.000000,27.000000,50.000000,0.000000,0.000000,0.621052,0.633649,0.221469,0.410129,0.176355,530.000000,503.000000,27.000000,50.000000,0.000000,0.000000:
// measure 0
0000
0000
0000
0000
,  // measure 1
0000
0000
0000
0000
,  // measure 2
0000
0000
0000
0000
,  // measure 3
0000
0000
0000
0000
,  // measure 4
0001
1000
0100
0020
0030
0010
0100
1000
,  // measure 5
0001
1000
0010
0200
0300
0010
1001
0000
,  // measure 6
1000
0001
0010
0200
0300
0100
0010
0001
,  // measure 7
1000
0000
0001
0000
0100
0000
0020
0000
0030
0000
0100
0000
0001
0000
1000
0001
,  // measure 8
0010
0001
0100
0020
0030
0100
0001
0100
,  // measure 9
0010
1000
0100
0020
0030
0100
1001
0000
,  // measure 10
0001
0000
0100
0000
0010
0000
0002
0000
0003
0000
0010
0100
0010
0000
1000
0000
,  // measure 11
1000
0000
0100
0000
0010
0000
2000
0000
3000
0000
0010
0000
0001
1000
0001
0000
,  // measure 12
1000
0001
0010
0100
1000
0000
0012
0000
,  // measure 13
1000
0000
0000
0000
0103
0000
0000
0000
0100
0000
0110
0000
0000
0000
0010
1000
,  // measure 14
0001
0000
0000
0000
1010
0000
0000
0000
1000
0000
0010
0100
0010
0000
1000
0000
,  // measure 15
0200
0000
0000
0000
1000
0000
0310
0000
0000
0000
0110
0000
0000
0000
0010
0001
,  // measure 16
1000
0100
0001
0100
0020
0000
0032
0000
,  // measure 17
1003
0000
1000
0001
0100
0000
0020
0000
0000
0000
0130
0000
0010
0000
1000
0000
,  // measure 18
1010
0000
0012
0000
0000
0010
1000
0000
,  // measure 19
1003
0000
0001
0000
0010
0000
0110
0000
0000
0000
0110
0000
0001
0000
1000
0010
,  // measure 20
0200
0000
0010
0000
0010
0000
0000
0000
0310
0000
1000
0000
0001
0000
1000
0100
,  // measure 21
0020
0000
0100
0000
0100
0000
0000
0000
0130
0000
1000
0000
0001
0000
0100
0001
,  // measure 22
0010
0011
0000
0101
0000
2100
0000
0100
,  // measure 23
3001
0000
0000
0000
0001
0000
0200
0000
0000
0000
0310
0000
1000
0000
0001
1000
,  // measure 24
0100
1000
0020
0000
0130
0001
0010
0200
,  // measure 25
0000
1000
0000
0310
0100
1000
0001
0100
,  // measure 26
0020
0000
0000
0000
0000
0000
0000
0000
0130
0000
0010
0000
1000
0001
1000
0000
,  // measure 27
0001
0100
0010
1010
0000
0101
0000
1010
,  // measure 28
0010
0000
0010
0100
0000
0100
0001
0000
,  // measure 29
0010
0000
0010
0100
1000
0100
0000
0100
,  // measure 30
0010
0110
2002
3003
,  // measure 31
1000
0000
0100
0000
0001
0100
0010
0000
,  // measure 32
0001
0000
0010
0100
0000
0100
1000
0000
,  // measure 33
0010
0000
0010
0100
0001
0100
0000
0100
,  // measure 34
0010
0110
2002
3003
,  // measure 35
0001
0000
0100
0000
1000
0000
0100
0000
0010
0000
1000
0000
0001
0010
0100
0000
,  // measure 36
0010
0000
0001
0000
0001
0000
0010
0000
0100
0000
0100
0000
0010
0000
0001
1000
,  // measure 37
0001
0000
0100
0000
0100
0000
0001
0000
1000
0000
1000
0000
0001
0000
0100
0010
,  // measure 38
0100
0010
1000
0010
0100
0001
0010
0001
,  // measure 39
0010
0100
1000
0100
0010
0100
0110
0000
,  // measure 40
0100
0000
1000
0000
1000
0000
0100
0000
0010
0000
0010
0000
0100
0000
1000
0001
,  // measure 41
1000
0000
0010
0000
0010
0000
1000
0000
0001
0000
0001
0000
1000
0000
0010
0100
,  // measure 42
0001
0100
0010
1000
0010
0100
0001
0010
,  // measure 43
0001
1000
0100
1000
0002
0000
2003
0000
,  // measure 44
3001
0000
0000
0000
0000
0000
1000
0010
1000
0000
0001
0100
0001
0100
0010
0000
,  // measure 45
0000
0000
0000
0000
1000
0000
0001
0000
0000
0000
0010
0000
0000
0000
0100
1000
,  // measure 46
0200
0000
0001
0001
0300
0100
1000
0001
,  // measure 47
0200
0000
1000
1000
0300
0100
0002
0023
,  // measure 48
0030
0100
2000
3020
0030
1000
0200
0320
,  // measure 49
0030
0100
1000
0001
0100
0120
0000
0130
,  // measure 50
0100
0000
0001
0000
0010
0000
0001
0000
1000
0000
0100
0000
1000
0001
0020
0000
,  // measure 51
0000
0000
0030
0000
0000
0001
0010
0001
1000
0001
1000
0100
1000
0000
0001
0000
,  // measure 52
0100
0010
1000
1000
0010
0100
0100
0010
,  // measure 53
0010
0001
0010
1000
0000
1000
0001
0010
,  // measure 54
0100
0010
0001
0001
0010
0100
0100
0010
,  // measure 55
0010
1000
0010
0100
0000
1000
1001
0001
,  // measure 56
0100
0010
1000
0001
1000
0010
0100
0010
,  // measure 57
1000
0001
0010
1000
0000
1000
0010
0100
,  // measure 58
0100
0010
0001
1000
0001
0100
0020
0000
,  // measure 59
0130
0000
0100
0000
0100
0010
0100
0010
0100
0001
0000
1000
0000
0010
0000
0010
,  // measure 60
1000
0000
0000
1000
0100
0000
0010
0000
0100
0000
1000
0000
0001
0000
0000
0001
,  // measure 61
0100
0010
1000
0001
0000
0001
0020
0000
,  // measure 62
0130
1000
0100
0000
1000
0000
0001
0000
0000
0000
0001
0000
0100
0000
0010
0000
,  // measure 63
0000
0000
1010
0000
0000
0000
0101
0000
0000
0000
1000
0000
1000
0000
0100
0010
,  // measure 64
0001
0000
0000
0001
0100
0000
0010
0000
0001
0000
0010
0000
1000
0000
0000
1000
,  // measure 65
0100
0010
1000
0020
0000
0031
0001
1000
,  // measure 66
0010
1000
0020
0000
0000
0000
0130
0000
0001
0000
1000
0000
0100
0000
0010
0000
,  // measure 67
0000
0021
0000
0100
0000
1000
0000
0001
,  // measure 68
0031
0010
0001
0200
0300
0010
0100
0001
,  // measure 69
1000
0100
1000
0020
0030
1000
0100
0010
,  // measure 70
0001
1000
0010
0200
0300
0100
0010
1000
,  // measure 71
0001
0000
1000
0000
0100
0000
0020
0000
0030
0000
0010
0000
0100
0000
1000
0001
,  // measure 72
1000
0100
0010
2000
3000
0010
0100
0010
,  // measure 73
0001
0100
0010
0002
0003
0010
0100
0001
,  // measure 74
1000
0100
0010
0001
0000
0001
0100
1000
,  // measure 75
0100
0000
0001
0100
0010
0000
1000
0001
0010
0000
0100
1000
0001
0000
2002
0000
,  // measure 76
0000
0000
0000
0000
,  // measure 77
0000
3003
0000
0000
;

//---------------dance-single - ----------------
#NOTES:
     dance-single:
     :
     Medium:
     10:
     0.367944,0.380189,0.172254,0.500357,0.016405,314.000000,293.000000,21.000000,61.000000,0.000000,0.000000,0.367944,0.380189,0.172254,0.500357,0.016405,314.000000,293.000000,21.000000,61.000000,0.000000,0.000000:
0000
0000
0000
0000
,
0000
0000
0000
0000
,
0000
0000
0000
0000
,
0000
0000
0000
0000
,
1000
0000
0001
0020
0000
0000
0130
0000
,
1000
0000
0010
0200
0000
0000
0301
0000
,
0001
0000
1000
0020
0000
0000
0130
0000
,
0001
0000
0010
0200
0000
0000
1300
0000
,
1000
0000
0010
0002
0000
0000
0013
0000
,
1000
0000
0100
0020
0000
0000
0031
0000
,
0001
0000
0010
2000
0000
0000
3010
0000
,
0001
0000
0100
0020
0000
1000
1030
0000
,
0001
0100
0000
0100
0010
0000
2020
0000
,
0000
0000
3030
0000
1000
0100
0000
1000
,
0001
0000
0022
0000
0033
0000
0001
0010
,
0200
0000
0000
1300
0000
1000
0001
1000
,
0100
0000
0000
1000
0020
0000
0230
0000
,
0300
0100
0001
0010
0000
0010
0100
0000
,
0011
2020
0000
3030
,
0010
0000
0100
0001
0000
0001
0000
1000
,
0020
0000
0100
0000
0000
0000
0130
0001
,
0020
0000
0100
0000
0000
0130
0000
0000
,
0100
1000
0000
0001
0000
0200
0000
0000
,
0301
0000
0100
2000
3000
0000
0110
0000
,
0001
0010
2000
0000
0000
3010
0000
0001
,
0000
0100
0000
0002
0000
1003
0001
0010
,
0200
0000
0000
0000
0300
0010
0100
2000
,
0000
0000
3000
0001
0000
1001
0000
0001
,
0010
0000
0100
1000
0000
0000
0100
0000
,
1000
0000
0010
1000
0100
2000
3000
0000
,
0100
0010
0220
0330
,
0001
0000
0001
0000
0010
0100
1000
0000
,
0010
0000
0100
0001
0000
0000
0100
0000
,
0001
0000
0010
0001
0100
0002
0003
0000
,
0100
0010
0220
0330
,
1000
0000
1000
0000
0010
0100
0001
0000
,
1000
0000
0100
0020
0030
0000
0100
0000
,
1000
0020
0030
0000
0100
0001
1000
0000
,
0001
0000
0100
0020
0030
0000
0100
0000
,
0001
0020
0030
0000
0100
1000
0001
0000
,
1000
0000
0010
0200
0300
0000
0001
0000
,
0100
0020
0030
0000
1000
0001
1000
0000
,
0001
0000
0010
0200
0300
0000
1000
0000
,
0100
0020
0030
0000
0002
0000
2003
0000
,
3000
0000
0000
0001
0100
0010
1000
0001
,
0000
0000
0000
1000
0000
0001
0000
1000
,
0100
0000
0010
0010
0000
0000
0001
0000
,
0100
0000
0010
0010
0000
1000
0000
0010
,
0000
0000
0100
0010
0000
0000
0001
0010
,
0000
0000
1000
0000
0000
0110
0000
1001
,
0000
0000
0002
0000
0000
1003
0001
0200
,
0000
0300
0100
1001
,
1000
0000
0000
1100
0000
0000
0011
0000
,
0000
0010
0000
0100
0000
0100
1000
0000
,
0001
0000
0000
0101
0000
0000
1010
0000
,
0000
0010
0000
0100
0000
0100
0001
0000
,
1000
0000
0000
1001
0000
0000
0110
0000
,
0000
0001
0000
0010
0000
0010
0100
0000
,
1000
0000
0000
1001
0000
0000
2020
0000
,
0000
0000
0000
0000
3030
0000
0000
0000
0001
0100
0000
0100
0000
0100
0000
0100
,
0010
0000
1000
0200
0300
0000
0010
0000
,
0001
0100
0000
0020
0000
0000
1030
0000
,
0001
0000
1000
0200
0300
0000
0100
0010
,
0000
0012
0000
1003
0000
1000
0001
0000
,
0010
0000
0001
0200
0300
0000
0010
0000
,
1000
0100
0000
0020
0000
0000
0130
1000
,
0010
2000
0000
3001
0000
0000
1000
0100
,
0000
0220
0000
0000
0000
0000
0330
0000
,
1000
0000
0001
0200
0000
0000
0301
0000
,
0001
0000
0010
0200
0000
0000
1300
0000
,
1000
0000
0001
0200
0000
0000
0310
0000
,
0010
0000
1000
0200
0000
0000
1300
0000
,
0001
0000
1000
0020
0000
0000
0130
0000
,
0010
0000
1000
0200
0000
0000
0310
0000
,
0001
0000
1000
0010
0000
0100
0001
0000
,
0010
0000
0010
0000
0010
0100
0010
0200
,
0000
0000
0000
0000
,
0000
0300
0000
0000
;

//---------------dance-single - ----------------
#NOTES:
     dance-single:
     :
     Easy:
     7:
     0.251936,0.316824,0.213267,0.237875,0.000000,215.000000,189.000000,26.000000,29.000000,0.000000,0.000000,0.251936,0.316824,0.213267,0.237875,0.000000,215.000000,189.000000,26.000000,29.000000,0.000000,0.000000:
0000
0000
0000
0000
,
0000
0000
0000
0000
,
0000
0000
0000
0000
,
0000
0000
0000
0000
,
1000
0000
0000
0011
0000
0000
0000
0000
,
0010
0000
0000
0101
0000
0000
0000
0000
,
0100
0000
0000
1010
0000
0000
0000
0000
,
0001
0000
0000
1100
0000
0000
0000
0000
,
0001
0000
0000
1010
0000
0000
0000
0000
,
0010
0000
0000
1100
0000
0000
0000
0000
,
0100
0000
0000
0011
0000
0000
0000
0000
,
1000
0000
0000
0101
0000
0000
0000
0000
,
0001
2000
0000
0000
3200
0000
0320
0000
,
0000
0030
0000
0000
,
0001
0020
0000
0130
,
0200
0000
0000
0300
0000
0000
0000
0000
,
1000
0001
0200
0320
,
0000
0000
0000
1030
0000
0000
0020
0000
,
2030
3002
0000
0000
,
0003
0000
1000
0100
0000
0100
0000
0100
,
0020
0000
0000
0000
0000
0000
0030
0100
,
2000
0000
0000
0000
0000
0000
3000
0100
,
0020
0030
0000
0002
0000
0203
0000
0000
,
0300
0000
0000
0010
0000
0000
0000
0010
,
1000
0000
0002
0000
0003
2000
0000
3200
,
0300
0000
0000
1000
0000
0000
0001
0000
,
0020
0000
0000
0000
0030
0001
0200
0000
,
0300
0000
0000
0010
0000
0010
0000
0010
,
1000
0000
0000
0101
0000
0000
0000
0000
,
0010
0000
0000
1100
0000
0000
0000
0000
,
1000
0100
0020
0030
,
0001
0010
1000
0010
,
0001
0000
0000
1100
0000
0000
0000
0000
,
0010
0000
0000
0101
0000
0000
0000
0000
,
0001
0100
0020
0030
,
1000
0010
0001
0010
,
1000
0000
0000
0001
0000
0000
0100
0000
,
0000
0001
0000
0000
0010
0000
0010
0000
,
0001
0000
0000
1000
0000
0000
0100
0000
,
0000
1000
0000
0000
0010
0000
0010
0000
,
1000
0000
0000
0100
0000
0000
0001
0000
,
0000
0100
0000
0000
1000
0000
1000
0000
,
0001
0000
0000
0100
0000
0000
1000
0000
,
0000
0100
0000
0000
0010
0000
0100
0000
,
0000
0000
0101
1100
,
0000
0000
0000
1010
0000
0011
0000
0000
,
0220
0000
0330
0000
,
1000
0000
0001
0000
1000
0001
0000
0100
,
0000
0000
0001
1000
0000
0000
1000
0001
,
0000
0000
0010
0000
0000
0100
0000
0010
,
0000
0000
1001
0000
0000
0000
1000
0100
,
0000
0000
1000
0001
,
1000
0000
0000
0010
0000
0000
0100
0000
,
0000
0010
0000
0010
0000
0000
1000
0000
,
0001
0000
0000
0010
0000
0000
0100
0000
,
0000
1000
0000
0001
0000
0000
0001
0000
,
0010
0000
0000
0100
0000
0000
1000
0000
,
0000
0100
0000
0100
0000
0000
1000
0000
,
0010
0000
0000
0100
0000
0000
0220
0000
,
0000
0000
0330
0000
,
0001
0000
0000
0100
0000
0000
0010
0000
,
0000
0100
0000
0001
0000
0000
1000
0000
,
0100
1000
0001
0010
,
0100
2000
0000
3000
,
0001
0000
0000
0100
0000
0000
0010
0000
,
0000
0100
0000
0001
0000
0000
1000
0000
,
0010
0100
0001
1000
,
0100
0020
0000
0030
,
0001
0000
0000
1010
0000
0000
0000
0000
,
0010
0000
0000
1100
0000
0000
0000
0000
,
0100
0000
0000
0011
0000
0000
0000
0000
,
1000
0000
0000
0101
0000
0000
0000
0000
,
1000
0000
0000
0011
0000
0000
0000
0000
,
0010
0000
0000
0101
0000
0000
0000
0000
,
0100
0000
0000
1010
0000
0000
0000
0000
,
1000
0000
0100
0000
0001
0000
0100
0020
,
0000
0000
0000
0000
,
0000
0030
0000
0000
;

//---------------dance-single - ----------------
#NOTES:
     dance-single:
     :
     Beginner:
     2:
     0.123039,0.155593,0.024608,0.008203,0.000000,105.000000,102.000000,3.000000,1.000000,0.000000,0.000000,0.123039,0.155593,0.024608,0.008203,0.000000,105.000000,102.000000,3.000000,1.000000,0.000000,0.000000:
0000
0000
0000
0000
,
0000
0000
0000
0000
,
0000
0000
0000
0000
,
0000
0000
0000
0000
,
1000
0000
0000
0000
,
0001
0000
0000
0000
,
0001
0000
0000
0000
,
1000
0000
0000
0000
,
1000
0000
0000
0000
,
0001
0000
0000
0000
,
0001
0000
0000
0000
,
1000
0000
0000
0000
,
0001
0000
0000
0100
,
0000
0000
0000
0000
,
0000
0010
0000
0000
,
1000
0000
0000
0000
,
0000
0000
0001
0001
,
0000
0000
0000
0010
0000
0000
0000
0000
,
0100
1000
0000
0000
,
0000
1000
0000
1000
,
0010
0000
0000
0010
,
0100
0000
0000
0100
,
0001
0000
0001
0000
,
0000
0000
0000
0000
,
0010
0000
0010
0000
0000
0000
0000
0100
,
0000
0000
0000
0100
0000
0000
0000
0000
,
1000
0000
0000
1001
,
0000
0000
0000
0000
,
0001
0000
0000
0001
0000
0000
0000
0000
,
1000
0000
0000
1000
0000
0000
0000
0000
,
0001
0000
0000
0001
0000
0000
0000
0000
,
1000
0000
0000
1000
0000
0000
0000
0000
,
0010
0000
0000
0010
0000
0000
0000
0000
,
0100
0000
0000
0100
0000
0000
0000
0000
,
0010
0000
0000
0010
0000
0000
0000
0000
,
0100
0000
0000
0100
0000
0000
0000
0000
,
0001
0000
0000
0000
,
0001
0000
0010
0000
,
0001
0000
0000
0000
,
1000
0000
0010
0000
,
1000
0000
0000
0000
,
0001
0000
0010
0000
,
0001
0000
0000
0000
,
1000
0000
0010
0000
,
0000
0000
1000
1000
,
0000
0000
0000
0001
0000
0000
0000
0000
,
0110
0000
0000
0000
,
0000
0000
0000
0000
,
0001
0000
0010
0000
,
0100
0000
1000
0000
,
0000
0010
0000
0000
,
0100
0100
0100
0000
,
0001
0000
0000
0000
,
0100
0000
0000
0000
,
0010
0000
0000
0000
,
1000
0000
0000
0000
,
1000
0000
0000
0000
,
0100
0000
0000
0000
,
0010
0000
0000
0000
,
0002
0000
0003
0000
,
1000
0000
0100
0000
,
1000
0000
0100
0000
,
0010
0000
0001
0000
,
0010
0000
0000
0000
,
0001
0000
0100
0000
,
0001
0000
0100
0000
,
0010
0000
1000
0000
,
0010
0000
0000
0000
,
1000
0000
0000
0000
,
0001
0000
0000
0000
,
0001
0000
0000
0000
,
1000
0000
0000
0000
,
0001
0000
0000
0000
,
1000
0000
0000
0000
,
1000
0000
0000
0000
,
0001
0000
0000
0000
0000
0000
0000
1001
;
