#TITLE:Scientification;
#SUBTITLE:;
#ARTIST:t+pazolite feat. ななひら;
#TITLETRANSLIT:;
#SUBTITLETRANSLIT:;
#ARTISTTRANSLIT:t+pazolite feat. Nanahira;
#GENRE:;
#CREDIT:;
#MUSIC:Scientification.ogg;
#BANNER:Scientification.png;
#BACKGROUND:Scientification-bg.png;
#CDTITLE:;
#SAMPLESTART:65.972;
#SAMPLELENGTH:14.130;
#SELECTABLE:YES;
#OFFSET:-0.102;
#BPMS:0.000=138.000;
#STOPS:;
#BGCHANGES:;
#FGCHANGES:;

//--------------- dance-single - ----------------
#NOTES:
     dance-single:
     :
     Easy:
     5:
     0,0,0,0,0:
0000
0000
0000
0000
,
0000
0000
0000
0000
,
1000
1000
1000
2000
,
3001
0001
0001
0002
,
0103
0100
0100
0200
,
0310
0010
0010
0020
,
1030
0001
0100
0020
,
1030
0001
0001
1001
,
0001
1000
0010
0200
,
0301
0010
0100
0110
,
0010
1000
0001
0100
,
0001
0010
0100
1100
,
0100
0001
1000
0010
,
1000
0100
0010
0011
,
0001
1000
0010
0100
,
0010
0100
0010
1000
,
0100
1000
0001
0100
,
0010
0100
0010
1000
,
0002
1000
1000
1003
,
2000
0001
0001
3001
,
0020
0100
0100
0130
,
0200
0010
0010
0310
,
1000
0100
0010
0100
,
2200
0000
3300
0000
,
0001
0010
0100
0010
,
0022
0033
2002
3003
,
1000
0001
1000
0001
,
0100
0010
0100
0010
,
1000
0100
0010
0001
,
1001
0110
1001
0000
,
2000
0000
0000
0000
,
3002
0000
0000
0000
,
0203
0000
0000
0000
,
0320
0000
0000
0030
,
0001
0010
0100
1000
,
0001
0010
0100
1000
,
1000
0100
0010
0001
,
1000
0100
0020
0030
,
0011
0101
2002
3003
,
1000
0100
2000
3000
,
1000
0001
1000
0001
,
2000
0000
3000
0000
,
1100
1010
2002
3003
,
0001
0010
0002
0003
,
0001
1000
0001
1000
,
0002
0000
0003
0000
,
2000
0100
0100
3100
,
0002
0010
0010
0013
,
2000
0001
0001
3001
,
0002
1000
1000
1003
,
1000
0010
0100
0001
,
0001
0100
0010
1000
,
1000
0001
1000
0001
,
1000
0001
1000
0001
,
2000
0000
0000
3000
,
0002
0000
0000
0003
,
1000
0100
0010
0100
,
2000
0000
3000
0000
,
1010
0101
2002
3003
,
1000
0001
2000
3000
,
1000
0010
0100
0001
,
2000
0001
0001
3001
,
1000
0100
0010
0100
,
1000
0001
0010
0100
,
0010
0001
1000
0001
,
0002
1000
1000
1003
,
1000
0010
0100
0001
,
0001
0010
0100
1000
,
1000
0010
0100
0001
,
2000
0000
3000
0000
,
0110
0000
0000
1001
0000
0000
0110
0000
;

//--------------- dance-single - ----------------
#NOTES:
     dance-single:
     :
     Medium:
     8:
     0,0,0,0,0,0,0,0,0,0,0,0,0,0,0,0,0,0,0,0,0,0:
0000
0000
0000
0000
,
0000
0000
0000
0000
,
1000
0000
0000
1000
0000
0000
1000
0000
0000
1000
0000
0000
2000
0000
0000
0000
,
3001
0000
0000
0001
0000
0000
0001
0000
0000
0001
0000
0000
0011
0000
0000
0000
,
0001
0000
0000
1000
0000
0000
0001
0000
0000
1000
0000
0000
0002
0000
0000
0000
,
1003
0000
0000
0001
0000
0000
1000
0000
0000
0001
0000
0000
1001
0000
0000
0000
,
0010
0000
0000
0010
0000
0000
0010
0000
0000
0010
0000
0000
0020
0000
0000
0000
,
0130
0000
0000
0100
0000
0000
0100
0000
0000
0100
0000
0000
0110
0000
0000
0000
,
0100
0000
0000
0010
0000
0000
1000
0000
0000
0001
0000
0000
2000
0000
0000
0000
,
3010
0000
0000
0100
0000
0000
0001
0000
0000
1000
0000
0000
0011
0000
0000
0000
,
0001
0010
0001
0000
2000
0000
3001
0000
,
1000
0100
1000
0000
0002
0000
1003
0000
,
0001
0100
0001
0000
0020
0000
1030
0000
,
1000
0010
1000
0000
0020
0000
0130
0000
,
0001
0100
0001
0100
0001
0000
1000
0000
,
1000
0010
1000
0010
1000
0000
0010
0000
,
0100
0001
0100
0001
0100
0000
0010
0000
,
0010
1000
0010
1000
0010
0000
1001
0000
,
1000
0000
0001
0000
0000
0010
0000
0000
0001
0000
0000
2000
0000
0000
0000
0000
,
3001
0000
0100
0000
0000
0010
0000
0000
1000
0000
0000
1010
0000
0000
0000
0000
,
0010
0000
1000
0000
0000
0100
0000
0000
1000
0000
0000
0002
0000
0000
0000
0000
,
0013
0000
0001
0000
0000
0100
0000
0000
0010
0000
0000
1010
0000
0000
0000
0000
,
1000
0010
1000
0000
0001
0000
0010
0000
,
0002
0000
0000
0003
,
0001
0100
0001
0000
1000
0000
0100
0000
,
2000
3000
0110
1001
,
1000
0100
0010
0000
0100
0000
1000
0000
,
0001
0010
0100
0000
0010
0000
0001
0000
,
1000
0001
0010
0000
0100
0000
1000
0000
,
0001
1000
0001
0000
1000
0000
0001
0000
,
2002
0000
3003
1000
,
2200
0000
3300
0010
,
0022
0000
0033
0100
,
0202
0000
0303
0001
,
2001
0010
0100
3010
,
0002
0100
0010
0103
,
1000
0001
1000
0001
,
1000
0001
1000
0001
2000
0000
3000
0001
,
0001
0010
0100
0010
0002
0000
1003
0000
,
1000
0100
0010
0100
2000
0000
3000
0000
,
1000
0100
1000
0100
2000
0000
3020
0000
,
0230
0000
0002
0000
0303
0000
0000
1000
,
1000
0100
0010
0100
2000
0000
3001
0000
,
0001
0010
0100
0010
0002
0000
0003
0000
,
1000
0010
0100
0001
0020
0000
0230
0000
,
2300
0002
3003
0000
,
0001
0000
0000
1000
0000
0000
0001
0000
0000
1000
0000
0000
0001
0000
0000
0000
,
1000
0000
0000
0001
0000
0000
1000
0000
0000
0001
0000
0000
1100
0000
0000
0000
,
0100
0000
0000
0010
0000
0000
0100
0000
0000
0010
0000
0000
0100
0000
0000
0000
,
0010
0000
0000
0100
0000
0000
0010
0000
0100
0000
0000
0000
0110
0000
0000
0000
,
0010
0000
0000
0010
0000
0000
0010
0000
0000
0010
0000
0000
0010
0000
0000
0000
,
0100
0000
0000
0100
0000
0000
0100
0000
0000
0100
0000
0000
0110
0000
0000
0000
,
0010
0000
0000
0100
0000
0000
0001
0000
0000
1000
0000
0000
0001
0000
0000
0000
,
0100
0000
0000
0010
0000
0000
1000
0000
0000
0001
0000
0000
1000
0000
1000
0000
,
2000
3002
0023
0030
,
0002
2003
3200
0300
,
1000
0010
0100
0001
0002
0000
0013
0000
,
0200
0000
0020
0000
0330
0000
0000
0001
,
0001
0010
0100
0010
0002
0000
1003
0000
,
1000
0010
0100
0010
2000
0000
3001
0000
,
0001
0100
0010
0100
0002
0000
0023
0000
,
0230
0000
0300
0000
0010
0000
0001
0001
,
0001
1000
0100
0010
0002
0000
0023
0000
,
0031
0100
0010
1000
0200
0000
0310
0000
,
0001
1000
0100
1000
0002
0000
2003
0000
,
3002
0003
0001
1000
,
0001
0001
0001
0000
2000
0000
3002
0000
,
0103
0100
0100
0000
0020
0000
0230
0000
,
0301
0010
0001
0100
0002
0000
0013
0000
,
1000
0100
0010
0001
,
1001
0000
0000
0000
0000
0000
0110
0000
0000
0000
0000
0000
1010
0000
0000
0101
;

//--------------- dance-single - ----------------
#NOTES:
     dance-single:
     :
     Hard:
     12:
     0.124992,0.455534,0.040135,0.040135,0.168568,109,104,5,5,0,0,0.124992,0.455534,0.040135,0.040135,0.168568,109,104,5,5,0,0:
0000
0000
0000
0000
,
0000
0000
0000
0000
,
1000
0000
0000
1000
0000
0000
1000
0000
0000
1000
0000
0000
1000
0100
0010
0000
,
1000
0000
0000
0001
0000
0000
0001
0000
0000
0001
0000
0000
0101
0000
0000
0000
,
0100
0000
0000
0100
0000
0000
0100
0000
0000
0100
0000
0000
0100
0001
0100
0000
,
0100
0000
0000
0010
0000
0000
1000
0000
0000
0010
0000
0000
0101
0000
0000
0000
,
0001
0000
0000
0001
0000
0000
0001
0000
0000
0001
0000
0000
0001
1000
0001
0000
,
0100
0000
0000
0100
0000
0000
0100
0000
0000
0100
0000
0000
0110
0000
0000
0000
,
0010
0000
0000
1000
0000
0000
0010
0000
0000
1000
0000
0000
0010
1000
0010
0000
,
1000
0000
0000
1000
0000
0000
0001
0000
0000
1000
0000
0000
1001
0000
0000
0000
,
1000
0000
0001
0000
1000
0100
0000
0000
0010
0000
0000
0100
0000
0000
0010
0000
,
0001
0000
1000
0000
0001
0010
0000
0000
0001
0000
0001
2000
0000
0000
0000
0000
,
3010
0000
0100
0000
0010
1000
0000
0000
0001
0000
0000
1000
0000
0000
0010
0000
,
0100
0000
0001
0000
0100
0001
0000
0000
0010
0000
0002
0000
0000
0000
0000
0000
,
0013
0000
0001
0000
1000
0010
0000
0000
0100
0000
0000
0010
0000
0000
0100
0000
,
0001
0000
1000
0000
0001
0100
0000
0000
0001
0000
0001
1000
0000
0000
0000
0000
,
0100
0000
0010
0000
0100
0001
0000
0000
1000
0000
0000
0001
0000
0000
0100
0000
,
0010
0000
1000
0000
0010
1000
0000
0000
0011
0000
1100
0000
0000
0000
0000
0000
,
2001
0000
0001
0000
0000
0001
0000
0000
0001
0000
0000
0001
3000
0000
0000
0000
,
0012
0000
0010
0000
0000
0010
0000
0000
0010
0000
0000
0013
0000
0000
0000
0000
,
1200
0000
1000
0000
0000
1000
0000
0000
1000
0000
0300
1000
0000
0000
0000
0000
,
0021
0000
0001
0000
0000
0001
0000
0000
0001
0000
0000
0031
0000
0000
0000
0000
,
0001
0000
1000
0000
0001
0010
0000
0000
1100
0000
0010
0001
0000
0001
0020
0000
,
0000
0030
1000
0001
,
1000
0000
0100
0000
1000
0001
0000
0000
1001
0000
1000
0100
0000
0100
2000
0000
,
3000
0000
0000
0000
0001
0000
0000
0000
0001
0000
0010
0002
0000
0000
0000
0000
,
1003
0000
0010
0000
1000
0010
0000
0010
1000
0000
1000
0001
0000
0000
0000
0000
,
0001
0000
0100
0000
0010
1000
0000
1000
0010
0000
0100
0001
0000
0000
0000
0000
,
0001
0000
0010
0000
0001
0010
0000
0000
0001
0000
1000
0001
0000
0000
0001
0000
,
1000
0000
0100
0000
0010
0000
0100
1000
0000
0000
0000
0000
0001
0000
0000
2200
,
0000
0000
0000
0000
0000
0000
0000
0000
3300
0000
0000
0000
1000
0000
0000
0022
,
0000
0000
0000
0000
0000
0000
0000
0000
0000
0033
0000
0000
0010
0000
0000
0220
,
0000
0000
0000
0000
0000
0000
0000
0000
0330
0000
0000
0000
0100
0000
0000
0220
,
0000
0000
0000
0000
0000
0000
0000
0000
0000
0330
0000
0000
0001
0000
0000
0001
,
2000
0000
0000
0000
3002
0000
0000
0000
0023
0000
0000
0000
0130
0000
0000
0100
,
2000
3200
0320
0031
,
1000
0000
0100
0000
0010
0000
0100
0000
0010
0000
0001
0000
0010
0000
0100
1000
,
0100
1000
0100
1000
0010
0100
0001
0100
0020
0000
0000
0000
0030
0000
1000
0000
,
1000
0000
1000
0001
0000
1000
0000
0002
0000
0003
0000
0000
0001
0000
0100
0010
,
1000
0000
1000
0001
0000
1000
0000
0200
0000
0000
0000
0300
0000
0000
0000
0000
,
1000
0000
0010
0000
0100
0000
0001
0200
0000
0000
0301
0000
0001
0000
0100
0020
,
0000
0000
0000
0000
0030
0000
0010
0010
,
0100
0000
0010
1000
0000
1000
0000
0001
0000
0000
0000
0000
0001
0000
0010
0100
,
0010
0000
0001
1000
0000
1000
0000
2200
0000
0000
0000
0000
3300
0000
0000
0000
,
1000
0000
0001
0000
0100
0000
0010
1000
0000
1000
0010
0000
0100
0000
0010
0200
,
0000
0000
0300
0000
,
1000
0000
0000
0010
0000
0000
0100
0000
0000
0001
0000
0000
0001
0010
0100
0000
,
0001
0000
0000
0100
0000
0000
0010
0000
0000
1000
0000
0000
1000
0000
0000
0000
,
0001
0000
0000
0100
0000
0000
0010
0000
0000
1000
0000
0000
1000
0100
0010
0000
,
1000
0000
0000
0010
0000
0000
0100
0000
0000
0001
0000
0000
0001
0000
0000
0000
,
0010
0000
0000
0010
0000
0000
0100
0000
0000
0100
0000
0000
1000
0010
1000
0000
,
0001
0000
0000
1000
0000
0000
0001
0000
0000
1000
0000
0000
1100
0000
0000
0000
,
1000
0000
0000
0100
0000
0000
0010
0000
0000
0001
0000
0000
0001
0010
0001
0000
,
0001
0000
0000
0010
0000
0000
0100
0000
0000
1000
0000
0000
1000
0000
0000
0000
,
1000
0000
0000
1000
0000
0000
2000
0000
0000
0000
0000
0000
0000
0000
0000
0000
,
3001
0000
0000
0001
0000
0000
2002
0000
0000
0000
0000
0000
3003
0000
0000
0000
,
1000
0000
0001
0000
1000
0000
0010
0100
0000
0100
0010
0000
1000
0000
0001
2000
,
0000
0000
0001
0000
3001
0000
0001
1000
,
1000
0000
0100
0010
0000
0010
0000
0001
0000
0000
0000
0000
0001
0000
0001
0000
,
0001
0000
1000
0100
0000
0010
0000
0200
0000
0000
0000
0000
1300
0000
0000
0000
,
1000
0000
0001
0000
0100
0000
0001
0010
0000
0000
0001
0000
0010
0000
0000
2200
,
0000
0000
0000
0000
3300
0000
0000
0000
1000
0000
0000
1000
0000
0000
1000
0100
,
1000
0000
1000
0100
0000
0010
0000
0100
0000
0000
0000
0000
2000
0000
3001
0010
,
0001
0000
0001
0010
0000
0100
0000
0010
0000
0000
0000
0000
0002
0000
0000
0000
,
0103
0000
0100
0000
0100
0000
0010
0100
0000
0000
0100
0000
0010
0100
0010
0100
,
0002
0000
0000
0000
1000
0000
0000
0000
0103
0000
0000
0000
0010
0000
0100
0010
,
1000
0000
1000
0001
0000
1000
0000
1001
0000
0000
0000
0000
0000
0000
0010
0100
,
0001
0000
0001
1000
0000
0100
0000
1000
0000
0100
0020
0000
0000
0000
0000
0000
,
0031
0000
1000
0000
0001
0000
0010
0002
0000
0000
1003
0000
1000
0000
1000
0002
,
0000
0000
0000
0000
,
1003
0100
1000
0100
0000
0000
0010
0001
0010
0001
0000
0000
1000
0001
1000
0001
;
