#TITLE:Scatman's World;
#SUBTITLE:(Tr!xy Hardstyle Bootleg);
#ARTIST:Scatman John;
#TITLETRANSLIT:;
#SUBTITLETRANSLIT:;
#ARTISTTRANSLIT:;
#GENRE:Hardstyle;
#CREDIT:tikal.;
#MUSIC:Scatman's World (Tr!xy Hardstyle Bootleg).ogg;
#BANNER:Scatman's World (Tr!xy Hardstyle Bootleg).png;
#BACKGROUND:Scatman's World (Tr!xy Hardstyle Bootleg)-bg.png;
#CDTITLE:cdtitle.png;
#SAMPLESTART:51.200;
#SAMPLELENGTH:25.600;
#SELECTABLE:YES;
#OFFSET:0.000;
#BPMS:0.000=150.000;
#STOPS:;
#BGCHANGES:;
#FGCHANGES:;

//--------------- dance-single - tikal. ----------------
#NOTES:
     dance-single:
     tikal.:
     Beginner:
     5:
     0,0,0,0,0:
0000
0000
0000
0000
,
0000
0000
0000
0000
,
0000
0000
0000
0000
,
0000
0000
0000
0000
,
0000
0000
0000
0000
,
0000
0000
0000
0000
,
0000
0000
0000
0000
,
0000
0000
0000
0000
,
1000
0000
0000
0000
,
0001
0000
0000
0000
,
1000
0000
0000
0000
,
0001
0000
0000
0000
,
1000
0000
0001
0000
,
1000
0000
0001
0000
,
2000
0000
3002
0000
,
0103
0100
0001
0000
,
1000
0000
1000
0000
,
1000
0000
1000
0000
,
0001
0000
0001
0000
,
0001
0000
0001
0000
,
0100
0000
0100
0000
,
0100
0000
0100
0000
,
0010
0000
0010
0000
,
0010
0010
0010
0000
,
1000
1000
1000
0000
,
0100
0000
0100
0000
,
0001
0001
0001
0000
,
0100
0000
0100
0000
,
1000
0010
1000
0000
,
0100
0000
1000
0000
,
0001
0010
0001
0000
,
0100
0100
0001
0000
,
0010
0000
0100
0000
,
1000
0000
1000
0000
,
0010
0000
0100
0100
,
0001
0000
0000
0000
,
1000
0000
0100
0000
,
0001
0000
0100
0000
,
1000
0000
0100
0000
,
0001
0000
0010
0000
,
1000
0000
1000
0000
,
0001
0000
0001
0000
,
1000
0000
1000
0000
,
0001
0000
0001
0000
,
2000
0000
3002
0000
,
2003
0000
3002
0000
,
1003
1000
0001
0001
,
0100
0100
0001
0000
,
1000
0000
0010
0000
,
1000
0000
0010
0000
,
0001
0000
0010
0000
,
0001
0000
0010
0000
,
1000
0000
0100
0000
,
1000
0000
0100
0000
,
0001
0000
0100
0000
,
1000
0000
1001
0000
,
0001
0000
0100
0000
,
0020
0000
0000
0030
,
1000
0000
0100
0000
,
0020
0000
0000
0030
,
0001
0000
0100
0000
,
0001
0000
0100
0000
,
1000
0000
0100
0000
,
0002
0000
0000
0003
,
0010
0000
0100
0000
,
1000
0000
1000
0000
,
0010
0000
0100
0100
,
0001
0000
0000
0000
,
1000
0000
0100
0000
,
0001
0000
0100
0000
,
1000
0000
0100
0000
,
0001
0000
0010
0000
,
2000
0000
0000
3000
,
1000
0000
1000
1000
,
2000
0000
0000
3000
,
0001
0000
0100
0100
,
0002
0000
0000
0003
,
1000
1000
0010
0000
,
0001
0001
0010
0000
,
1000
1000
0010
0000
,
0220
0000
0000
0330
,
0001
0001
0010
0010
,
0200
0000
0000
0300
,
1000
1000
0010
0010
,
0200
0000
0000
0300
,
0001
0001
0100
0000
,
1000
1000
0100
0000
,
0001
1000
0001
1000
,
2002
0000
0000
3003
,
0110
0000
0000
0000
;

//--------------- dance-single - tikal. ----------------
#NOTES:
     dance-single:
     tikal.:
     Easy:
     9:
     0,0,0,0,0:
0000
0000
0000
0000
,
0000
0000
0000
0000
,
0000
0000
0000
0000
,
0000
0000
0000
0000
,
0000
0000
0000
0000
,
0000
0000
0000
0000
,
0000
0000
0000
0000
,
0000
0000
0000
0000
,
1000
0000
1000
0000
1000
0000
0000
1000
,
0001
0000
0001
0000
0001
0000
0000
0001
,
0100
0000
0100
0000
0100
0000
0000
0100
,
0010
0000
0010
0000
0010
0000
0010
1000
,
0001
0010
0100
1000
,
0010
0100
0001
0010
,
0100
0000
0100
0000
0100
0010
0100
0010
,
0001
1000
1001
0000
,
1000
0010
1000
0100
,
1000
0000
0010
0000
1000
0000
0100
1000
,
0001
0100
0001
0010
,
0001
0000
0100
0000
0010
1000
0001
0000
,
1000
0000
0100
0000
0001
0000
0100
0010
,
0001
0000
0100
0000
1000
0000
0100
0010
,
1000
0000
0001
0000
0010
0100
1000
0000
,
0001
0001
0000
0000
,
1000
0010
0001
0010
,
0100
0100
0100
0100
,
0001
0010
1000
0010
,
0100
0100
0100
1000
,
0001
0100
1000
0100
,
0010
1000
0100
0000
0010
0000
0001
0000
,
1000
0010
1000
0000
0001
0010
0001
0000
,
0100
0010
0110
0000
,
1000
0001
0100
0100
,
0001
0001
1000
1000
,
0001
1000
0100
0100
,
0010
0010
0001
1000
,
0010
0001
0010
1000
,
0100
0001
0100
1000
,
0010
0001
1000
0100
,
0010
1000
1001
0000
,
0001
0000
0001
0000
0001
0000
0000
0001
,
1000
0000
1000
0000
1000
0000
0000
1000
,
0100
0000
0100
0000
0100
0000
0000
0100
,
0010
0000
0010
0000
0010
0000
0010
0001
,
1000
0010
0100
0001
,
0010
0100
1000
0010
,
0100
0000
0100
0000
0100
0010
0100
0010
,
1000
0001
1001
0000
,
1000
0100
1000
0100
,
0001
0000
0100
0000
0001
0000
0100
0010
,
0001
0100
0001
0100
,
1000
0000
0100
0000
1000
0000
0100
0010
,
1000
0001
1000
0001
,
0010
0000
0100
0000
0010
0100
0010
0000
,
0001
1000
0001
1000
,
0010
0100
0010
0000
1001
0000
0110
0000
,
0001
0010
1000
0010
,
0100
0000
0000
0100
0000
1000
0001
0000
,
1000
0010
0001
0010
,
0100
0000
0000
0100
0000
0001
1000
0000
,
0001
1000
0001
0000
0010
0000
0100
1000
,
0001
0000
1000
0000
0010
0100
0001
0000
,
1000
0100
0001
0010
,
1000
0000
0000
0001
0000
0000
1001
0000
,
1000
0001
0010
0010
,
0001
0001
1000
1000
,
0001
1000
0010
0010
,
0100
0100
0001
1000
,
0100
0001
0100
1000
,
0010
0001
0010
1000
,
0100
0001
1000
0010
,
0100
0000
1000
0000
1001
0000
0000
0100
,
0000
0001
0000
1001
0000
0000
0000
0000
,
1000
1000
1100
1100
,
0100
0000
0000
0010
0000
0100
1000
0000
,
0001
0001
0101
0101
,
0100
0000
0000
0010
0000
0100
0001
0000
,
1000
0100
0001
1000
,
0001
0100
1000
0001
,
0100
1000
0010
0001
,
1001
0000
0000
0220
0000
0000
0330
0000
,
1000
1100
0001
0101
,
1000
0000
0000
0001
0010
0100
1000
0000
,
0001
0011
1000
1010
,
0001
0000
0000
1000
0000
0000
1001
0000
,
1000
0100
0010
0001
0000
0000
1000
0000
,
0001
0100
0010
1000
0000
0000
0001
0000
,
1000
0010
0100
0000
0001
0010
0100
0000
,
1001
0000
0000
0220
0000
0000
0330
0000
,
1001
0000
0000
0000
;

//--------------- dance-single - tikal. ----------------
#NOTES:
     dance-single:
     tikal.:
     Medium:
     11:
     0,0,0,0,0:
0000
0000
0000
0000
,
0000
0000
0000
0000
,
0000
0000
0000
0000
,
0000
0000
0000
0000
,
0000
0000
0000
0000
,
0000
0000
0000
0000
,
0000
0000
0000
0000
,
0000
0000
0000
0000
,
1000
0000
1000
0000
1000
0000
0100
1000
,
0001
1000
0001
0000
0001
0000
0100
0001
,
1000
0000
1000
0000
1000
0000
0010
1000
,
0001
1000
0001
0000
0001
0000
1000
0001
,
1000
0010
0100
0000
0010
0100
0001
0000
,
1000
0100
0010
0000
0100
0010
0001
0000
,
1000
0000
1000
0000
0001
0001
1000
0001
,
0100
0010
0220
0330
,
1000
0100
1000
0000
1000
0001
1000
0000
,
1000
0010
1000
0000
1000
0100
0010
0010
,
0001
0100
0001
0000
0001
1000
0001
0000
,
0001
0010
0001
0000
0100
0010
0010
0000
,
1000
0010
1000
0000
1000
0100
0010
0010
,
0001
0100
0001
0000
0001
0010
0010
0100
,
1000
0100
0001
0100
1000
0001
0001
0000
,
0200
0000
0320
0000
0030
0000
0000
1000
,
1010
0000
1010
0000
1010
0000
1000
0010
,
0100
0000
0100
0000
0100
0001
0001
0010
,
0011
0000
0011
0000
0011
0000
0001
0010
,
0100
1000
0100
0000
0100
0000
2000
0000
,
3001
1000
0001
0000
0101
0000
0001
0100
,
0100
0010
0010
0000
0010
1000
1000
0100
,
1000
1000
0001
0001
0100
0100
0100
0000
,
0010
0100
0220
0330
,
1000
0001
1000
0000
0010
0000
0100
0000
,
0001
0001
1000
1000
,
0001
1000
0001
0000
0010
0000
0100
0000
,
0001
0100
1000
0010
,
0100
0000
1000
0100
0000
0010
1000
1000
,
0100
0000
0001
0100
0000
0010
0001
0001
,
1000
0000
0001
1000
0000
0010
0100
0001
,
0000
1000
0000
2002
0000
0000
3003
0000
,
0001
0000
0001
0000
0001
0000
0100
0001
,
1000
0001
1000
0000
1000
0000
0100
1000
,
0001
0000
0001
0000
0001
0000
0010
0001
,
1000
0001
1000
0000
1000
0000
0001
1000
,
0001
0010
0100
0000
0010
0100
1000
0000
,
0001
0100
0010
0000
0100
0010
1000
0000
,
0001
0000
0001
0000
1000
1000
0001
1000
,
0100
0010
0220
0330
,
1000
1000
1010
1010
,
0001
0000
0001
0000
0101
0000
0001
1000
,
0100
0100
1100
1100
,
0010
0000
0010
0000
0011
0000
0001
1000
,
0001
0001
0101
0101
,
1000
0000
1000
0000
0001
1000
0001
0000
,
0010
0010
0011
0011
,
0100
1000
0100
0000
1100
0000
1001
0000
,
0101
0100
1100
0100
,
0110
0000
0000
0010
0000
0000
0010
0000
0000
0000
1000
0000
0001
0000
0000
0000
,
0011
0010
1010
0010
,
0110
0000
0000
0100
0000
0000
0100
0000
0000
0000
1000
0000
0001
0000
0000
0000
,
1000
0010
0100
0000
1010
0000
0001
0010
,
0100
0000
0011
0000
1000
0001
1000
0000
,
0101
0000
1100
0000
0001
1000
0001
0001
,
0010
0000
0000
0010
0000
0000
0010
0000
0000
0000
0000
0000
1001
0000
0000
0000
,
1000
0001
1000
0000
0100
0000
0010
0000
,
0001
0000
1000
0001
0010
0100
1000
0000
,
0001
1000
0001
0000
0100
0000
0010
0000
,
0001
0000
0010
0000
1000
0001
0100
0001
,
0010
0000
1000
0010
0000
0100
1000
1000
,
0010
0000
0001
0010
0000
0100
0001
0001
,
1000
0000
0001
1000
0000
0100
0010
0001
,
0000
1000
0000
2002
0000
0000
3003
0100
,
0000
0010
0000
0220
0000
0000
0330
0000
,
0101
0101
1010
1010
,
1000
0000
0000
0001
0000
0000
1000
0000
0100
0000
0010
0000
0001
0000
0000
0000
,
0011
0011
1100
1100
,
1000
0000
0000
0001
0000
0000
1000
0000
0000
0000
0010
0000
0100
0000
0000
0000
,
1000
0000
0100
0010
0000
1000
1000
0100
,
0001
0000
0100
0010
0000
0001
1000
1000
,
0010
0100
0001
0010
0000
0100
1000
1010
,
0000
0011
0000
2002
0000
0000
3003
0000
,
1100
0101
1010
0011
,
1000
0100
0001
1000
0010
0100
1000
0000
,
0101
1100
0011
1010
,
0001
0100
1000
0001
0010
0000
0100
0001
,
1000
0010
1000
0010
0001
0010
0100
0000
,
0001
0010
0001
0010
1000
0010
0100
0000
,
1000
0010
0100
0001
0010
0100
1000
0001
,
0101
0000
0000
1100
0000
0000
2002
0000
0000
0000
0000
0000
3003
0000
0000
0000
,
0110
0000
0000
0000
;

//--------------- dance-single - tikal. presents "Scatman's Soul" ----------------
#NOTES:
     dance-single:
     tikal. presents "Scatman's Soul":
     Hard:
     13:
     0,0,0,0,0:
0000
0000
0000
0000
,
0000
0000
0000
0000
,
0000
0000
0000
0000
,
0000
0000
0000
0000
,
0000
0000
0000
0000
,
0000
0000
0000
0000
,
0000
0000
0000
0000
,
0000
0000
0000
0000
,
1000
0000
0000
0100
0000
0000
2000
0000
0000
0000
3001
0000
0001
0100
0010
1000
,
0001
0000
0000
0100
0000
0000
0002
0000
0000
0000
1003
0000
1000
0100
0010
0000
,
0001
0000
0000
0010
0000
0000
0002
0000
0000
0000
1003
0000
1000
0010
0100
0001
,
1000
0000
0000
0010
0000
0000
2000
0000
0000
0000
3001
0000
0001
0010
0100
1000
,
0001
0000
0000
0100
0000
0000
1000
0000
0001
0000
0000
0010
0000
0000
1000
0000
,
0001
0000
0000
0010
0000
0000
1000
0000
0001
0000
0000
0100
0000
0000
1000
0000
,
0010
0000
0000
0100
0010
0000
0000
0100
0010
0000
0010
0000
0100
0010
0100
0010
,
1000
0001
2002
3003
,
1000
0100
0010
0100
1000
0100
M100
0001
,
1000
0000
0100
0000
0001
0000
0100
0000
1000
0000
0100
0010
0001
0000
0001
0000
,
0001
0100
0010
0100
0001
0100
010M
1000
,
0001
0000
0100
0000
1000
0000
0100
0000
0010
1000
0001
0000
0002
0000
0000
0000
,
1003
0010
0100
0010
1000
0010
M010
0001
,
0001
0000
0010
0000
0100
0000
0010
0000
0001
0000
0010
0100
1000
0000
1000
0001
,
1000
0010
0001
0010
1000
0010
M010
0001
,
0200
0000
0000
0000
0000
0000
0320
0000
0000
0000
0000
0000
0030
0000
MMMM
0000
0000
0000
0000
0000
0000
1000
0000
0000
,
0001
0000
0011
0000
0000
0000
0011
0000
0010
0001
0100
0000
0102
0000
0000
0000
,
1003
0000
0010
1000
0010
0000
0010
0000
1000
0000
1000
0000
1000
0000
0001
0000
,
0100
0000
0101
0000
0000
0000
0101
0000
0100
0001
0010
0000
0001
1000
0001
1000
,
0010
0000
0100
0001
1000
0100
1000
0000
1100
0000
0100
0000
0002
0000
0000
0000
,
0103
0000
1100
0000
0000
0000
1100
0000
0100
1000
0010
0000
2010
0000
0000
0000
,
3001
0000
0100
0001
0100
0000
0100
0000
0001
0000
0001
0000
0001
0000
1000
0000
,
0010
0000
1010
0000
0000
0000
1010
0000
0010
1000
0100
0010
0002
0000
0000
0000
,
1003
0001
2002
3003
,
1000
0001
1000
1000
0020
0000
0230
0000
,
1000
0000
0010
0000
0001
0000
0310
1000
,
0001
1000
0001
1000
0200
0000
0001
0000
,
0320
0000
1000
0000
0130
0010
0001
0000
,
1000
0010
0100
1000
0000
0100
0010
0100
,
0001
0010
0100
0001
0000
0100
0010
0100
,
1000
0010
0100
0001
0000
0010
0100
1100
,
0000
0101
0000
2002
0000
0000
3003
0000
,
0001
0000
0000
0100
0000
0000
0002
0000
0000
0000
1003
0000
1000
0100
0010
0001
,
1000
0000
0000
0100
0000
0000
2000
0000
0000
0000
3001
0000
0001
0100
0010
0000
,
1000
0000
0000
0010
0000
0000
2000
0000
0000
0000
3001
0000
0001
0010
0100
1000
,
0001
0000
0000
0010
0000
0000
0002
0000
0000
0000
1003
0000
1000
0010
0100
0001
,
1000
0000
0000
0100
0000
0000
0001
0000
1000
0000
0000
0010
0000
0000
0001
0000
,
1000
0000
0000
0010
0000
0000
0001
0000
1000
0000
0000
0100
0000
0000
0001
0000
,
0010
0000
0000
0100
0010
0000
0000
0100
0010
0000
0010
0000
0100
0010
0100
0010
,
0001
1000
2002
3003
,
1001
1001
1100
1100
,
1001
0000
1001
0000
0101
0000
0001
1000
,
1010
1010
1100
1100
,
0011
0000
0000
0000
0011
0000
0000
0000
0101
0000
0000
0000
0100
0000
0001
1000
,
0001
1001
0110
0110
,
1010
0000
0000
0000
0011
0000
0000
0000
1000
0010
0000
0100
0001
0000
0000
0000
,
0110
0110
1001
1001
,
0001
0000
1000
0000
0001
0000
0000
0000
1000
0001
1000
0001
0010
0000
0000
0000
,
0011
1100
0101
1010
,
1000
0000
0000
0001
0000
0000
1000
0000
0000
0000
0100
0000
0010
0001
1000
0000
,
1010
0101
0011
1100
,
1000
0000
0001
0100
0000
0010
1000
0000
0000
0000
0001
1000
0001
0000
0000
0000
,
1000
0100
0000
0010
0001
0000
0000
0000
0101
0000
0000
0000
0001
0000
1000
0000
,
1100
0000
0000
0000
1001
0000
0000
0000
0001
1000
0001
0000
0100
0000
0000
0010
,
1000
0000
0000
0000
1010
0000
0000
0000
0011
0000
0001
0000
1000
0001
1000
0001
,
0010
0000
0000
1100
0000
0000
0011
0000
0000
0000
0001
0000
1001
0000
0000
0000
,
1000
0001
1000
1000
0200
0000
0320
0000
,
1000
0000
0031
1000
0001
0010
0100
1000
,
0001
1000
0001
1000
0020
0000
0001
0000
,
0230
0000
0000
0000
1000
0000
0000
0000
0310
0000
0100
0000
0001
0000
1000
0001
,
1000
0100
0010
1000
0000
0010
0100
1000
,
0001
0100
0010
0001
0000
0010
0100
0001
,
1000
0100
0010
0001
0000
0100
0010
1010
,
0000
0011
0000
2002
0000
0000
3003
0101
,
0000
1100
0000
2002
0000
0000
3003
0000
,
0001
0001
1000
1000
1010
0000
0101
0000
,
1001
0000
0000
1001
0000
0000
1001
0000
0000
0000
1000
0000
0001
1000
0001
0000
,
0010
0010
0100
0100
1100
0000
0011
0000
,
1000
0000
0001
0100
0000
0010
1000
0000
0000
0000
0001
1000
0002
0000
0000
0000
,
1003
0100
0000
0010
0001
0000
0000
0000
0101
0000
0000
0000
1000
0000
0010
0000
,
1010
0000
0000
0000
0110
0000
0000
0000
1000
0001
1000
0000
1100
0000
0000
1000
,
0001
0000
0000
0000
0011
0000
0000
0000
1000
0000
0010
0000
0100
0001
1000
0001
,
0010
0000
0000
0110
0000
0000
2002
0000
0000
0000
0000
0000
3003
0000
0000
0000
,
2010
0000
0000
3002
0000
0000
2003
0000
0010
0000
3200
0000
0310
0001
1000
0000
,
1010
0000
0000
0101
0000
0000
1010
0000
0000
0000
1000
0000
0001
0000
0010
0000
,
0012
0000
0000
2003
0000
0000
3002
0000
0010
0000
0203
0000
0310
1000
0001
0000
,
0011
1000
0010
1010
0001
0000
1001
0000
,
1100
0000
0010
0001
0010
0000
1100
0000
0000
0000
0001
0000
1000
0000
0001
0000
,
0101
0000
0010
1000
0010
0000
0101
0000
0000
0000
1000
0000
0001
0000
1000
0000
,
0100
0001
0100
1000
0100
0000
0000
0000
1000
0000
0001
0000
0100
0000
0010
0000
,
1010
0000
0000
0011
0000
0000
2002
0000
0000
0000
0000
0000
3003
0000
0000
0000
,
0110
0000
0000
0000
;

//--------------- dance-single - tikal. presents "Scatman's Soul" ----------------
#NOTES:
     dance-single:
     tikal. presents "Scatman's Soul":
     Challenge:
     15:
     0,0,0,0,0:
0000
0000
0000
0000
,
0000
0000
0000
0000
,
0000
0000
0000
0000
,
0000
0000
0000
0000
,
0000
0000
0000
0000
,
0000
0000
0000
0000
,
0000
0000
0000
0000
,
0000
0000
0000
0000
,
1000
0000
0000
0000
0100
0000
0000
0000
1100
0000
0000
0000
0001
0000
1000
0100
,
0010
0001
0100
0000
0101
0000
1000
0001
,
0001
0000
0000
0000
0010
0000
0000
0000
0011
0000
0000
0000
1000
0000
0001
0010
,
0100
0000
1000
0000
0010
0000
0000
0000
1010
0000
0000
0000
0001
0000
1000
0001
,
1000
0100
1000
0100
0001
0100
0001
0100
,
1000
0001
1000
0001
0100
0010
0100
0010
,
1000
0000
0100
1000
0001
0000
0100
0001
1000
0000
1000
0000
0001
1000
0001
1000
,
0100
0010
0220
0330
,
1000
0020
0130
0010
1000
0001
0002
0013
,
0100
0000
0020
0000
0031
0000
0100
0000
0010
0000
1000
0001
2000
0000
3001
0000
,
0001
0020
0130
0010
0001
1000
2000
3010
,
0100
0000
0020
0000
1030
0000
0100
0000
0010
0100
0010
0000
0002
0000
0000
0000
,
1003
0200
0301
0100
1000
0010
0020
0130
,
0100
0000
2000
0000
3100
0000
0001
0000
1000
0000
0100
0010
0001
0000
0001
1000
,
0001
0200
1300
0100
0001
0010
0020
0130
,
0002
0000
0000
0000
0000
0000
0103
0000
0000
0010
0000
0000
0001
0000
0000
0000
0000
0000
1000
0000
0000
0000
0000
0000
0000
0000
0000
0000
MMMM
0000
0000
0000
0000
0000
0000
0000
0000
0000
0000
0000
0000
0000
1000
0000
0000
0000
0000
0000
,
0001
0000
0010
0000
0100
0000
0001
0100
0000
0010
0000
0001
0100
0000
0010
0000
,
1000
0000
0001
1000
0001
0000
0001
0000
0100
0000
0100
0000
0010
1000
0001
0000
,
1000
0000
0010
0000
0100
0000
1000
0100
0000
0010
0000
1000
0100
0010
0004
0000
,
1003
0000
1000
0001
0010
0100
0010
0000
0001
0000
0001
0000
0200
0000
0000
0000
,
0310
0000
0010
0000
1000
0000
0100
0010
0000
1000
0000
0010
0100
0000
1000
0001
,
1000
0000
0001
1000
0001
0000
0001
0000
0400
0000
0310
0000
0010
0000
1000
0000
,
0001
0000
0010
0000
0100
0000
0001
0100
0000
0010
0001
1000
0002
0000
0000
0000
,
0103
0010
0220
0330
,
1000
0100
0001
0100
0020
0000
0032
0000
,
1003
0000
1000
0000
0001
0000
0001
1000
,
0001
0100
1000
0100
0020
0000
2030
0000
,
3200
0000
0001
0000
0310
0001
1000
0000
,
0001
0100
0010
0001
0000
0010
0100
0001
,
1000
0100
0010
1000
0000
0010
0100
1000
,
0001
0100
1000
0001
0000
1000
0100
0010
,
0000
0000
1010
0000
0000
0000
0011
0000
0000
0000
0001
1000
0001
0100
0010
0000
,
1000
0000
0000
0000
0010
0000
0000
0000
0101
0000
0000
0000
0001
0000
1000
0010
,
0100
0001
0010
0000
1100
0000
1000
0001
,
0001
0000
0000
0000
0100
0000
0000
0000
1010
0000
0000
0000
1000
0000
0001
0100
,
0010
0000
1000
0000
0100
0000
0000
0000
0011
0000
0000
0000
0001
0000
1000
0001
,
1000
0010
1000
0010
0001
0010
0001
0010
,
1000
0001
1000
0001
0010
0100
0010
0100
,
1000
0100
1000
0010
0100
0001
0010
0001
0100
0010
0100
0010
1000
0001
1000
0001
,
0010
0100
0220
0330
,
0012
0000
0000
1003
0100
0000
0010
0000
0100
0000
1000
0000
0001
1000
0010
0000
,
2010
0000
0000
3001
0100
0000
0010
0000
0100
0000
1000
0000
0100
0001
1000
0000
,
2100
0000
0000
3001
0010
0000
0100
0000
0010
0000
0001
0000
1000
0001
0100
0000
,
0102
0000
0000
1003
0010
0000
0100
0000
0010
0000
0001
0000
0010
0100
0001
1000
,
0002
0000
0000
0013
0100
0000
0001
0000
0100
0000
0010
0000
0001
1000
0010
0000
,
2010
0000
0000
3010
0100
0000
1000
0000
0100
0010
0000
1000
0001
0000
0000
0000
,
2100
0000
0000
3100
0010
0000
1000
0000
0010
0000
0100
0000
1000
0001
0100
0000
,
0102
0000
0103
0010
1000
0000
0001
0000
0010
0100
1000
0001
0100
0000
0000
0000
,
2001
0000
0000
3100
0010
0000
1000
0000
0010
0000
0100
0000
0010
0001
1000
0000
,
1010
0000
0000
0101
0000
0000
1010
0000
0000
0000
1001
0000
0001
1000
0001
0000
,
1002
0000
0000
0103
0010
0000
0001
0000
0010
0000
0100
0000
0010
1000
0001
0000
,
0011
0000
1000
0100
0000
0010
0001
0000
0000
0000
1000
0001
1000
0000
0000
0000
,
0001
0100
0000
0010
1000
0000
0001
0000
1000
0000
0100
0000
0010
0100
1000
0000
,
0001
0000
0000
0100
1000
0000
0001
0000
1000
0100
0010
0000
0100
0010
1000
0001
,
1000
0000
0000
0100
0001
0000
1000
0000
0001
0000
0100
0000
0010
0001
1000
0001
,
0100
0000
0000
1010
0000
0000
0101
0000
0000
0000
0001
0000
1000
0100
0010
0000
,
0001
0010
1000
0010
0200
0000
2300
3000
,
1100
0000
0101
0001
0010
0100
1000
0001
,
1000
0010
0001
0010
0200
0000
0302
0000
,
0023
0000
0030
0000
0011
0000
0000
0000
1010
0000
1000
0000
0010
0000
0100
0001
,
1000
0100
0010
1000
0001
0100
0010
0100
,
1000
0000
0010
0000
0100
0000
1000
0000
0001
0010
0000
0100
0010
0000
1000
0000
,
0001
0010
0100
0001
1000
0010
0100
0010
,
0010
0000
0001
0000
0001
0000
0100
0000
0100
0010
1000
0001
0010
0000
0011
0000
,
0000
1010
0000
2002
0000
0000
3003
0000
,
1100
0100
0110
0100
2100
0000
3020
0030
,
1010
0000
0000
0101
0000
0000
1010
0000
1000
0000
1001
0000
0001
1000
0001
0000
,
0101
0100
0110
0100
0102
0000
0023
0000
,
1030
0000
0010
0100
0000
0010
0001
0000
0000
0000
1000
0001
1000
0000
0000
0000
,
0001
0100
0000
0010
0001
0000
0010
0000
0110
0000
0000
0000
1001
0000
0101
0000
,
1100
0000
0100
0000
0110
0000
1000
0000
0001
0100
0010
0000
1010
0000
0000
1000
,
0001
0000
0100
0000
0110
0000
0001
0000
0101
0000
1000
0000
0001
0010
0100
1000
,
0010
0000
0000
0110
0000
0000
2002
0000
0000
0000
0000
0000
3003
0000
0000
0000
,
1010
0000
0001
0100
0001
0000
1010
0000
1000
0000
1100
0000
0100
0010
0001
1000
,
0001
0000
1000
0010
0100
0000
0110
0000
1000
0000
0001
0010
0100
0000
1000
0001
,
1000
0000
0001
0010
0001
0000
1100
0000
1000
0000
1010
0000
0110
0000
0001
1000
,
0100
0000
0100
0000
0100
0000
0110
0000
0010
0000
0000
0000
0001
0000
1000
0001
,
1000
0000
0010
1000
0100
0000
0010
0000
0011
0000
0010
0000
0100
1000
0001
0000
,
0101
0000
0100
0001
0010
0000
0100
1000
0001
0000
0100
0000
0120
0000
0000
0000
,
1030
0100
0001
0100
1000
0000
0001
0000
0101
0000
0100
0000
0010
1000
0100
1000
,
0001
0010
0001
1000
0010
1000
0100
1000
0010
0100
0001
0010
0001
0000
1000
0000
,
1001
0000
0000
0000
;
