#TITLE:Saucemaster;
#SUBTITLE:;
#ARTIST:The 8-Bit Construction Set;
#TITLETRANSLIT:;
#SUBTITLETRANSLIT:;
#ARTISTTRANSLIT:;
#GENRE:;
#CREDIT:;
#BANNER:;
#BACKGROUND:;
#LYRICSPATH:;
#CDTITLE:;
#MUSIC:saucemaster.ogg;
#OFFSET:-0.032661;
#SAMPLESTART:14.136000;
#SAMPLELENGTH:17.621000;
#SELECTABLE:YES;
#BPMS:0.000000=448.000000
,4.000000=112.000000
,5.000000=112.363998
;
#STOPS:4.000000=5.022000,
6.000000=1.068000,
8.250000=0.534000,
11.000000=1.068000,
13.250000=0.534000,
157.000000=-4.271831,
173.000000=-6.407746,
193.000000=-6.407746,
229.000000=-6.407746,
249.000000=-6.407746
;
#BGCHANGES:;
#KEYSOUNDS:;
#ATTACKS:;

//---------------dance-single - ----------------
#NOTES:
     dance-single:
     :
     Hard:
     13:
     0.418646,0.673020,0.046150,0.176908,0.673020,381.000000,375.000000,6.000000,23.000000,31.000000,0.000000,0.418646,0.673020,0.046150,0.176908,0.673020,381.000000,375.000000,6.000000,23.000000,31.000000,0.000000:
0000
0000
0000
0000
,
0000
MMMM
0000
0000
0000
0000
0000
0000
0000
0000
0000
0000
0000
0000
0000
0000
0000
0000
0000
0000
0000
0000
0000
0000
0000
0000
0000
0000
0000
0000
0000
0000
0000
0000
0000
0000
0000
0000
0000
0000
0000
0000
0000
0000
0000
0000
0000
0000
1000
0000
0000
0000
0000
0000
0000
0000
0000
0000
0000
0000
0010
0000
0000
0000
0000
0000
0000
0000
0000
0000
0000
0000
1000
0000
0000
0000
0000
0000
0000
0000
0000
0000
0000
0000
0010
0000
0000
0000
0000
0000
0000
0000
0000
0000
0000
0000
0200
0000
0000
0000
0000
0000
0000
0000
0000
0000
0000
0000
0000
0000
0000
0000
0000
0000
0000
0000
0000
0000
0000
0000
0300
0000
0000
0000
0000
0000
0000
0000
0000
0000
0000
0000
1000
0000
0000
0000
0000
0000
0000
0000
0000
0000
0000
0000
0100
0000
0000
0000
0000
0000
0000
0000
0000
0000
0000
0000
0000
0000
0000
0000
0000
0000
0000
0000
0000
0000
0000
0000
0000
0000
0000
0000
0000
0000
0000
0000
0000
0000
0000
0000
0000
0000
0000
0000
0000
0000
0000
0000
0000
0000
0000
0000
,
0001
0100
0000
0000
0001
1000
0000
0000
0001
0010
0001
0010
0200
0000
0300
0001
,
0100
0000
0000
0000
1000
0100
0000
0000
1000
0001
1000
0001
1000
0000
0001
0100
,
1000
0000
0100
0000
0010
0000
0100
0001
0100
0000
0010
0000
1000
0001
0000
0000
,
1000
0100
0010
0001
0000
0000
0000
0000
0010
0100
0000
1000
0000
0010
0000
1000
,
0000
0100
0000
1000
0000
0001
0000
0000
0100
0010
0000
0000
1000
0001
0000
0000
,
0001
0010
0100
1000
0000
0000
0000
0000
0001
1000
0001
1000
0001
0000
1000
0100
,
0001
0000
0100
0000
0010
0000
0100
1000
0100
0000
0010
0000
0001
1000
0000
0000
,
0001
0100
0010
1000
0000
0000
0000
0000
0010
0100
0000
0001
0000
0010
0000
0001
,
0000
0100
0000
0001
0000
1000
0000
0000
0100
0010
0000
0000
0001
1000
0000
0000
,
1000
0010
0100
0001
4000
0000
0000
0000
0000
0000
3000
0000
1000
0010
1000
0010
,
0001
0000
0010
0100
0000
0000
0000
0000
0001
0000
0100
0000
0001
1000
0000
0000
,
1000
0100
0010
0001
0000
0000
0000
0000
0001
1000
0001
1000
0001
0010
0001
0010
,
1000
0000
0010
0100
0000
0000
0000
0000
1000
0000
0100
0000
1000
0001
0000
0000
,
0001
0100
0010
1000
0000
0000
0000
0000
0001
1000
0001
1000
0001
0000
0010
0000
,
1000
0000
0010
0000
0001
0000
0000
0010
0100
0000
1000
0000
0001
1000
0000
0000
,
0001
0100
0010
1000
0000
0000
0000
0000
0010
0100
0000
0001
0000
0010
0000
0001
,
0000
0100
0000
0001
0000
1000
0000
0000
0100
0010
0000
0000
0001
1000
0000
0000
,
1000
0010
0100
0001
0020
0000
0000
0000
0000
0000
0000
0000
0230
0000
0000
0000
,
2300
3020
0000
0032
,
0000
0000
0013
0000
1000
0001
0200
0000
,
0302
0023
0000
2030
,
0000
3020
0030
1100
,
1000
0100
0000
0001
0100
0000
0000
0000
0010
0001
0000
0000
0100
0000
0001
0000
,
0010
0000
0001
0000
0000
0000
0001
0000
1000
0002
0000
0000
0000
0000
0003
0000
,
0001
0100
0000
1000
0100
0000
0000
0000
0010
1000
0000
0000
0100
0000
1000
0000
,
0010
0000
1000
0000
0000
0000
0001
0000
1000
0100
0010
0002
0000
0000
0003
0000
,
0010
1000
0000
0010
0100
0000
0000
0000
1000
0001
0000
0000
0100
0000
1000
0000
,
0100
0000
0001
0000
0000
0000
0100
0000
0010
2000
0000
0000
0000
0000
3000
0000
,
0010
0001
0000
0010
0100
0000
0000
0000
0001
1000
0000
0000
0100
0000
0001
0000
,
0100
0000
1000
0000
0000
0000
0001
0000
1000
0010
0100
0001
0010
0000
0000
0000
,
0100
0001
0000
0100
0010
0000
0000
0000
0100
1000
0000
0000
0001
0000
0100
0000
,
0010
0000
0100
0000
0000
0000
1000
0000
0100
0002
0000
0000
0000
0000
0003
0000
,
0010
1000
0000
0010
0100
0000
0000
0000
0010
0001
0000
0000
1000
0000
0010
0000
,
0100
0000
0010
0000
0000
0000
0001
0000
0010
0100
0001
1000
0200
M000
0000
000M
,
0000
M000
0000
000M
0320
M000
0000
000M
0000
M000
0000
000M
0000
M000
0000
000M
,
0000
M000
0000
000M
0000
M000
0000
000M
0030
M000
0000
000M
0200
M000
0000
000M
,
0000
M000
0000
000M
0320
M000
0000
000M
0000
M000
0000
000M
0000
M000
0000
000M
,
0030
M000
0000
0000
F00F
0000
0000
0000
0000
0000
0000
0000
0000
0000
0000
0000
,
0000
0000
0000
0000
,
0000
2002
0000
3003
,
1000
0010
0000
0000
0100
0000
0000
0000
1000
0100
0000
0000
0001
0000
1000
0000
,
0000
1000
0000
0000
0000
0000
M000
0000
,
000M
00M0
0000
0000
0M00
0000
0000
0000
000M
0M00
0000
0000
M000
0000
0M00
0000
,
0000
0M00
M000
0M00
0000
0000
0000
0000
,
0000
0000
0000
1000
0000
0000
1000
0000
,
0001
0010
0000
0000
0100
0000
0000
0000
0001
0100
0000
0000
1000
0000
0100
0000
,
0000
0100
1000
0000
0000
0000
MM00
0000
,
M000
000M
0000
0M00
M000
0000
0000
0M00
00M0
0000
0000
0000
M000
0000
00M0
0000
,
000M
0000
00M0
0000
0000
0000
0M00
0000
000M
M000
0000
0000
0000
0000
0000
0000
,
0000
0000
1000
0100
0000
0000
1100
0000
,
1000
0001
0000
0100
1000
0000
0000
0000
0100
0010
0000
0000
1000
0000
0010
0000
,
0001
0000
0010
0000
0000
0000
0100
0000
0001
1000
0000
0000
1001
0000
0000
0000
,
1000
0100
0000
0001
0100
0000
0000
0000
0010
0001
0000
0000
1000
0000
0010
0000
,
0100
0000
0010
0000
0001
0000
0010
0000
1000
0010
0100
0001
1000
0000
0000
0000
,
0001
0010
0000
0000
0100
0000
0000
0000
0001
0100
0000
0000
1000
0000
0001
0000
,
0000
0001
0000
0000
0000
0000
000M
0000
,
M000
00M0
0000
0000
0M00
0000
0000
M000
0M00
0000
0000
0000
000M
0000
0M00
0000
,
0000
0M00
000M
0M00
0000
0000
0000
0000
,
0000
0000
0000
0001
0000
0000
0001
0000
,
1000
0010
0000
0000
0100
0000
0000
0000
1000
0100
0000
0000
0001
0000
0100
0000
,
0000
0100
0001
0000
0000
0000
0M0M
0000
,
000M
M000
0000
0M00
000M
0000
0000
0000
0M00
00M0
0000
0000
000M
0000
00M0
0000
,
M000
0000
00M0
0000
0000
0000
0M00
0000
M000
000M
0000
0000
0000
0000
0000
0000
,
0000
0000
0001
0100
0000
0000
0101
0000
,
0001
1000
0000
0100
0001
0000
0000
0000
0100
0010
0000
0000
0001
0000
0010
0000
,
1000
0000
0010
0000
0000
0000
0100
0000
1000
0001
0000
0000
1001
0000
0000
0000
,
0001
0100
0000
1000
0100
0000
0000
0000
0010
1000
0000
0000
0010
0100
0010
0100
,
0010
0100
0010
0100
0001
1000
0001
1000
0001
1000
0001
1000
0200
0000
0000
0000
,
0300
0000
0000
0000
;

//---------------dance-single - ----------------
#NOTES:
     dance-single:
     :
     Medium:
     10:
     0.365903,0.484142,0.253825,0.130758,0.246133,333.000000,300.000000,33.000000,17.000000,4.000000,0.000000,0.365903,0.484142,0.253825,0.130758,0.246133,333.000000,300.000000,33.000000,17.000000,4.000000,0.000000:
// measure 0
0000
0000
0000
0000
,  // measure 1
0000
MMMM
0000
0000
0000
0000
0000
0000
0000
0000
0000
0000
0000
0000
0000
0000
0000
0000
0000
0000
0000
0000
0000
0000
0000
0000
0000
0000
0000
0000
0000
0000
0000
0000
0000
0000
0000
0000
0000
0000
0000
0000
0000
0000
0000
0000
0000
0000
1000
0000
0000
0000
0000
0000
0000
0000
0000
0000
0000
0000
0000
0000
0000
0000
0000
0000
0000
0000
0000
0000
0000
0000
0010
0000
0000
0000
0000
0000
0000
0000
0000
0000
0000
0000
0000
0000
0000
0000
0000
0000
0000
0000
0000
0000
0000
0000
2000
0000
0000
0000
0000
0000
0000
0000
0000
0000
0000
0000
0000
0000
0000
0000
0000
0000
0000
0000
0000
0000
0000
0000
3000
0000
0000
0000
0000
0000
0000
0000
0000
0000
0000
0000
0000
0000
0000
0000
0000
0000
0000
0000
0000
0000
0000
0000
0001
0000
0000
0000
0000
0000
0000
0000
0000
0000
0000
0000
0000
0000
0000
0000
0000
0000
0000
0000
0000
0000
0000
0000
0000
0000
0000
0000
0000
0000
0000
0000
0000
0000
0000
0000
0000
0000
0000
0000
0000
0000
0000
0000
0000
0000
0000
0000
,  // measure 2
0100
0000
1001
0000
0001
0010
0002
0003
,  // measure 3
1000
0000
0100
0000
1000
0001
1000
0010
,  // measure 4
0001
0010
0100
0010
1000
0000
0101
0000
,  // measure 5
1000
0100
0010
0001
0000
0000
0000
0000
0001
0000
1000
0000
0010
0000
1000
0000
,  // measure 6
0100
0000
1000
0000
0010
0000
0000
0000
0100
0001
0000
0000
0101
0000
0000
0000
,  // measure 7
1000
0100
0010
0001
0000
0000
0000
0000
0001
0000
1000
0000
0001
0000
0010
0000
,  // measure 8
1000
0010
0100
0010
0001
0000
1100
0000
,  // measure 9
0001
0100
0010
1000
0000
0000
0000
0000
1000
0000
0001
0000
0010
0000
0001
0000
,  // measure 10
0100
0000
0001
0000
0010
0000
0000
0000
0100
1000
0000
0000
1100
0000
0000
0000
,  // measure 11
0001
0100
0010
1000
0002
0000
0000
0000
0000
0000
0000
0000
1003
0000
0010
0000
,  // measure 12
1000
0000
0010
0000
0000
0000
0000
0000
0101
0000
0000
0000
0001
1000
0000
0000
,  // measure 13
1000
0100
0010
0001
0000
0000
0000
0000
0001
0000
1000
0000
0001
0000
0010
0000
,  // measure 14
0001
0000
0010
0000
0000
0000
0000
0000
1100
0000
0000
0000
1000
0001
0000
0000
,  // measure 15
0001
0100
0010
1000
0000
0000
0000
0000
1000
0000
0001
0000
1000
0000
0010
0000
,  // measure 16
0001
0010
0100
0000
0001
1000
1100
0000
,  // measure 17
1000
0100
0010
0001
0000
0000
0000
0000
1000
0000
0001
0000
0010
0000
0001
0000
,  // measure 18
0100
0000
0001
0000
0010
0000
0000
0000
0100
1000
0000
0000
1100
0000
0000
0000
,  // measure 19
0001
0100
0010
1000
0020
0000
0000
0000
0000
0000
0000
0000
0230
0000
0000
0000
,  // measure 20
0302
0023
0000
1030
,  // measure 21
0000
0010
0000
0200
,  // measure 22
2300
3020
0000
0031
,  // measure 23
0000
0010
0000
0101
,  // measure 24
0001
1000
0000
0000
1100
0000
0000
0000
0010
0001
0000
0000
0100
0000
0001
0000
,  // measure 25
0010
0001
0000
1000
1100
0000
0000
0000
,  // measure 26
1000
0001
0000
0000
0101
0000
0000
0000
0010
1000
0000
0000
0100
0000
1000
0000
,  // measure 27
0010
0000
1000
0000
0000
0000
0001
0000
1000
0001
1000
0001
0010
0000
0000
0000
,  // measure 28
0100
0001
0000
0000
1100
0000
0000
0000
0001
0100
0000
0000
0010
0000
0001
0000
,  // measure 29
0010
1000
0000
0001
0101
0000
0000
0000
,  // measure 30
0100
1000
0000
0000
0101
0000
0000
0000
1000
0100
0000
0000
0010
0000
1000
0000
,  // measure 31
0010
0000
0001
0000
0000
0000
1000
0000
0001
1000
0001
1000
0010
0000
0000
0000
,  // measure 32
0100
0010
0000
0000
0101
0000
0000
0000
1000
0100
0000
0000
0010
0000
0100
0000
,  // measure 33
0010
1000
0000
0010
0011
0000
0000
0000
,  // measure 34
0100
0010
0000
0000
1100
0000
0000
0000
0001
0100
0000
0000
0010
0000
0100
0000
,  // measure 35
0010
0000
0001
0000
0000
0000
0010
0000
1000
0001
1000
0001
0020
0000
0000
0000
,  // measure 36
0000
0230
0000
0000
,  // measure 37
0000
0000
0300
0020
,  // measure 38
0000
0230
0000
0000
,  // measure 39
0300
1001
0000
0000
,  // measure 40
0000
0000
0000
0000
,  // measure 41
0000
2002
0000
3003
,  // measure 42
0000
1000
0000
0000
0010
0000
0000
0000
0000
1000
0000
0000
0100
0000
0010
0000
,  // measure 43
0000
0010
0000
0000
0000
0000
00MM
0000
,  // measure 44
0000
000M
0000
0000
0M00
0000
0000
0000
0000
00M0
0000
0000
M000
0000
0M00
0000
,  // measure 45
0000
0M00
M000
0M00
0000
0000
0000
0000
,  // measure 46
0000
0000
0000
0010
0000
0000
0011
0000
,  // measure 47
0000
0001
0000
0000
0100
0000
0000
0000
0000
0010
0000
0000
1000
0000
0100
0000
,  // measure 48
0000
0100
1000
0000
0000
0000
MM00
0000
,  // measure 49
M000
000M
0000
0000
0M0M
0000
0000
0000
00M0
M000
0000
0000
000M
0000
00M0
0000
,  // measure 50
M000
00M0
0000
0M00
MM00
0000
0000
0000
,  // measure 51
0000
0000
1000
0100
0000
0000
1100
0000
,  // measure 52
1000
0001
0000
0000
0101
0000
0000
0000
0010
1000
0000
0000
0001
0000
0010
0000
,  // measure 53
1000
0010
0000
0100
1100
0000
1001
0000
,  // measure 54
0001
0100
0000
0000
1010
0000
0000
0000
1000
0001
0000
0000
0010
0000
0001
0000
,  // measure 55
0010
0100
0010
1000
0010
0100
0011
0000
,  // measure 56
0000
0001
0000
0000
0010
0000
0000
0000
0000
0001
0000
0000
0100
0000
0010
0000
,  // measure 57
0000
0010
0000
0000
0000
0000
M0M0
0000
,  // measure 58
0000
M000
0000
0000
0M00
0000
0000
0000
0000
00M0
0000
0000
000M
0000
0M00
0000
,  // measure 59
0000
0M00
000M
0M00
0000
0000
0000
0000
,  // measure 60
0000
0000
0000
0010
0000
0000
1010
0000
,  // measure 61
0000
1000
0000
0000
0100
0000
0000
0000
0000
0010
0000
0000
0001
0000
0100
0000
,  // measure 62
0000
0100
0001
0000
0000
0000
0M0M
0000
,  // measure 63
000M
M000
0000
0000
MM00
0000
0000
0000
00M0
000M
0000
0000
M000
0000
00M0
0000
,  // measure 64
000M
00M0
0000
0M00
0M0M
0000
0000
0000
,  // measure 65
0000
0000
0001
0100
0000
0000
0101
0000
,  // measure 66
0001
1000
0000
0000
1100
0000
0000
0000
0010
0001
0000
0000
1000
0000
0010
0000
,  // measure 67
0001
0010
0000
0100
0101
0000
1001
0000
,  // measure 68
0001
0100
0000
0000
1010
0000
0000
0000
1000
0001
0000
0000
0010
0000
0100
0000
,  // measure 69
0010
0000
0100
0000
1000
0000
0001
0000
1000
0000
0001
0000
0200
0000
0000
0300
;
