#VERSION:0.83;
#TITLE:蛹 再;
#SUBTITLE:;
#ARTIST:あさき;
#TITLETRANSLIT:Sanagi sai;
#SUBTITLETRANSLIT:;
#ARTISTTRANSLIT:Asaki;
#GENRE:;
#CREDIT:;
#MUSIC:Sanagi sai.ogg;
#BANNER:Sanagi sai.png;
#BACKGROUND:;
#CDTITLE:;
#SAMPLESTART:53.783;
#SAMPLELENGTH:15.000;
#SELECTABLE:YES;
#OFFSET:0.592;
#BPMS:0.000=192.000;
#STOPS:;
#SPEEDS:0.000=1.000=0.000=0;
#SCROLLS:0.000=1.000;
#TICKCOUNTS:0.000=4;
#TIMESIGNATURES:0.000=4=4,
132.000=5=4,
162.000=4=4
;
#LABELS:0.000=Song Start;
#COMBOS:0.000=1;
#ORIGIN:;
#PREVIEWVID:;
#JACKET:Sanagi sai-jacket.png;
#CDIMAGE:;
#DISCIMAGE:Sanagi sai BNR TMP.png;
#BGCHANGES:;
#FGCHANGES:;

//--------------- dance-single - ----------------
#NOTEDATA:;
#STEPSTYPE:dance-single;
#DESCRIPTION:;
#DIFFICULTY:Beginner;
#METER:6;
#RADARVALUES:0.138075,0.544053,0,0.142436,0.106827,95,95,0,14,0,0,0,0,0,0.138075,0.544053,0,0.142436,0.106827,95,95,0,14,0,0,0,0,0;
#CHARTNAME:;
#CHARTSTYLE:;
#CREDIT:;
#NOTES:
0000
0000
0000
0000
,
0000
0000
0000
0000
,
0000
0000
0000
0000
,
0000
0000
0000
0000
,
0000
0000
0000
0000
,
0000
0000
0000
0000
,
0000
0000
0000
0000
,
0000
0000
0000
0000
,
0000
0000
0000
0000
,
1000
0000
0100
0000
,
0010
0010
0010
0000
,
0100
0000
1000
0000
,
0010
0010
0010
0000
,
0001
0000
0100
0000
,
0010
0010
0010
0000
,
0100
0000
0001
0000
,
0010
0010
0010
0000
,
0001
0000
1000
0000
,
0001
1000
0001
0000
,
1000
0000
0100
0000
,
0110
0000
0000
0000
,
0001
0000
1000
0000
,
0001
1000
0001
0000
,
0100
0000
0010
0000
,
0110
0000
0000
0000
,
2000
0000
0000
3000
,
0200
0000
0000
0300
,
0020
0000
0000
0030
,
0002
0000
0000
0003
,
1000
0000
0000
1000
0000
0000
0001
0000
,
0000
0001
0000
0000
1001
0000
0000
0000
,
0100
0000
0000
0100
0000
0000
0010
0000
,
0000
0010
0000
0000
0110
0000
0000
0000
,
1000
0100
1000
0000
,
0001
0010
0001
0000
,
0100
0010
0100
0000
,
0001
0010
0100
2000
,
0000
0000
0000
3000
,
0001
0010
0001
0000
,
1000
0010
1000
0000
,
0100
0010
0100
0000
,
1000
0010
1000
0000
,
0001
1000
1001
0000
,
0000
0000
0001
0001
,
0010
0000
0001
0001
,
0100
0000
0001
0001
,
0010
0000
0100
0000
,
0000
0000
1000
0100
,
1000
0000
0010
0100
,
0010
0000
1000
0000
,
1001
0000
0110
0000
,
1001
0000
1000
1000
,
0100
0000
1000
1000
,
0010
0000
1000
0100
,
0010
0000
0100
0010
,
0001
0000
1000
0000
,
0001
0000
0100
0100
,
0100
0000
0001
0010
,
0001
0010
0002
0000
,
0000
0003
0100
0000
,
0100
0000
0010
0000
,
0010
0000
1000
1000
,
0100
0010
0001
0001
,
1001
0000
0100
0100
,
0010
0010
0100
0000
,
0001
0000
0001
0010
,
0001
0100
0010
0010
,
0010
0000
1001
0000
,
0000
0000
0110
0000
,
0000
0000
0101
0000
,
0000
0000
1010
0000
,
0000
0000
2002
0000
,
0000
0000
0000
0000
,
0000
0000
0000
0000
,
0000
0000
0000
0000
,
0000
0000
0000
0000
,
0000
0000
3003
0000
;

//--------------- dance-single - ----------------
#NOTEDATA:;
#STEPSTYPE:dance-single;
#DESCRIPTION:;
#DIFFICULTY:Easy;
#METER:9;
#RADARVALUES:0,0,0,0,0;
#NOTES:
0000
0000
0000
0000
,
0000
0000
0000
0000
,
0000
0000
0000
0000
,
0000
0000
0000
0000
,
0000
0000
0000
0000
,
0000
0000
0000
0000
,
0000
0000
0000
0000
,
0000
0000
0000
0000
,
0000
0000
0000
0000
,
0001
0100
0010
1000
,
0001
0000
1000
0000
0001
1000
0001
0000
,
1000
0100
0010
0001
,
0100
0000
0010
0000
0010
0100
0010
0000
,
1000
0100
0010
0001
,
1000
0000
0001
0000
1000
0001
1000
0000
,
0010
0100
0001
1000
,
1001
1001
1001
0000
,
0001
0000
0001
0100
0000
0000
0010
1000
,
0000
1000
0000
0001
0100
0000
0110
0000
,
1000
0000
0000
0100
0000
0100
0010
0000
,
0001
0001
0000
1000
0000
1001
0000
0000
,
1000
0000
1000
0100
0000
0000
0010
0001
,
0000
0001
0000
1000
0100
0000
0110
0000
,
0001
0000
0000
0100
0000
0100
0010
0000
,
1000
1000
0000
0001
0000
1001
0000
1000
,
0001
0100
0100
0100
,
0110
1000
1000
1000
,
0110
0001
0001
0001
,
0110
1000
1000
1000
,
0001
0000
0001
0010
0000
0010
0001
0000
,
0001
0100
0000
0100
0020
0000
0030
0000
,
1100
0000
0000
1010
0000
0000
1001
0000
,
0001
0100
0010
0000
0020
0000
0000
0030
,
0000
1000
0100
1000
,
0100
0010
0001
0100
,
0010
0000
0100
0010
0100
0000
0001
0000
,
0010
1000
0010
0002
,
0000
2003
0000
3000
,
0001
0000
0100
0000
0010
1000
0010
0000
,
1000
0100
0010
0001
,
0001
1000
1000
0001
,
0100
1000
0100
0001
,
0010
0000
0100
0000
0110
0000
0000
1001
,
0000
0000
1000
0010
,
1000
0010
0000
0100
0001
0000
0100
0000
,
0001
0100
0000
0010
1000
0000
0010
0000
,
1000
0100
0000
0010
0001
0000
0000
0001
,
1000
1001
1000
0010
,
0100
0001
0100
0000
0010
0000
1000
0010
,
1000
0001
0010
0010
,
0100
0000
0100
0000
0110
0000
0000
1001
,
0000
0000
0110
0000
0001
0000
0001
0100
,
0000
1000
0000
0100
0001
0000
0001
0000
,
1000
1000
0100
0001
,
0100
0000
1000
0000
0010
0000
0010
0100
,
0000
0100
0000
0000
0001
0010
0000
0001
,
0000
0010
0100
0000
1000
0010
0000
1000
,
0000
0010
0100
0000
0001
0000
0001
0000
,
1000
1000
2002
0000
,
0000
3003
0002
0000
,
0103
0010
0000
1000
0000
0010
0000
0100
,
0001
0001
1000
0100
,
0001
0000
0100
0000
1000
1000
1000
0000
,
1000
0020
0000
0000
0130
0000
0100
0000
,
0010
0000
0010
0000
1000
0001
0000
1000
,
0001
0100
0010
0010
,
0100
0000
0100
0000
0001
0010
0100
0000
,
0010
0100
1000
0000
0001
0000
0100
0000
,
0001
0100
0010
1000
,
0010
0000
1000
0000
0001
1000
0001
0000
,
0000
0000
0110
0000
1000
0001
1000
0000
,
0000
0110
0001
1000
,
2002
0000
0000
0000
,
0000
0000
0000
0000
,
0000
0000
0000
0000
,
0000
0000
0000
0000
,
0000
0000
3003
0000
;

//--------------- dance-single - ----------------
#NOTEDATA:;
#STEPSTYPE:dance-single;
#DESCRIPTION:;
#DIFFICULTY:Medium;
#METER:13;
#RADARVALUES:0,0,0,0,0;
#NOTES:
0000
0000
0000
0000
,
0000
0000
0000
0000
,
0000
0000
0000
0000
,
0000
0000
0000
0000
,
0000
0000
0000
0000
,
0000
0000
0000
0000
,
0000
0000
0000
0000
,
0000
0000
0000
0000
,
0000
0000
0000
0000
,
0001
0010
0001
0010
0100
1000
0100
0010
,
0001
0010
0001
1000
0010
0100
0002
0000
,
1003
0010
1000
0010
0100
0010
1000
0001
,
0100
0010
1000
0100
0100
0010
0002
0000
,
1003
0010
1000
0010
0100
0001
0100
0010
,
1000
0010
1000
0001
0010
0100
2000
0000
,
3001
0100
0001
0100
0010
1000
0100
0010
,
0001
0001
0001
0001
0002
0000
0003
0000
,
1000
0010
1000
0010
0100
0001
0100
1000
,
0100
0001
0000
0001
0010
1000
0010
0001
,
1000
0100
1000
0100
0010
0001
0010
0001
,
0100
0100
0000
0110
0000
1001
0000
1000
,
0001
0010
0001
0010
0100
1000
0100
0001
,
0100
1000
0000
1000
0010
0001
0010
1000
,
0001
0100
0001
0100
0010
1000
0010
1000
,
0100
0100
0000
0110
0000
1001
0000
1000
,
0010
0010
0100
0010
0000
1001
0000
0001
,
0010
0010
0100
0010
0000
1001
0000
1000
,
0100
0100
0010
0100
0000
1001
0000
0001
,
0100
0100
0010
0100
0000
1001
0000
0001
,
0100
1000
0100
0010
0001
0010
0100
1000
,
0100
0010
0001
0010
1000
0010
2000
0000
,
3100
0010
0001
0100
0001
0010
0100
1000
,
0010
0000
0100
0000
0002
0000
0000
0000
1003
0000
0000
1000
0000
0000
1001
0000
,
0000
0001
0010
0001
0010
0100
0010
0001
,
0100
0010
0001
0010
1000
0010
1000
0010
,
0100
1000
0100
0001
0010
0100
0010
0100
,
0010
0000
0000
1000
0000
0000
0010
0000
0000
0001
0000
0000
2000
0000
0000
0000
0000
0000
3001
0000
0100
0000
0001
0000
,
0100
0000
0010
1000
0010
1000
0010
0000
0010
2000
0000
0000
,
3100
0010
0001
0010
0001
0010
1000
0001
,
0100
1000
0100
1000
0010
0100
0010
0001
,
0010
1000
0100
0010
0001
0100
0010
1000
,
0010
0100
0001
1000
0100
0010
0100
0010
,
0001
0000
0100
0000
0020
0000
0000
0000
0130
0000
0000
0010
0000
0000
2002
0000
,
0000
0000
3003
0000
1000
0100
1000
0100
,
1000
0010
0001
1000
0100
0001
0100
0001
,
0010
1000
0001
0100
1000
0100
1000
0100
,
0010
0001
0000
0001
2001
0000
3010
0100
,
0020
0000
1030
0001
1000
0100
1000
0100
,
0010
0001
0010
0001
0100
1000
0100
0001
,
2000
0000
3100
0010
0011
0000
0101
0000
,
1010
0000
1100
0000
1000
0010
0100
0020
,
0000
0130
0100
0001
2000
0000
3100
0010
,
0100
0010
0001
0100
0001
0010
0001
0010
,
1000
0010
0001
1000
0100
1000
0100
1000
,
0010
1000
0010
0001
1000
0100
0001
2000
,
0000
3002
0000
0013
0100
0100
0000
0110
,
0000
1001
0000
1000
0010
0100
0002
2003
,
3002
0000
0013
0100
1000
0000
1100
0000
,
0011
0000
0000
1001
0000
0000
0001
0100
0001
0100
0001
0000
,
1000
0000
0100
0000
1000
0000
0100
0000
1000
0000
0000
0000
0020
0000
0000
0000
0000
0000
0130
0000
0000
0100
0000
0000
,
0010
1000
0000
1010
0000
0101
0000
0001
,
0100
0010
1000
0100
0010
1000
0001
0100
,
0010
0001
1000
0010
0100
1000
0001
0010
,
0100
0002
0000
0000
0013
0100
0010
0100
,
1000
0001
1000
0001
0100
0010
1000
0010
,
0100
0001
1000
0100
0010
0001
0010
0001
,
1000
0010
1000
0010
0100
1000
0001
0010
,
0100
0001
2000
0000
3001
0010
0001
0010
,
0100
1000
0001
0001
1000
0010
1000
0010
,
0100
0000
0001
0000
1000
0000
0000
0000
0100
0000
0010
0100
0010
0000
0000
0000
,
0000
0000
0001
0000
1000
0000
0000
0000
0010
0000
0100
0010
0100
0000
0000
0000
,
0000
0000
0001
0000
1000
0000
0000
0000
0100
1000
0100
0000
0000
0010
0000
0002
,
0000
0000
0000
0000
,
0000
0000
0000
0000
,
0000
0000
0000
0000
,
0000
0000
0000
0000
,
0000
0000
0003
0000
;

//--------------- dance-single - ----------------
#NOTEDATA:;
#STEPSTYPE:dance-single;
#DESCRIPTION:;
#DIFFICULTY:Hard;
#METER:16;
#RADARVALUES:0,0,0,0,0;
#NOTES:
0000
0000
0000
0000
,
0000
0000
0000
0000
,
0000
0000
0000
0000
,
0000
0000
0000
0000
,
0000
0000
0000
0000
,
0000
0000
0000
0000
,
0000
0000
0000
0000
,
0000
0000
0000
0000
,
0000
0000
0000
0000
,
0001
0100
0001
0100
0010
1000
0001
0100
,
0001
0010
0001
1000
0010
1000
0200
0000
,
0310
0001
0010
0001
1000
0100
1000
0010
,
0100
0000
0010
0000
1000
0000
0100
0000
0010
0100
0010
0000
0002
0000
0000
0000
,
1003
0100
1000
0100
0010
0001
1000
0100
,
1000
0010
1000
0001
0010
0001
0200
0000
,
0310
1000
0010
1000
0001
0100
0010
1000
,
0001
1000
0001
1000
0001
1000
0001
1000
0001
0000
0000
0000
0000
0000
0000
0000
,
1000
0000
0100
0000
1000
0000
0010
0000
0100
0000
0010
0000
1000
0100
1000
0000
,
0010
0000
0100
0000
0000
0000
0100
0000
0010
1000
0100
0000
0010
0001
0100
0000
,
0010
1000
0010
1000
0000
1000
0100
0010
,
0001
0000
0101
0000
0000
0000
1100
0000
0000
0000
0001
0100
0010
0000
1000
0000
,
0001
0000
0100
0000
0001
0000
0010
0000
0100
0000
0010
0000
0001
0100
0001
0000
,
0010
0000
0100
0000
0000
0000
0100
0000
0010
0001
0100
0000
0010
1000
0100
0000
,
0010
0001
0010
0001
0000
0001
0100
0010
,
1000
0000
0000
1100
0000
0000
0000
0000
0000
0101
0000
0000
0000
0000
0000
1000
0000
0000
0100
0000
0010
0000
0100
0000
,
0020
0000
0000
0000
,
0000
0000
0031
0100
0001
0200
0000
0310
,
0010
1000
0200
0000
0000
0000
0000
0000
0000
0000
0000
0000
0000
0000
0310
0100
,
0010
0100
0010
0002
0000
0103
0010
1000
,
0001
0000
0100
0010
0100
0000
0001
0000
0010
0100
0010
0000
0001
0000
0100
0010
,
0100
0000
0001
0000
0010
0000
0100
0000
1000
0010
0100
0001
2000
0000
0000
0000
,
3001
0100
0001
0100
0010
0000
1000
0100
1000
0100
0010
0000
0001
0100
0010
1000
,
0001
0000
0100
0000
0020
0000
0000
0000
0130
0000
0000
0110
0000
0000
0110
0000
,
0000
0000
1000
0000
0100
0000
1000
0000
0100
0000
0010
0000
0001
0000
0100
0010
,
1000
0010
2000
3002
0203
2300
3200
0320
,
2030
3002
0023
2030
3020
0032
1003
0010
,
0100
0000
0000
0000
0000
0000
0001
0000
0000
0100
0000
0000
0010
0000
0000
0000
0000
0000
1000
0000
0000
0000
0000
0000
0200
0000
0000
0000
0000
0000
0000
0000
0000
0000
0000
0000
0310
0000
0000
0000
0001
0000
0000
0000
0100
0000
0000
0000
,
0010
0000
0000
0000
1000
0000
0000
0000
0100
0000
0000
0000
0010
0000
0000
0000
0001
0000
0000
0000
0100
0000
0000
0000
0010
0000
0000
0000
1000
0000
0000
0000
0100
0000
0000
0000
0010
0000
0000
0100
0000
0000
0010
0000
0000
0100
0000
0000
,
0000
0000
0010
0000
0001
0000
0010
0000
0002
0000
0203
0000
0302
0000
1003
0100
,
1000
0010
0100
0010
1000
0100
1000
0001
,
0100
0000
0010
0000
1000
0001
0100
0001
1000
0000
0200
0000
0320
0000
0032
0000
,
0203
0000
0320
0000
2030
0000
3200
0000
0310
0000
0001
0100
0010
0000
0100
0010
,
1000
0000
0001
0000
0200
0000
0000
0000
0310
0000
0000
0110
0000
0000
2002
0000
,
0000
0000
0000
0000
3003
0000
0000
0000
1000
0000
0100
0000
0010
0001
0010
0000
,
0100
0000
1000
0000
0001
0010
0001
0000
0100
0000
0010
0000
1000
0010
1000
0000
,
0001
0000
0100
0000
0010
1000
0010
0000
0100
0000
0001
0000
1000
0100
0010
0000
,
0100
0000
1000
0000
0001
0100
0010
0000
0110
0000
1000
0000
0001
0000
1000
0000
,
1001
0000
0001
0100
0010
1000
0010
1000
,
0100
0100
1000
0100
0010
0001
0200
0320
,
0230
0000
0310
1000
1100
0000
0101
0000
,
1100
0000
0000
0000
1001
0000
0000
0000
1000
0100
1000
0100
1000
0000
0001
0100
,
0001
0100
0001
0000
1000
0001
1000
0001
2000
0000
0000
0000
3010
0100
0001
0000
,
0100
0000
0010
0000
1000
0001
0010
0000
0100
0000
1000
0000
0001
0100
0010
0000
,
1000
0000
0100
0000
1000
0010
0100
0000
0001
0000
0100
0000
0001
1000
0100
0000
,
0010
0000
0100
0000
1000
0001
0100
0000
0010
0000
0010
0000
0100
0000
0020
0000
,
0000
0000
0230
0000
0000
0000
0301
0000
1000
0000
0100
0000
1000
0100
1000
0000
,
0100
0000
0010
0000
0001
0010
0001
0000
0100
0000
0100
0000
0020
0000
2030
0000
,
3002
0000
0013
0100
0110
0000
1001
0000
,
0110
0000
0000
1001
0000
0000
0001
0100
0001
0100
0001
0100
,
1000
0000
0000
0000
0100
0000
0000
0000
1000
0000
0000
0000
0100
0000
0000
0000
1000
0000
0000
0000
0100
0000
0000
0000
0002
0000
0000
0000
0000
0000
0000
0000
0000
0000
0000
0000
1003
0000
0000
0100
0000
0000
0010
0000
0000
0000
0000
0000
,
0010
0100
0000
0110
0000
1001
0000
0001
,
0100
0000
0000
0010
0000
0000
1000
0000
0000
0001
0000
0000
0100
0000
0010
0000
0100
0000
0010
0000
1000
0000
0010
0000
,
1000
0100
1000
0100
0010
0100
0010
0001
0100
0010
1000
0100
,
0010
0000
2002
0000
0000
0000
3003
0000
1000
0000
1000
0010
0100
0000
0100
0010
,
1000
0000
1000
0100
0010
0000
0010
0100
2000
0000
3020
0000
0230
0000
0302
0000
,
0203
0000
0320
0000
2030
0000
3001
0000
0010
0001
0010
0100
1000
0000
0010
0000
,
0100
0001
0100
0010
1000
0000
0001
0000
0010
0001
0010
0001
0100
0001
0100
0010
,
1000
0001
1000
0001
1000
0000
0000
0000
0001
0000
0100
0000
1000
0100
1000
0000
,
0100
0000
0001
0000
0100
0001
0100
0000
0001
0000
0010
0000
0001
0010
0001
0000
,
0010
0000
0100
0000
2000
0000
0000
0000
3001
0100
0010
1000
0001
0000
0000
0000
,
0000
0000
1000
0001
1000
0000
0000
0000
1000
0100
0010
0001
1000
0000
0000
0000
,
0000
0000
0001
1000
0001
0000
0000
0000
0001
0100
0010
0000
0000
1000
0000
0002
,
0000
0000
0000
0000
,
0000
0000
0000
0000
,
0000
0000
0000
0000
,
0000
0000
0000
0000
,
0000
0000
0003
0000
;
