#VERSION:0.83;
#TITLE:Sadistic.Music∞Factory;
#SUBTITLE:(Remake The second phase);
#ARTIST:cosMo@暴走P;
#TITLETRANSLIT:;
#SUBTITLETRANSLIT:;
#ARTISTTRANSLIT:cosMo@BousouP;
#GENRE:;
#ORIGIN:;
#CREDIT:;
#BANNER:Sadistic Music Factory (Remake The second phase).png;
#BACKGROUND:Sadistic Music Factory (Remake The second phase)-bg.png;
#PREVIEWVID:;
#JACKET:Sadistic Music Factory (Remake The second phase)-jacket.png;
#CDIMAGE:;
#DISCIMAGE:;
#LYRICSPATH:;
#CDTITLE:;
#MUSIC:Sadistic Music Factory (Remake The second phase).ogg;
#OFFSET:0.000000;
#SAMPLESTART:110.545456;
#SAMPLELENGTH:23.272720;
#SELECTABLE:YES;
#BPMS:0.000=165.000;
#STOPS:;
#DELAYS:;
#WARPS:;
#TIMESIGNATURES:0.000=4=4;
#TICKCOUNTS:0.000=4;
#COMBOS:0.000=1;
#SPEEDS:0.000=1.000=0.000=0;
#SCROLLS:0.000=1.000,
300.000=0.500,
304.000=1.000,
385.000=0.500;
#FAKES:;
#LABELS:0.000=Song Start;
#BGCHANGES:8.000=Sadistic Music Factory (Remake The second phase).avi=1.000=1=0=0=StretchNoLoop==CrossFade==,
99999=-nosongbg-=1.000=0=0=0 // don't automatically add -songbackground-
;
#KEYSOUNDS:;
#ATTACKS:
;

//---------------dance-single - ----------------
#NOTEDATA:;
#CHARTNAME:;
#STEPSTYPE:dance-single;
#DESCRIPTION:;
#CHARTSTYLE:;
#DIFFICULTY:Challenge;
#METER:19;
#RADARVALUES:0.995232,1.364666,0.075057,0.225170,1.586424,1021.000000,1010.000000,11.000000,33.000000,17.000000,0.000000,9.000000,0.000000,0.000000,0.995232,1.364666,0.075057,0.225170,1.586424,1021.000000,1010.000000,11.000000,33.000000,17.000000,0.000000,9.000000,0.000000,0.000000;
#CREDIT:Kekkle;
#NOTES:
0000
0000
0000
0000
,
0000
0000
0000
0000
,
0000
0000
0000
0000
,
0000
0000
0000
0000
,
0000
0000
0000
0000
,
0000
0000
0000
0000
,
0001
0100
0010
1000
0001
0010
0100
1000
,
0001
0100
0010
1000
0001
1000
0100
0010
0001
1000
0001
0100
0010
1000
0001
1000
,
0400
0000
0000
0000
,
0300
0000
0000
0000
,
1000
0000
0000
0001
0000
0000
1000
0000
0000
0100
0000
0000
0000
0000
0000
M100
0000
0000
0001
0000
0000
1000
0000
0000
0100
0000
0010
0000
0001
0000
1000
0000
0000
0010
0000
0000
0100
0000
0000
0001
0000
0000
1000
0000
0000
0001
0000
0000
,
0040
0130
1000
0040
0130
0001
0040
0130
1000
0020
0000
0000
0000
0130
0000
0000
,
1001
1000
0100
0001
0200
0000
0310
0001
,
1000
0000
0010
0100
0000
0001
0100
0000
0010
0000
0001
0010
0000
1000
0010
0000
,
1000
0001
0010
1000
0020
0000
0130
1000
,
0001
0000
0100
0010
0000
1000
0010
0000
0100
0000
1000
0100
0000
0001
0100
0010
,
1000
0001
0010
1000
0020
0000
0130
1000
,
0001
0000
0100
0010
0000
1000
0001
0000
0010
0000
1000
0010
0000
0001
0010
0000
,
0001
0000
1000
0000
0010
0000
0001
0000
0010
0000
0100
0000
0001
1000
0100
0010
,
0002
0000
0000
0000
0000
0000
0000
0000
1000
0000
0000
1000
0000
0000
1003
0000
,
0001
0100
0010
0000
1000
0001
0010
0100
0010
0001
0000
1000
0010
0100
0001
1000
,
0100
0000
0001
0100
0000
1000
0001
0100
0010
1000
0200
0000
0000
0000
0310
0001
,
1000
0000
1000
0000
1000
0000
1000
0000
1000
0000
0010
0000
0100
0001
1000
0000
,
1000
0000
0100
0010
0001
0010
1000
0010
0100
1000
0001
0000
1000
0100
0010
0001
,
1000
0010
0000
M010
0001
0100
0000
010M
2000
0000
3010
0000
0100
0001
1000
0000
,
0100
0000
0010
0001
0100
0000
0001
0000
0010
0001
0100
0000
0001
0000
1000
0000
,
0100
0010
0001
1000
0010
0100
0001
1000
0100
0010
1000
0000
10M0
0100
0000
M100
,
0001
1000
0200
0000
1300
0001
0200
0000
0310
1000
0001
0010
0100
1000
0001
0100
,
1000
0000
0100
0000
0001
0100
0000
0010
1000
0001
0010
0100
1000
0100
0001
0100
,
0010
0001
1000
0010
0100
0001
1000
0100
0010
0001
1000
0010
0100
0001
0010
0100
,
0001
0000
0100
1000
0001
0100
0010
1000
0010
0100
0001
1000
0000
0100
0010
1000
,
0010
0000
0001
1000
0010
0100
0001
0010
0100
0010
0001
1000
0000
0001
0100
0100
,
1000
0000
0001
0100
0010
1000
0100
0010
0001
1000
0010
0100
1000
0000
0100
0001
,
1000
0000
1000
0000
0100
0010
0001
0000
1000
0010
0100
0001
1000
0100
0010
0100
,
0001
0000
0100
1000
0000
0001
0200
0000
0000
0000
0310
0000
1000
0001
0010
0000
,
0100
1000
0001
0100
0010
1000
0010
0100
0001
0010
0100
0001
0100
0010
2000
0000
,
0000
3010
0100
1000
0002
0100
1003
0001
,
0010
0000
0100
1000
0000
0001
0100
0000
0010
0000
0001
0010
0000
1000
0010
0100
,
0001
1000
0200
0000
1300
0001
0200
0000
,
0301
0000
0010
0001
0000
1000
0010
0000
0100
0000
1000
0100
0000
0001
0100
0010
,
1000
0001
0010
0100
2000
0010
3001
1000
,
0010
0000
0100
0001
0000
1000
0100
0000
0010
0000
1000
0010
0000
0001
0010
0100
,
1000
0001
0200
0000
0301
1000
0200
0000
,
1300
0000
0010
1000
0000
0001
0010
0000
0100
0000
0001
0100
0000
1000
0100
0010
,
0001
1000
0010
0000
0100
0001
1000
0000
1000
0000
0100
0010
0001
0100
0010
0000
,
1000
0000
0010
0100
0001
0000
1000
0001
0010
0100
0000
1000
0010
0100
0001
0000
,
1000
0100
0100
0001
1000
0000
1000
0010
0010
0001
1000
0000
0001
0100
0100
1000
,
0001
0000
0000
0000
0000
0000
0001
0000
0000
0010
0000
0000
0010
0000
0000
1000
0000
0000
0001
0000
0000
0000
0000
0000
1000
0000
0100
0000
0010
0000
0001
0000
0000
1000
0000
0000
0010
0000
0000
0100
0000
0000
0001
0000
1000
0000
0100
0000
,
0010
0000
0000
0001
0000
0000
0100
0000
0000
0001
0000
0000
0010
0000
0000
0001
0000
0000
0100
0000
0000
0001
0000
0000
1000
0000
0000
0001
0000
0000
0010
0000
0000
0100
0000
0000
0001
0000
0000
0100
0000
0000
1000
0000
0001
0000
0100
0000
,
0010
1000
0100
1000
0010
1000
0100
1000
0001
1000
0010
0100
1000
0100
0001
1000
,
0100
0000
0010
0000
0001
0000
1000
0000
0000
0001
0000
0000
0100
0000
0010
0000
1000
0000
0001
0000
0000
1000
0000
0000
0001
0000
0010
0000
0100
0000
1000
0000
0000
0001
0000
0000
1000
0000
0010
0000
0100
0000
0001
0000
0000
1000
0000
0000
,
0200
0000
0310
2000
0000
3010
0001
1000
0020
0000
0130
2000
0000
3100
0001
0100
,
0010
1000
0001
0020
0000
0130
1000
0001
,
0100
0010
1000
0100
0010
0001
1001
0000
,
1000
0000
0001
0000
0010
0000
0200
0000
0000
0000
1300
0000
0001
0100
0000
0010
,
1000
0001
0010
0100
0010
0001
1001
0000
,
1000
0010
0100
0010
1000
0100
0010
0100
0001
0100
0010
0001
1000
0010
0100
0000
,
0001
0100
0010
0100
0001
0010
0100
1000
0010
0100
0010
1000
0100
0010
0001
1000
,
0010
0100
0001
0100
1000
0100
0010
1000
0001
0010
0100
1000
0001
0100
0010
0100
,
0001
0000
1000
0000
0100
0000
0010
0000
0000
0001
0000
0000
0010
0000
0000
0001
0000
0000
0010
0000
0000
0001
0000
0000
1000
0000
0000
0010
0000
0000
0100
0000
0000
0010
0000
0000
0001
0000
0000
0010
0000
0000
0100
0000
0000
0000
0000
0000
,
0101
0000
0001
0010
0000
001M
1000
0100
1100
0000
1000
0010
0000
M010
0001
0100
,
0101
0000
0001
0100
0000
010M
1000
0010
1010
0000
1000
0100
0000
M100
0001
0010
,
0100
0000
0000
1000
0000
0000
0001
0000
0000
0100
0000
0000
0010
0000
0000
1000
0000
0000
0100
0000
0000
0010
0000
0000
0001
0000
1000
0000
0010
0000
0100
0000
0000
0001
0000
0000
1000
0000
0001
0000
0010
0000
0100
0000
1000
0000
0001
0000
,
0400
0000
0000
0000
0000
0000
0310
0000
0000
4000
0000
0000
0000
0000
0000
3001
0000
0000
0040
0000
0000
0000
0000
0000
0130
0000
1000
0000
0001
0000
0100
0000
0000
0001
0000
0000
0010
0000
0100
0000
1000
0000
0001
0000
0100
0000
0001
0000
,
0020
0000
0000
0000
,
0000
0000
0000
0000
,
0030
0000
0000
0000
,
0000
0000
0000
0000
,
0001
0010
0100
1000
0010
1000
0000
0000
0000
0000
0000
0000
0000
0000
0000
0000
,
0000
0000
0000
0000
,
0001
1000
0010
1000
0100
0010
0000
0000
0000
0000
0000
0000
0000
0000
0000
0000
,
0100
0010
0100
1000
0010
0100
0000
0000
0000
0000
0000
0000
0000
0000
0000
0000
,
0001
0100
0010
1000
0100
1000
0000
0000
0001
0000
0000
0000
0100
0000
0010
0100
,
0010
1000
0100
0010
0001
0000
1000
0010
0100
0000
0001
0010
0100
0000
0010
0001
,
1000
0100
0010
0001
0100
0001
0010
0100
1000
0001
0100
0001
0010
0100
1000
0020
,
0000
0000
0000
0000
,
0130
0001
1000
0100
0010
0001
1000
0010
0100
1000
0001
0010
,
1000
0001
0010
0100
1000
0010
0100
0010
0001
0010
1000
0100
,
0010
0001
1000
0000
0001
0000
0010
0000
001M
0000
1000
0000
0001
0000
0010
0000
0100
0000
1000
0000
0001
0000
0100
0000
,
1000
0100
0010
0000
1000
0000
0001
0000
0010
0000
0100
0000
0010
0001
1000
0000
0010
0000
0001
0000
0010
0000
0100
0000
,
0001
1000
0100
0000
0010
0000
0001
0000
1000
0000
0010
0000
0100
0000
0001
0000
0010
0000
2000
0000
0000
0000
0000
0000
,
3010
0100
1000
0100
0010
0001
0100
010M
1000
0001
0100
0010
,
1000
0001
0010
0000
001M
0000
1000
0000
0100
0000
M100
0000
0001
0000
1000
0000
0100
0000
0020
0000
0000
0000
0130
0000
,
0001
0100
0010
0000
0001
0000
1000
0000
0010
0000
0100
0000
0010
0000
0001
0000
0010
0000
1000
0000
0001
0000
0010
0000
,
0100
0000
1000
0000
0001
0000
0100
0000
0000
0010
0000
0000
1000
0000
0000
0001
0000
0000
0010
0000
0000
0100
0000
0000
1000
0000
0000
0001
0000
0000
0100
0000
0000
2000
0000
0000
0000
0000
0000
3100
0000
0000
0010
0000
0000
1000
0000
0000
,
0001
0000
0000
0010
0000
0000
0100
0000
0000
0010
0000
0000
0001
0000
0000
1000
0000
0000
0010
0000
0000
0100
0000
0000
0001
0000
0000
0100
0000
0000
0010
0000
0000
1000
0000
0000
0010
0000
0100
0000
0001
0000
0010
0000
0100
0000
1000
0000
,
0020
0000
0130
0000
0001
1000
0000
0010
0100
0001
1000
0100
0001
0100
0010
0001
,
1000
0000
0000
0001
0000
0000
0100
0000
0000
0100
0000
0000
1000
0000
0000
0001
0000
0000
0010
0000
0000
0010
0000
0000
1000
0000
0000
0001
0000
0000
0010
0000
0000
0100
0000
0000
1000
0000
0000
0010
0000
0000
0100
0000
0001
0000
1000
0000
,
0100
0000
1000
0010
0000
M010
0001
0100
0101
0000
0001
0010
0000
001M
1000
0100
,
1100
0000
1000
0100
0000
M100
0001
0010
0011
0000
0001
0100
0000
010M
1000
0010
,
0001
0000
0000
0010
0000
0000
0100
0000
0000
0001
0000
0000
1000
0000
0000
0001
0000
0000
0010
0000
0000
0100
0000
0000
0001
0000
0000
0100
0000
0000
0010
0000
0000
0001
0000
0000
1000
0000
0000
0010
0000
0000
0100
0000
0010
0000
1000
0000
,
0001
0000
1000
0000
0100
0000
0010
0000
0000
0001
0000
0000
1000
0000
0010
0000
0100
0000
0001
0000
0000
1000
0000
0000
0001
0000
0010
0000
0100
0000
1000
0000
0001
0000
1000
0000
0010
0000
0100
0000
0001
0000
1000
0000
0001
0000
0010
0000
,
0200
0000
0000
0000
1300
0000
0001
0000
0100
0010
0000
1000
0001
0000
0010
0100
,
1000
0000
0001
1000
0100
0100
0010
1000
0000
1000
0100
0000
0010
0001
1000
0000
,
0001
0000
0100
0000
0010
0000
1000
0000
0000
0002
0000
0000
0000
0000
0000
0013
0000
0000
0100
0000
0000
1000
0000
0000
0001
0000
0100
0000
0010
0000
1000
0000
0001
0000
0010
0000
0400
0000
0000
0000
0000
0000
4300
0000
0000
0000
0000
0000
,
3001
0100
0010
1000
0001
1000
0100
0010
0001
0010
0100
1000
0001
1000
0010
0100
0001
0100
0010
1000
0001
1000
0100
0010
,
0000
2002
0000
0000
,
0000
0000
0000
0000
,
0000
0000
0000
0000
,
0000
0000
0000
0000
,
3003
0000
0000
0000
;

//---------------dance-double - ----------------
#NOTEDATA:;
#CHARTNAME:;
#STEPSTYPE:dance-double;
#DESCRIPTION:;
#CHARTSTYLE:;
#DIFFICULTY:Challenge;
#METER:19;
#RADARVALUES:0.986459,1.296433,0.027293,0.245640,1.583013,1012.000000,1008.000000,4.000000,36.000000,9.000000,0.000000,9.000000,0.000000,0.000000,0.986459,1.296433,0.027293,0.245640,1.583013,1012.000000,1008.000000,4.000000,36.000000,9.000000,0.000000,9.000000,0.000000,0.000000;
#CREDIT:Kekkle;
#NOTES:
00000000
00000000
00000000
00000000
,
00000000
00000000
00000000
00000000
,
00000000
00000000
00000000
00000000
,
00000000
00000000
00000000
00000000
,
00000000
00000000
00000000
00000000
,
00000000
00000000
00000000
00000000
,
10000000
01000000
00100000
00010000
00001000
00000100
00000010
00000001
,
00001000
00000001
00000100
00000010
00001000
00000010
00010000
00001000
00100000
00010000
00100000
01000000
10000000
00010000
01000000
00100000
,
40000000
00000000
00000000
00000000
,
30000000
00000000
00000000
00000000
,
00010000
00000000
00000000
10000000
00000000
00000000
00010000
00000000
00000000
01000000
00000000
00000000
00000000
00000000
00000000
010M0000
00000000
00000000
10000000
00000000
00000000
00010000
00000000
00000000
00100000
00000000
00001000
00000000
00010000
00000000
00001000
00000000
00000000
00010000
00000000
00000000
00000010
00000000
00000000
00000100
00000000
00000000
00000001
00000000
00000000
00001000
00000000
00000000
,
00000400
00000310
00000001
00000400
00000310
00001000
00000400
00000310
00000001
00000200
00000000
00000000
00000000
00000310
00000000
00000000
,
00001001
00001000
00000010
00000001
00000020
00000000
00000130
00000001
,
00001000
00000000
00000100
00000010
00000000
00001000
00010000
00000000
00001000
00000000
00010000
00100000
00000000
10000000
00100000
00000000
,
10000000
00010000
00100000
10000000
00200000
00000000
01300000
10000000
,
00010000
00000000
01000000
00100000
00000000
00010000
00001000
00000000
00010000
00000000
00001000
00000010
00000000
00000001
00000010
00000100
,
00001000
00000001
00000100
00001000
00000200
00000000
00000310
00001000
,
00000001
00000000
00000010
00001000
00000000
00010000
00001000
00000000
00010000
00000000
00100000
00010000
00000000
00100000
01000000
00000000
,
00010000
00000000
10000000
00000000
01000000
00000000
00010000
00000000
01000000
00000000
00100000
00000000
00001000
00010000
00000010
00000100
,
00000002
00000000
00000000
00000000
00000000
00000000
00000000
00000000
00001000
00000000
00000000
00001000
00000000
00000000
00001003
00000000
,
00000001
00000100
00000010
00000000
00001000
00000001
00000010
00000100
00010000
00000100
00000000
00010000
00001000
01000000
00100000
01000000
,
10000000
00000000
01000000
00010000
00000000
10000000
01000000
00100000
00010000
10000000
00200000
00000000
01000000
00000000
10300000
00010000
,
00100000
00000000
00100000
00000000
00100000
00000000
00100000
00000000
01000000
00000000
00010000
00000000
00001000
00100000
00010000
00000000
,
00100000
00000000
00001000
00010000
00000010
00000100
00001000
00000100
00000001
00001000
00000100
00000000
00000010
00000001
00001000
00000010
,
00000100
00001000
00000000
00001M00
00000010
00010000
00000000
000100M0
00200000
00000000
01300000
00000000
10000000
00000000
00010000
00000000
,
01000000
00000000
00100000
00010000
00001000
00000000
00100000
00000000
00001000
00010000
01000000
00000000
00010000
00000000
00001000
00000000
,
00000010
00000001
00001000
00000010
00000100
00000001
00001000
00000100
00000010
00001000
00010000
00000000
0001M000
00100000
00000000
001M0000
,
10000000
00010000
00200000
00000000
00310000
10000000
00200000
00000000
10300000
00010000
00100000
01000000
00100000
00001000
00010000
00001000
,
00000100
00000000
00000001
00000000
00001000
00000100
00000000
00000010
00000001
00001000
00000010
00000100
00000001
00000100
00000010
00000001
,
00000010
00001000
00000001
00000010
00000100
00010000
00001000
00100000
00001000
00010000
00100000
10000000
00010000
00100000
01000000
00100000
,
10000000
00000000
00100000
00010000
10000000
00100000
01000000
00001000
00010000
00001000
00000100
00000010
00000000
00010000
00000010
00001000
,
00000002
00000000
00000013
00000100
00001000
00000001
00000100
00000010
00000100
00001000
00010000
00100000
00000000
10000000
01000000
01000000
,
00010000
00000000
10000000
01000000
00100000
00010000
10000000
00100000
01000000
00001000
00010000
00100000
10000000
00000000
00010000
00100000
,
01000000
00000000
01000000
00000000
00010000
00001000
00100000
00000000
00001000
00010000
00000010
00001000
00000100
00001000
00000001
00000100
,
00001000
00000000
00010000
00100000
00000000
10000000
00020000
00000000
00000000
00000000
00130000
00000000
01000000
10000000
00010000
01000000
,
00100000
01000000
00001000
00010000
00000100
00000010
00000001
00001000
00000010
00000100
00001000
00000100
00000010
00000001
00002000
00000000
,
00000000
00003100
00000001
00001000
00000200
00000010
00010300
00001000
,
00010000
00000000
00100000
01000000
00000000
00010000
10000000
00000000
01000000
00000000
00010000
00001000
00000000
00100000
00001000
00010000
,
00001000
00010000
02000000
00000000
03010000
00001000
00000200
00000000
,
00001300
00000000
00010000
00001000
00000000
01000000
00100000
00000000
01000000
00000000
10000000
01000000
00000000
00010000
10000000
01000000
,
00100000
01000000
00010000
00001000
02000000
00100000
03001000
00010000
,
00001000
00000000
00000010
00000100
00000000
00001000
00000001
00000000
00000100
00000000
00001000
00010000
00000000
00000010
00010000
00001000
,
00010000
00001000
00000200
00000000
00001300
00010000
02000000
00000000
,
03010000
00000000
00001000
00010000
00000000
00000100
00000010
00000000
00000100
00000000
00000001
00000100
00000000
00001000
00000001
00000100
,
00000010
00010000
00001000
00000000
00010000
00001000
00100000
00000000
00010000
00000000
00100000
01000000
10000000
00100000
01000000
00000000
,
00010000
00000000
10000000
01000000
00100000
00000000
01000000
00010000
00001000
00100000
00000000
00001000
00010000
00001000
00000100
00000000
,
00000001
00000100
00000100
00001000
00000001
00000000
00001000
00000100
00000100
00000010
00010000
00000000
00001000
01000000
01000000
10000000
,
00010000
00000000
00000000
00000000
00000000
00000000
00100000
00000000
00000000
01000000
00000000
00000000
01000000
00000000
00000000
00010000
00000000
00000000
10000000
00000000
00000000
00000000
00000000
00000000
00010000
00000000
00100000
00000000
01000000
00000000
10000000
00000000
00000000
00010000
00000000
00000000
01000000
00000000
00000000
00100000
00000000
00000000
10000000
00000000
00010000
00000000
00100000
00000000
,
01000000
00000000
00000000
00010000
00000000
00000000
00001000
00000000
00000000
00010000
00000000
00000000
01000000
00000000
00000000
00010000
00000000
00000000
00001000
00000000
00000000
00100000
00000000
00000000
00001000
00000000
00000000
00010000
00000000
00000000
00000010
00000000
00000000
00001000
00000000
00000000
00000100
00000000
00000000
00000010
00000000
00000000
00000001
00000000
00001000
00000000
00000010
00000000
,
00000100
00001000
00010000
00001000
00000100
00001000
00010000
00000010
00010000
00001000
00100000
00010000
01000000
00100000
10000000
00010000
,
00100000
00000000
01000000
00000000
10000000
00000000
00010000
00000000
00000000
10000000
00000000
00000000
00100000
00000000
01000000
00000000
00010000
00000000
01000000
00000000
00000000
00001000
00000000
00000000
00010000
00000000
00000100
00000000
00001000
00000000
00000100
00000000
00000000
00000010
00000000
00000000
00000001
00000000
00001000
00000000
00000010
00000000
00000100
00000000
00000000
00000001
00000000
00000000
,
00002000
00000000
00003100
00000002
00000000
00000103
00000010
00000100
00020000
00000000
00031000
00000200
00000000
00001300
00020000
00000000
,
00031000
01000000
00100000
20000000
00000000
00000000
31000000
00100000
,
00010000
10000000
00100000
01000000
00001000
00010000
00011000
00000000
,
00010000
00000000
00000100
00000000
00000010
00000000
00000002
00000000
00000000
00000000
00000000
00000000
00000103
00000010
00000000
00001000
,
00000001
00000010
00000100
00001000
00000010
00010000
00011000
00000000
,
00001000
01000000
00010000
10000000
01000000
00100000
00010000
00100000
10000000
00100000
01000000
10000000
00010000
01000000
00100000
00000000
,
10000000
00100000
01000000
00010000
00100000
01000000
00100000
00001000
00010000
00000100
00000010
00000100
00001000
00000010
00000100
00000001
,
00001000
00000100
00000010
00001000
00000010
00000100
00001000
00000001
00000100
00000010
00010000
00001000
00100000
00010000
10000000
00100000
,
01000000
00000000
00010000
00000000
10000000
00000000
01000000
00000000
00000000
00100000
00000000
00000000
00010000
00000000
00000000
00100000
00000000
00000000
00010000
00000000
00000000
00100000
00000000
00000000
01000000
00000000
00000000
10000000
00000000
00000000
00010000
00000000
00000000
01000000
00000000
00000000
00100000
00000000
00000000
00010000
00000000
00000000
00001000
00000000
00000000
00000000
00000000
00000000
,
00010000
01000000
10000000
00100000
00000000
00010000
00001000
00010000
00001000
00000100
00000001
00000010
00000000
00001000
00010000
00001000
,
00010000
00100000
10000000
01000000
00000000
00010000
00001000
00010000
00001000
00000010
00000001
00000100
00000000
00001000
00010000
00001000
,
00010000
00000000
00000000
00100000
00000000
00000000
01000000
00000000
00000000
00010000
00000000
00000000
10000000
00000000
00000000
01000000
00000000
00000000
00100000
00000000
00000000
00001000
00000000
00000000
00010000
00000000
00000100
00000000
00001000
00000000
00000100
00000000
00000000
00000010
00000000
00000000
00000001
00000000
00001000
00000000
00000010
00000000
00000100
00000000
00000010
00000000
00010000
00000000
,
00004000
00000000
00000000
00000000
00000000
00000000
01003000
00000000
00000000
00040000
00000000
00000000
00000000
00000000
00000000
10030000
00000000
00000000
04000000
00000000
00000000
00000000
00000000
00000000
03100000
00000000
00010000
00000000
10000000
00000000
00010000
00000000
00000000
10000000
00000000
00000000
00100000
00000000
01000000
00000000
00001000
00000000
00010000
00000000
00001000
00000000
00100000
00000000
,
00002000
00000000
00000000
00000000
,
00000000
00000000
00000000
00000000
,
00003000
00000000
00000000
00000000
,
00000000
00000000
00000000
00000000
,
00010000
00001000
00100000
00010000
01000000
00100000
00000000
00000000
00000000
00000000
00000000
00000000
00000000
00000000
00000000
00000000
,
00000000
00000000
00000000
00000000
,
10000000
00100000
01000000
00010000
00100000
00001000
00000000
00000000
00000000
00000000
00000000
00000000
00000000
00000000
00000000
00000000
,
00010000
00000010
00000100
00000001
00000010
00000100
00000000
00000000
00000000
00000000
00000000
00000000
00000000
00000000
00000000
00000000
,
00010000
00001000
00100000
00010000
01000000
00001000
00000000
00000000
00100000
00000000
00000000
00000000
00010000
00000000
10000000
00100000
,
01000000
00010000
00100000
01000000
00010000
00000000
00001000
00100000
00010000
00000000
00100000
00001000
00010000
00000000
00001000
00010000
,
00001000
00000100
00000010
00001000
00000100
00010000
00001000
00100000
00010000
10000000
00100000
10000000
01000000
00100000
00001000
00020000
,
00000000
00000000
00000000
00000000
,
00031000
00000100
00000001
00001000
00000100
00000010
00000100
00010000
00001000
00000100
00001000
00010000
,
00100000
10000000
00010000
00100000
01000000
10000000
00010000
01000000
00100000
00020000
00000000
00000000
,
00031000
00100000
00010000
00000000
10000000
00000000
00100000
00000000
M0100000
00000000
00010000
00000000
10000000
00000000
00100000
00000000
01000000
00000000
00100000
00000000
00010000
00000000
00001000
00000000
,
00000100
00000010
00001000
00000000
00000001
00000000
00000010
00000000
00000100
00000000
00010000
00000000
00001000
00100000
00010000
00000000
00100000
00000000
10000000
00000000
00100000
00000000
00010000
00000000
,
10000000
00100000
01000000
00000000
00100000
00000000
00010000
00000000
00001000
00000000
00100000
00000000
00001000
00000000
00000010
00000000
00000100
00000000
00002000
00000000
00000000
00000000
00000000
00000000
,
00003001
00000100
00001000
00010000
00100000
10000000
00100000
0M100000
00010000
10000000
01000000
00010000
,
00001000
01000000
00100000
00000000
0M100000
00000000
10000000
00000000
01000000
00000000
M1000000
00000000
00010000
00000000
10000000
00000000
01000000
00000000
00200000
00000000
00000000
00000000
00301000
00000000
,
00010000
00000100
00001000
00000000
00000100
00000000
00000010
00000000
00000001
00000000
00001000
00000000
00000010
00000000
00000100
00000000
00001000
00000000
00010000
00000000
00100000
00000000
10000000
00000000
,
00010000
00000000
00100000
00000000
01000000
00000000
10000000
00000000
00000000
00010000
00000000
00000000
01000000
00000000
00000000
00100000
00000000
00000000
10000000
00000000
00000000
00010000
00000000
00000000
00100000
00000000
00000000
01000000
00000000
00000000
00010000
00000000
00000000
00002000
00000000
00000000
00000000
00000000
00000000
00003010
00000000
00000000
00000001
00000000
00000000
00000010
00000000
00000000
,
00001000
00000000
00000000
00000010
00000000
00000000
00000100
00000000
00000000
00001000
00000000
00000000
00000001
00000000
00000000
00001000
00000000
00000000
00000010
00000000
00000000
00000100
00000000
00000000
00001000
00000000
00000000
00010000
00000000
00000000
00100000
00000000
00000000
01000000
00000000
00000000
00010000
00000000
10000000
00000000
01000000
00000000
00100000
00000000
00000000
01000000
00000000
00000000
,
00020000
00000000
01030000
00000000
10000000
00010000
00000000
01000000
00100000
00010000
00001000
00100000
00001000
00000010
00000100
00000000
,
00001000
00000000
00000000
00000100
00000000
00000000
00000100
00000000
00000000
00000001
00000000
00000000
00001000
00000000
00000000
00000010
00000000
00000000
00000010
00000000
00000000
00000001
00000000
00000000
00001000
00000000
00000000
00000010
00000000
00000000
00000100
00000000
00000000
00001000
00000000
00000000
00010000
00000000
00000000
00001000
00000000
00000000
01000000
00000000
00010000
00000000
10000000
00000000
,
01000000
00010000
00001000
00000100
00000000
00000001
00001000
00000001
00000100
00001000
00010000
01000000
00000000
10000000
00010000
10000000
,
00100000
00010000
00001000
00000010
00000000
00000001
00001000
00000001
00000010
00001000
00010000
00100000
00000000
10000000
00010000
00100000
,
10000000
00100000
01000000
00100000
00001000
00010000
00000010
00000100
00001000
00000100
00000010
00001000
00000001
00000010
00000100
00001000
,
00000001
00000000
00000100
00000000
00000010
00000000
00001000
00000000
00000000
00000010
00000000
00000000
00010000
00000000
00001000
00000000
00100000
00000000
00010000
00000000
00000000
00100000
00000000
00000000
01000000
00000000
10000000
00000000
00010000
00000000
01000000
00000000
00000000
00100000
00000000
00000000
00010000
00000000
00001000
00000000
00000100
00000000
00000010
00000000
00000100
00000000
00000001
00000000
,
00002000
00000000
00000000
00000000
00003001
00000000
00000010
00000000
00000100
00010000
00000000
00001000
00100000
00000000
00010000
10000000
,
00100000
00000000
01000000
00100000
00100000
00010000
10000000
01000000
00000000
00010000
00001000
00000000
00100000
00001000
00010000
00000000
,
00001000
00000000
00010000
00000000
00000100
00000000
00001000
00000000
00000000
00000002
00000000
00000000
00000000
00000000
00000000
00000103
00000000
00000000
00000010
00000000
00000000
00001000
00000000
00000000
00000010
00000000
00010000
00000000
00001000
00000000
00100000
00000000
00001000
00000000
00010000
00000000
00004000
00000000
00000000
00000000
00000000
00000000
04003000
00000000
00000000
00000000
00000000
00000000
,
03100000
00000000
10000000
00000000
00010000
00000000
00100000
00000000
00000000
00001000
00000000
00000000
00010000
00000000
00000100
00000000
00001000
00000000
00000100
00000000
00000000
00000010
00000000
00000000
00000001
00000000
00001000
00000000
00000010
00000000
00010000
00000000
00001000
00000000
00010000
00000000
00000010
00000000
00010000
00000000
00001000
00000000
00100000
00000000
00010000
00000000
10000000
00000000
,
00000000
20020000
00000000
00000000
,
00000000
00000000
00000000
00000000
,
00000000
00000000
00000000
00000000
,
00000000
00000000
00000000
00000000
,
30030000
00000000
00000000
00000000
;

//---------------dance-single - ----------------
#NOTEDATA:;
#CHARTNAME:;
#STEPSTYPE:dance-single;
#DESCRIPTION:;
#CHARTSTYLE:;
#DIFFICULTY:Hard;
#METER:17;
#RADARVALUES:0.838295,1.091733,0.075057,0.307050,1.132673,860.000000,849.000000,11.000000,45.000000,14.000000,0.000000,1.000000,0.000000,0.000000,0.838295,1.091733,0.075057,0.307050,1.132673,860.000000,849.000000,11.000000,45.000000,14.000000,0.000000,1.000000,0.000000,0.000000;
#CREDIT:Kekkle;
#NOTES:
0000
0000
0000
0000
,
0000
0000
0000
0000
,
0000
0000
0000
0000
,
0000
0000
0000
0000
,
0000
0000
0000
0000
,
0000
0000
0000
0000
,
0001
0100
0001
0100
0010
1000
0010
1000
,
0001
0010
0001
0010
0100
1000
0100
1000
0001
0100
0001
1000
0100
0010
0001
1000
,
0040
0000
0000
0000
,
0030
0000
0000
0000
,
1000
0010
0100
0001
0000
1000
0100
0010
0001
1000
0010
0100
0000
0001
0010
0100
,
0010
0000
0M10
1000
0000
1000
0100
0000
M100
0002
0000
0000
0000
1003
0000
0000
,
1001
0001
0010
1000
0020
0000
0130
1000
,
0001
0100
1000
0200
0000
0000
0320
0000
,
1030
0001
0100
1000
0200
0000
0310
1000
,
0001
0010
1000
0020
0000
0000
0031
1000
,
1001
0001
0100
1000
0200
0000
0310
1000
,
0100
0010
1000
0020
0000
0000
0230
0000
,
1300
0000
0001
0000
0100
0000
1000
0000
0100
0000
0010
0000
1000
0001
0010
0100
,
2000
0000
0000
0000
,
3001
0100
0010
0000
1000
0010
0100
0001
1000
0100
0000
0010
0001
1000
0010
0200
,
1000
0000
0000
0301
0000
0000
1000
0001
0010
0100
2000
0000
0000
0000
3001
0100
,
0010
0000
0010
0000
0010
0000
0010
0000
0010
0000
0100
0000
0001
1000
0100
0000
,
0010
0000
0001
1000
0001
1000
0100
0010
0001
1000
0020
0000
0000
0000
0130
0001
,
1000
0100
0000
0100
0001
0100
0000
0100
0020
0000
0031
0000
0000
0001
0000
0000
,
1000
0000
0010
0100
0001
0000
0010
0000
0100
1000
0001
0000
0100
0000
0100
0000
,
0010
1000
0001
0000
0010
0001
1000
0010
0100
0010
1000
0000
0100
0010
0000
0001
,
1000
0010
0100
0000
0001
0010
0100
0000
1000
0100
0010
0001
1000
0010
0100
0000
,
0110
0000
0001
0000
1000
0200
0000
0310
0001
0010
0100
1000
0001
0100
0010
1000
,
0010
0100
0001
1000
0100
0010
0001
1000
0010
0100
0010
1000
0001
0010
0100
0000
,
0001
0000
0100
0000
0010
0001
0000
1000
0010
0100
0010
1000
0100
0010
0001
1000
,
0010
0000
0100
0001
1000
0100
0010
0001
1000
0010
0100
0010
0000
0001
0010
0100
,
0010
0000
1000
0001
0010
0100
1000
0100
0010
0001
1000
0010
0100
0000
0010
1000
,
0001
0000
0001
0000
0001
0010
0100
0000
1000
0100
0010
0001
1000
0010
0100
0000
,
1000
0000
0100
0001
0000
1000
0200
0000
0000
0000
0310
0000
0001
1000
0100
0000
,
0010
0001
1000
0001
0100
0010
1000
0000
0010
1000
0001
0010
0100
0010
2000
0000
,
0000
3010
0001
1000
0020
0000
0130
0001
,
1000
0000
0100
0000
0010
0000
0002
0000
0100
0000
0000
1000
0000
0000
0013
0000
,
0100
1000
0001
0000
0100
0001
1000
0000
,
0100
0000
0010
0000
0001
0000
2000
0000
0010
0000
0000
0001
0000
0000
3100
0000
,
0010
0001
1000
0010
0200
0000
0301
1000
,
0100
0000
0010
0000
0001
0000
2000
0000
0100
0000
0000
0001
0000
0000
3010
0000
,
0100
0001
1000
0000
0100
1000
0001
0000
,
0100
0000
0010
0000
1000
0000
0002
0000
0100
0000
0000
1000
0000
0000
0013
0000
,
0100
1000
0001
0000
0100
0010
1000
0000
1000
0000
0010
0100
0001
1000
0010
0000
,
1000
0000
0001
0010
0100
0000
0010
0001
0010
0100
0000
1000
0001
0100
0010
0000
,
0100
0001
1000
0001
0010
0000
001M
1000
0001
1000
0100
0000
0010
0001
1000
0001
,
0100
0000
010M
1000
0001
1000
0010
0000
0100
0001
1000
0100
0010
0001
0010
0000
,
0100
1000
0001
0100
0010
0000
0100
0001
1000
0000
0001
0010
0100
0000
0010
0000
,
2000
0000
0000
0000
3010
0001
0000
0001
1000
0001
0000
0001
0100
0010
0000
0000
,
1000
0000
0010
0000
0100
0001
0010
0100
2000
0000
0000
3001
0100
0010
1000
0001
,
0010
0000
001M
1000
0000
1000
0001
1000
0010
0000
M010
0001
0000
0001
1000
0001
,
0010
0100
0010
0020
0000
0000
0031
1000
,
0010
0100
0010
0010
0000
1000
1001
0000
,
0001
1000
0001
0002
0000
0000
0013
0100
,
1000
0001
1000
1000
0000
0010
0110
0000
,
1000
0010
0100
0000
0001
0010
0100
0000
1000
0100
0010
0001
0100
0010
1000
0000
,
0001
0100
0010
0000
1000
0100
0010
0000
0001
0010
0100
1000
0010
0100
0001
0000
,
1000
0100
0010
0100
0001
0100
0010
0000
0001
1000
0010
0100
0001
0100
0010
1000
,
0001
0010
0001
0010
0001
0010
0001
0010
0100
1000
0001
0100
0010
1000
0001
0000
,
1001
0000
1000
0100
0000
M100
0001
0000
1001
0000
0001
0100
0000
010M
1000
0000
,
1001
0000
1000
0010
0000
M010
0001
0000
1001
0000
0001
0010
0000
001M
1000
0001
,
0010
0100
1000
0100
0010
0001
1000
0010
0100
0001
0010
0100
1000
0000
0001
0100
,
0010
0000
0100
1000
0000
0100
0001
1000
0100
0010
0001
1000
0010
0000
0010
0000
,
2002
0000
0000
0000
,
0000
0000
0000
0000
,
3003
0000
0000
0000
,
0000
0000
0000
0000
,
1000
0100
1000
0100
0010
0100
0000
0000
0000
0000
0000
0000
0000
0000
0000
0000
,
0000
0000
0000
0000
,
1000
0001
1000
0001
0100
0001
0000
0000
0000
0000
0000
0000
0000
0000
0000
0000
,
0010
0100
0010
0100
1000
0100
0000
0000
0000
0000
0000
0000
0000
0000
0000
0000
,
1000
0010
1000
0010
0100
0010
0000
0000
0000
0000
0000
0000
0000
0000
1000
0001
,
1000
0001
0010
0001
1000
0000
0000
0000
0001
0000
0000
0000
0010
0000
0000
0000
,
0100
1000
0010
0100
0001
0010
0000
0000
001M
1000
0100
0010
0001
0200
0000
0000
,
0000
0000
0000
0000
,
0310
1000
0001
0010
0100
1000
0100
0010
0100
0001
0100
0010
,
0001
1000
0010
0100
0001
0010
0100
1000
0000
1000
0000
0000
,
0001
0100
0010
0002
0000
0000
0013
1000
0001
0010
0100
0010
,
1000
0010
0001
2000
0000
0000
3001
0100
0010
1000
0010
0100
,
0001
1000
0100
0010
0001
1000
0010
0100
0010
0002
0000
0000
,
0013
1000
0001
0010
0100
1000
0100
0010
0001
1000
0010
0100
,
0001
0001
0000
1000
0100
0010
0001
1000
0010
0002
0000
0013
,
1000
0001
0010
0100
1000
0001
0100
0010
1000
0100
0010
0001
,
1000
0010
0100
0010
1000
0001
0010
0100
1000
0001
0100
0010
0000
0M10
0001
0010
,
0100
1000
0001
0100
0010
1000
0100
0001
0000
0100
0010
0000
0100
1000
0001
0100
,
1000
0000
0100
0000
0001
1000
0000
1000
0000
0100
0010
0001
1000
0000
0010
0000
,
0100
0001
0010
0000
001M
1000
0100
0000
M100
0001
1000
0100
0010
0001
1000
0000
,
0001
0010
0200
1000
0000
0310
0001
0000
1000
0010
0200
0001
0000
0310
1000
0000
,
0001
0100
0020
1000
0000
0130
0001
0000
1000
0100
0020
0001
0000
0130
1000
0001
,
0100
0010
1000
0100
0010
0000
0001
1000
0010
0100
0001
0010
0100
0000
1000
0001
,
0100
0000
0010
0000
0010
0000
0010
0000
0100
0001
1000
0100
0010
0100
0002
0000
,
0103
0000
1000
0000
0001
0000
0100
0000
0010
1000
0000
0001
0010
0000
0100
1000
,
0001
0000
0100
0010
1000
0010
0100
0001
0000
0001
1000
0000
0100
0010
0001
0000
,
2000
0000
3010
0200
0000
0301
1000
0100
0010
0001
0100
0010
2000
0000
3002
0000
,
0013
0100
1000
0100
0001
0100
0010
0100
1000
0001
0100
0010
0001
0010
0100
0001
,
0000
2002
0000
0000
,
0000
0000
0000
0000
,
0000
0000
0000
0000
,
0000
0000
0000
0000
,
3003
0000
0000
0000
;

//---------------dance-double - ----------------
#NOTEDATA:;
#CHARTNAME:;
#STEPSTYPE:dance-double;
#DESCRIPTION:;
#CHARTSTYLE:;
#DIFFICULTY:Hard;
#METER:17;
#RADARVALUES:0.837320,1.125849,0.095527,0.259287,1.101968,859.000000,845.000000,14.000000,38.000000,8.000000,0.000000,1.000000,0.000000,0.000000,0.837320,1.125849,0.095527,0.259287,1.101968,859.000000,845.000000,14.000000,38.000000,8.000000,0.000000,1.000000,0.000000,0.000000;
#CREDIT:Kekkle;
#NOTES:
00000000
00000000
00000000
00000000
,
00000000
00000000
00000000
00000000
,
00000000
00000000
00000000
00000000
,
00000000
00000000
00000000
00000000
,
00000000
00000000
00000000
00000000
,
00000000
00000000
00000000
00000000
,
10000000
00100000
10000000
00100000
01000000
00010000
01000000
00010000
,
10000000
01000000
10000000
00010000
01000000
00001000
00010000
00000000
00001000
00010000
00000100
00000010
00000001
00001000
00000010
00000100
,
00000040
00000000
00000000
00000000
,
00000030
00000000
00000000
00000000
,
00001000
00000001
00000010
00000100
00000000
00000010
00000001
00001000
00000010
00010000
00001000
00100000
00010000
10000000
00010000
01000000
,
00100000
00000000
00010000
00001000
00000000
00010000
00000100
00000000
00000010
00000200
00000000
00000000
00000000
00000310
00000000
00000000
,
00001001
00000001
00000100
00001000
00000200
00000000
00001300
00010000
,
00100000
10000000
00010000
00100000
00000000
00000000
01100000
00000000
,
00010000
10000000
01000000
00010000
02000000
00000000
03010000
00001000
,
00000010
00000001
00001000
00000010
00000000
00000000
00000110
00000000
,
00001001
00001000
00000100
00000001
00000200
00000000
00000310
00001000
,
00010000
01000000
10000000
00100000
00000000
00000000
01100000
00000000
,
10000000
00000000
00010000
00000000
01000000
00000000
10000000
00000000
01000000
00000000
00100000
00000000
10000000
00010000
00100000
00001000
,
00020000
00000000
00000000
00000000
,
00031000
00100000
00001000
00000000
00010000
00000100
00001000
00000100
00000010
00000001
00000000
00001000
00000010
00000100
00000001
00000200
,
00001000
00000000
00000000
00000310
00000000
00000000
00010000
00000010
00010000
00001000
00010000
00000000
00001000
00000000
00100000
00010000
,
10000000
10000000
10000000
10000000
10000000
00010000
01000000
00100000
,
10000000
00000000
10000000
01000000
00100000
00010000
10000000
00100000
01000000
00001000
00010000
00000000
00001000
00010000
00000100
00001000
,
00000001
00000100
00000000
00000100
00001000
00000100
00000000
00000100
00000020
00000000
00001030
00000000
00000000
00000001
00000000
00000000
,
00000010
00000000
00000100
00010000
00001000
00000000
00100000
00000000
00001000
00010000
00000010
00000000
00010000
00000000
00001000
00000000
,
01000000
00010000
10000000
01000000
00100000
00010000
10000000
00100000
01000000
00001000
00010000
00000000
00000100
00001000
00000000
00000100
,
00000010
00000001
00001000
00000000
00000010
00001000
00000001
00000000
00000010
00000100
00001000
00000001
00000100
00000010
00000100
00001000
,
00010000
00000000
00001000
00000000
01000000
00010000
00000000
10000000
00100000
10000000
00010000
00100000
01000000
10000000
00010000
00000000
,
00100000
00001000
00010000
00000000
00001000
00010000
00000010
00000000
00001000
00000001
00000010
00000100
00001000
00000001
00000100
00000000
,
00001000
00000000
00000100
00000010
00001000
00000001
00000000
00001000
00000100
00010000
00001000
00010000
00000000
00100000
01000000
00010000
,
01000000
00000000
00010000
10000000
01000000
00100000
00010000
10000000
00100000
01000000
00010000
01000000
00000000
00001000
00010000
00001000
,
00000100
00000000
00000001
00001000
00000100
00000010
00000001
00001000
00000010
00000100
00000010
00010000
00001000
00000000
00010000
00001000
,
00100000
00000000
00100000
00000000
00010000
10000000
00100000
00000000
01000000
00010000
10000000
01000000
00100000
00010000
10000000
00100000
,
01000000
00000000
00100000
00010000
00000000
00001000
00020000
00000000
00000000
00000000
00031000
00000000
00000100
00000010
00000100
00000000
,
00000001
00001000
00000100
00000000
00000010
00000001
00001000
00000000
00000001
00000100
00000010
00000100
00001000
00010000
00002000
00000000
,
00000000
00000000
00013000
00100000
20000000
00000000
30010000
00100000
,
01000000
00010000
00001000
00200000
00000000
00000000
00301000
00000000
,
00010000
00001000
00000100
00001000
00010000
00001000
00100000
00000000
,
00001000
00010000
01000000
00010000
00001000
00010000
00000010
00001000
,
00000100
00010000
00001000
00000010
00000002
00000000
00001003
00000010
,
00000100
00001000
00010000
00000020
00000000
00000000
00010030
00000000
,
00001000
00010000
01000000
00010000
00001000
00010000
00000010
00000000
,
00010000
00001000
00000100
00001000
00010000
00001000
00100000
00010000
,
01000000
00100000
10000000
00000000
00010000
00100000
01000000
00000000
01000000
00000000
00100000
00001000
00010000
00001000
00100000
00000000
,
00001000
00000000
00010000
00000010
00000100
00000000
00000010
00001000
00000001
00000010
00000000
00000100
00001000
00000001
00000100
00000000
,
00000010
00010000
00001000
00010000
00001000
00000000
000M1000
00000010
00010000
00001000
00100000
00000000
00100000
00001000
00010000
00001000
,
00010000
00000000
0001M000
00100000
00001000
00010000
00000010
00000000
00010000
00001000
00100000
00010000
10000000
00100000
01000000
00000000
,
00010000
10000000
01000000
00100000
00001000
00000000
00010000
00001000
00100000
00000000
00001000
00010000
00000010
00000000
00010000
00000000
,
00011000
00000000
00000000
00000000
00001000
00000100
00000000
00000100
00000001
00000100
00000000
00000100
00000010
00001000
00000000
00000000
,
00000001
00000000
00000010
00000000
00000100
00010000
00001000
00100000
00010000
00000000
10000000
00100000
01000000
00001000
00010000
00001000
,
00200000
00000000
00000000
02300000
00000000
00000000
03020000
00000000
00032000
00000000
00000000
00003020
00000000
00000000
00000230
00000000
,
00001300
00000001
00000100
00000200
00000000
00000000
00000310
00000100
,
00001000
00010000
00001000
00001000
00000000
01000000
01010000
00000000
,
00010000
10000000
01000000
02000000
00000000
00000000
03100000
01000000
,
00010000
00001000
00010000
00010000
00000000
00000100
00001100
00000000
,
00001000
00000001
00000100
00000000
00000001
00000100
00000010
00000000
00000100
00000010
00001000
00000010
00010000
00001000
00100000
00000000
,
00001000
00010000
00000010
00000000
00010000
00001000
00100000
00000000
00001000
00010000
00000100
00000000
00010000
00001000
01000000
00000000
,
00100000
10000000
00010000
00100000
01000000
10000000
00010000
01000000
00100000
01000000
00001000
00010000
00000100
00000010
00000001
00001000
,
00000001
00000100
00000001
00000100
00000001
00000100
00000001
00000100
00000010
00010000
00001000
00100000
00001000
00010000
00000010
00000000
,
00010010
00000000
00000010
00010000
00000000
000100M0
00100000
00000000
00101000
00000000
00100000
00001000
00000000
00M01000
00000100
00000000
,
00010100
00000000
00000100
00010000
00000000
00010M00
01000000
00000000
01001000
00000000
01000000
00001000
00000000
0M001000
00000010
00000000
,
00001000
00000001
00000010
00000100
00001000
00000001
00000100
00000000
00001000
00010000
00100000
00000000
00010000
00000000
00001000
01000000
,
00010000
00000000
01000000
10000000
00000000
01000000
00010000
00000000
10000000
01000000
00100000
00010000
01000000
00000000
00001000
00000000
,
00022000
00000000
00000000
00000000
,
00000000
00000000
00000000
00000000
,
00033000
00000000
00000000
00000000
,
00000000
00000000
00000000
00000000
,
00001000
00010000
00001000
00010000
00000100
00010000
00000000
00000000
00000000
00000000
00000000
00000000
00000000
00000000
00000000
00000000
,
00000000
00000000
00000000
00000000
,
00000100
00000010
00000100
00000010
00000001
00000010
00000000
00000000
00000000
00000000
00000000
00000000
00000000
00000000
00000000
00000000
,
00000001
00001000
00000001
00001000
00000010
00001000
00000000
00000000
00000000
00000000
00000000
00000000
00000000
00000000
00000000
00000000
,
00000010
00010000
00000010
00010000
00001000
00010000
00000000
00000000
00000000
00000000
00000000
00000000
00000000
00000000
00001000
00100000
,
00001000
00100000
00010000
00100000
01000000
00000000
00000000
00000000
10000000
00000000
00000000
00000000
00010000
00000000
01000000
00100000
,
10000000
00010000
00100000
01000000
00100000
00001000
00000000
00010000
00001000
00000100
00000010
00001000
00000001
00000010
00000100
00002000
,
00000000
00000000
00000000
00000000
,
00003001
00000100
00000010
00001000
00000001
00000010
00000100
00000010
00001000
00010000
00001000
00100000
,
00010000
10000000
00100000
01000000
00010000
00100000
01000000
10000000
00000000
10000000
00000000
00000000
,
00010000
01000000
00100000
00010000
00002000
00000000
00103000
00010000
10000000
00100000
01000000
00100000
,
00010000
00100000
01000000
00001000
00010000
00000100
00001000
00000100
00000010
00000001
00001000
00000010
,
00000100
00000001
00001000
00000100
00000010
00001000
00010000
00000010
00000100
00002000
00000000
00000000
,
00013000
00100000
01000000
00010000
10000000
01000000
00100000
00010000
10000000
00100000
01000000
00001000
,
00010000
00010000
00000000
00001000
00000100
00000010
00001000
00000001
00000010
00000200
00000000
00000310
,
00001000
00000010
00000001
00001000
00000010
00000100
00001000
00010000
00100000
01000000
00010000
10000000
,
01000000
00100000
00010000
10000000
00100000
00000000
01000000
00001000
00010000
00000100
00010000
00001000
00000000
00000100
00000010
00000100
,
00001000
00000100
00000001
00001000
00000100
00000010
00001000
00010000
00000000
00001000
00100000
00000000
00010000
01000000
00100000
01000000
,
10000000
00000000
01000000
00000000
00010000
10000000
00000000
01000000
00000000
00100000
00001000
00010000
00001000
00000000
00010000
00000000
,
00001000
00100000
00010000
00000000
00M10000
00000010
00001000
00000000
000010M0
00100000
00010000
00100000
00001000
00010000
00001000
00000000
,
00010000
00001000
00200000
00010000
00000000
00301000
01000000
00000000
00001000
00010000
00000020
00001000
00000000
00010030
00000100
00000000
,
00010000
00001000
02000000
00010000
00000000
03001000
00100000
00000000
00001000
00010000
00000200
00001000
00000000
00010300
00000010
00000000
,
00010000
00001000
00100000
00010000
10000000
00000000
00010000
00100000
00001000
00010000
00000010
00001000
00000001
00000000
00000010
00000100
,
00001000
00000000
00000100
00000000
00000100
00000000
00000100
00000000
00010000
00001000
00010000
00100000
10000000
00010000
00200000
00000000
,
01300000
00000000
10000000
00000000
00010000
00000000
01000000
00000000
00100000
01000000
00000000
00001000
00010000
00000000
00000100
00001000
,
00000001
00000000
00000100
00000010
00001000
00000001
00000010
00000100
00000000
00010000
00001000
00000000
00010000
00001000
00100000
00000000
,
00020000
00000000
10030000
00200000
00000000
01300000
00010000
10000000
01000000
00010000
01000000
00010000
00002000
00000000
00203000
00000000
,
00301000
00010000
00001000
00000100
00000010
00001000
00000001
00000010
00001000
00010000
01000000
10000000
00100000
01000000
00010000
10000000
,
00000000
20020000
00000000
00000000
,
00000000
00000000
00000000
00000000
,
00000000
00000000
00000000
00000000
,
00000000
00000000
00000000
00000000
,
30030000
00000000
00000000
00000000
;

//---------------dance-single - ----------------
#NOTEDATA:;
#CHARTNAME:;
#STEPSTYPE:dance-single;
#DESCRIPTION:;
#CHARTSTYLE:;
#DIFFICULTY:Medium;
#METER:15;
#RADARVALUES:0.674535,0.955266,0.109173,0.231993,0.695980,692.000000,676.000000,16.000000,34.000000,11.000000,0.000000,2.000000,0.000000,0.000000,0.674535,0.955266,0.109173,0.231993,0.695980,692.000000,676.000000,16.000000,34.000000,11.000000,0.000000,2.000000,0.000000,0.000000;
#CREDIT:Kekkle;
#NOTES:
// measure 0
0000
0000
0000
0000
,  // measure 1
0000
0000
0000
0000
,  // measure 2
0000
0000
0000
0000
,  // measure 3
0000
0000
0000
0000
,  // measure 4
0000
0000
0000
0000
,  // measure 5
0000
0000
0000
0000
,  // measure 6
1000
0010
0100
0000
0001
0010
0100
0000
,  // measure 7
1000
0010
1000
0000
0001
0010
0001
0000
1000
0100
1000
0000
0001
0100
0001
0000
,  // measure 8
0400
0000
0000
0000
,  // measure 9
0300
0000
0000
0000
,  // measure 10
0001
0000
0100
0010
0000
0010
1000
0000
0001
0000
0010
0100
0000
0100
1000
0000
,  // measure 11
0001
0000
1000
0010
0000
M010
0001
0000
0001
0200
0000
0000
0000
0310
0000
0000
,  // measure 12
1001
0000
1000
0100
0020
0000
0031
1000
,  // measure 13
0010
0100
0001
0010
0000
0000
0110
0000
,  // measure 14
1000
0000
0001
0100
0020
0000
1030
0001
,  // measure 15
0010
0100
1000
0010
0000
0000
0110
0000
,  // measure 16
1001
0000
0001
0010
0200
0000
1300
0001
,  // measure 17
0100
0010
1000
0100
0000
0000
0110
0000
,  // measure 18
0001
0000
1000
0010
0200
0000
0301
1000
,  // measure 19
0100
0010
0001
0200
0000
0000
0000
0000
,  // measure 20
0310
1000
0010
0000
0100
0000
0001
0000
1000
0100
0000
0000
0010
0000
0001
0000
,  // measure 21
1001
0000
0000
0110
0000
0000
1000
0000
0001
1000
0001
0000
0000
0000
1000
0100
,  // measure 22
0010
0010
0001
0001
1000
1000
0010
0010
,  // measure 23
0100
0000
0001
0000
1000
0100
1000
0000
0001
0100
0010
0000
0000
0000
1000
0000
,  // measure 24
0001
0010
0000
0010
0001
1000
0000
0000
0020
0000
0130
0000
0000
0100
0000
0000
,  // measure 25
0001
0000
1000
0100
1000
0000
0001
0000
1000
0010
1000
0000
0001
0000
0010
0000
,  // measure 26
0100
1000
0100
0000
1000
0000
0001
0000
0100
0010
1000
0000
0010
1000
0000
0001
,  // measure 27
0010
0000
0100
0000
0001
0000
0100
0000
1000
0001
0100
0000
0010
0100
0010
0000
,  // measure 28
0001
0000
0010
0000
1000
0002
0000
0000
0013
0100
0010
0001
1000
0000
0010
1000
,  // measure 29
0001
0000
0010
0000
1000
0000
0010
0000
0001
0010
0001
1000
0010
0100
0010
0000
,  // measure 30
0001
0000
0010
0000
1000
0001
0000
0010
0100
1000
0100
0010
0000
0001
1000
0000
,  // measure 31
0010
0000
0100
0001
1000
0000
0100
0000
0010
0000
0001
1000
0000
0010
0100
0001
,  // measure 32
0100
0000
0010
0000
1000
0001
0010
0000
0100
1000
0100
1000
0001
0000
0100
0000
,  // measure 33
0010
0000
0010
0000
1000
0001
0010
0000
0100
1000
0001
0100
0010
1000
0010
0000
,  // measure 34
0100
0000
0010
1000
0000
1000
0002
0000
0000
0000
0013
0000
1000
0000
0010
0000
,  // measure 35
0001
0000
1000
0000
0010
0000
0100
0000
0001
1000
0100
0010
0001
1000
0020
0000
,  // measure 36
0000
0000
0130
1000
0100
0000
0001
1000
,  // measure 37
0100
0010
0001
2000
0000
0000
3001
0000
,  // measure 38
0100
0100
0010
0010
,  // measure 39
1000
0000
0001
0000
0010
0000
0100
0000
1000
0000
0000
1000
0000
0000
1000
0000
,  // measure 40
0001
0100
0010
0001
0010
0000
1000
0001
,  // measure 41
0010
0100
1000
0002
0000
0000
1003
0000
,  // measure 42
0010
0010
0100
0100
,  // measure 43
0001
0000
1000
0000
0100
0000
0010
0000
0001
0000
0000
0001
0000
0000
0001
0000
,  // measure 44
1000
0010
0100
0000
0010
0000
0001
0000
0010
0000
1000
0001
0010
0001
1000
0000
,  // measure 45
0001
0000
0100
0000
0010
0000
1000
0001
0010
0001
0000
0010
0100
1000
0001
0000
,  // measure 46
1000
0010
M010
0001
0100
010M
1000
0100
,  // measure 47
M100
0000
0001
0000
0010
0000
001M
0000
1000
0001
0100
0000
0010
1000
0001
0000
,  // measure 48
1000
0100
0010
0100
1000
0000
0001
0000
0100
0000
0010
0100
0001
0000
1000
0000
,  // measure 49
1001
0000
0000
0000
0001
0010
0000
0010
0100
1000
0000
0001
0000
0100
0000
0000
,  // measure 50
0010
0000
1000
0000
0001
0010
0100
1000
0001
0000
0000
1000
0010
0100
0010
1000
,  // measure 51
0002
0000
0000
1000
0000
0000
0010
0000
2003
0000
0000
0001
0000
0000
3010
0000
,  // measure 52
1000
0000
0010
0020
0000
0000
0130
0000
,  // measure 53
0001
1000
0100
0100
0000
0010
0110
0000
,  // measure 54
0001
0000
0010
0020
0000
0000
0130
0000
,  // measure 55
1000
0001
0100
0100
0000
0010
0110
0000
,  // measure 56
1000
0000
0010
0000
0001
0000
0010
0000
0100
0001
1000
0000
0100
0000
0100
0000
,  // measure 57
0010
0001
1000
0000
0001
1000
0010
0000
1000
0010
0100
0000
0010
0100
0001
0000
,  // measure 58
1000
0100
0010
0001
0010
0000
0001
0000
1000
0000
0010
0100
0001
0100
0010
0000
,  // measure 59
1000
0010
1000
0010
1000
0010
1000
0000
0001
0010
0100
0010
0001
1000
0001
0000
,  // measure 60
0011
0000
001M
1000
0000
0000
0010
0000
1010
0000
M010
0001
0000
0000
0100
0000
,  // measure 61
0101
0000
010M
1000
0000
0000
0100
0000
1100
0000
M100
0001
0000
0000
0010
0000
,  // measure 62
0100
1000
0001
0000
1000
0010
0100
0000
0001
0100
0001
0100
0010
1000
0001
0000
,  // measure 63
1000
0000
0100
0010
0000
0001
0000
0000
1000
0001
0100
0010
1000
0000
0001
0000
,  // measure 64
2002
0000
0000
0000
,  // measure 65
0000
0000
0000
0000
,  // measure 66
3003
0000
0000
0000
,  // measure 67
0000
0000
0000
0000
,  // measure 68
1000
0100
1000
0100
1000
0100
0000
0000
0000
0000
0000
0000
0000
0000
0000
0000
,  // measure 69
0000
0000
0000
0000
,  // measure 70
0010
0001
0010
0001
0010
0001
0000
0000
0000
0000
0000
0000
0000
0000
0000
0000
,  // measure 71
1000
0010
1000
0010
1000
0010
0000
0000
0000
0000
0000
0000
0000
0000
0000
0000
,  // measure 72
0100
0010
0100
0010
0100
0010
0000
0000
0000
0000
0000
0000
0000
0000
1000
0001
,  // measure 73
1000
0001
1000
0001
0000
0000
0000
0000
0010
0000
0000
0000
0100
0000
0000
0000
,  // measure 74
1000
0001
1000
0001
0100
0010
0000
0000
1000
0001
1000
0001
0010
0200
0000
0000
,  // measure 75
0000
0000
0000
0000
,  // measure 76
1300
0000
0000
1000
0000
0000
1000
0000
0000
0000
0001
0010
,  // measure 77
0100
1000
0000
0000
0002
0000
0000
0100
0000
1003
0000
0000
,  // measure 78
1000
0010
0100
0002
0000
0000
0000
0100
0000
1000
0000
0013
,  // measure 79
0100
0010
0001
2000
0000
0000
0010
0000
0001
0000
3100
0000
,  // measure 80
0010
0000
0000
0001
0000
0000
1000
0010
0100
1000
0000
0000
,  // measure 81
0100
0001
1000
0100
1000
0001
0100
0010
1000
0010
0100
0001
,  // measure 82
1000
0100
1000
0001
0010
0001
1000
0010
0100
1000
0000
0100
,  // measure 83
0001
1000
0100
1000
0001
0100
0010
1000
0001
0010
0100
1000
,  // measure 84
0002
0000
0100
0000
1003
0000
0001
1000
0100
0010
0001
0000
0000
2000
0000
0000
,  // measure 85
3010
0000
0100
0000
0010
0000
0002
0000
0000
0013
0000
0000
1000
0000
0002
0000
,  // measure 86
0010
0000
1000
0000
0103
0000
0000
0020
0000
0000
1030
0000
0001
0000
0010
0000
,  // measure 87
0100
1000
0010
0000
0100
0001
0010
0000
0100
1000
0001
0100
0010
1000
0100
0000
,  // measure 88
0010
0000
0001
0000
1000
0000
0010
0100
0000
01M0
1000
0001
0000
2000
0000
0000
,  // measure 89
3100
0000
0010
0000
0100
0000
0002
0000
0000
0103
0000
0000
2000
0000
3001
0000
,  // measure 90
0100
0010
1000
0100
0010
0000
0001
0000
1000
0010
0100
0001
0010
0000
0200
0000
,  // measure 91
1300
0000
0001
0000
0001
0000
0001
0000
0100
0010
1000
0100
0010
0001
2000
0000
,  // measure 92
0000
0000
0000
0000
,  // measure 93
0000
0000
0000
0000
,  // measure 94
3001
0010
0000
001M
1000
0000
0001
0000
0040
0000
0000
0000
0130
0000
1000
0000
,  // measure 95
0001
0100
0010
1000
0010
0100
0001
1000
0100
0010
0001
1000
0010
0100
0001
0010
,  // measure 96
0000
2002
0000
0000
,  // measure 97
0000
0000
0000
0000
,  // measure 98
0000
0000
0000
0000
,  // measure 99
0000
0000
0000
0000
,  // measure 100
3003
0000
0000
0000
;

//---------------dance-double - ----------------
#NOTEDATA:;
#CHARTNAME:;
#STEPSTYPE:dance-double;
#DESCRIPTION:;
#CHARTSTYLE:;
#DIFFICULTY:Medium;
#METER:15;
#RADARVALUES:0.635544,0.852916,0.075057,0.245640,0.579983,652.000000,641.000000,11.000000,36.000000,0.000000,0.000000,2.000000,0.000000,0.000000,0.635544,0.852916,0.075057,0.245640,0.579983,652.000000,641.000000,11.000000,36.000000,0.000000,0.000000,2.000000,0.000000,0.000000;
#CREDIT:Kekkle;
#NOTES:
00000000
00000000
00000000
00000000
,
00000000
00000000
00000000
00000000
,
00000000
00000000
00000000
00000000
,
00000000
00000000
00000000
00000000
,
00000000
00000000
00000000
00000000
,
00000000
00000000
00000000
00000000
,
10000000
00100000
01000000
00000000
00010000
00100000
01000000
00000000
,
00100000
00001000
00100000
00000000
00001000
00000000
00010000
00000000
00000010
00000100
00000010
00000000
00001000
00000000
00000001
00000000
,
00000040
00000000
00000000
00000000
,
00000030
00000000
00000000
00000000
,
00000001
00000000
00001000
00000010
00000000
00000000
00000100
00000000
00001000
00000000
00010000
00001000
00000000
00000000
00010000
00000000
,
00100000
00000000
10000000
00010000
00000000
00010000
00100000
00000000
00100000
00002000
00000000
00000000
00000000
00013000
00000000
00000000
,
00001000
00000000
00000100
00000001
00002000
00000000
00003100
00000010
,
00000001
00001000
00000010
00000100
00000000
00000000
00011000
00000000
,
00010000
00000000
01000000
10000000
00020000
00000000
01030000
00100000
,
10000000
00010000
00100000
01000000
00000000
00000000
00011000
00000000
,
00001000
00000000
00000010
00000001
00002000
00000000
00003010
00000100
,
00000001
00001000
00000100
00000010
00000000
00000000
00011000
00000000
,
00010000
00000000
00100000
10000000
00020000
00000000
00130000
01000000
,
10000000
00010000
01000000
00200000
00000000
00000000
00000000
00000000
,
10300000
00000000
00010000
00000000
00100000
00000000
01000000
00000000
00100000
00001000
00000000
00000000
00010000
00000000
00001000
00000000
,
00000100
00000000
00000000
00000100
00000000
00000000
00000001
00000000
00001000
00000100
00001000
00000000
00000000
00000000
00000001
00000100
,
00000010
00000010
00010000
00010000
00001000
00001000
00100000
00100000
,
01000000
00000000
10000000
00000000
00010000
00000000
01000000
00000000
00100000
10000000
00010000
00000000
00000000
00000000
10000000
00000000
,
01000000
00100000
00000000
00100000
00010000
10000000
00000000
00000000
00200000
00000000
01300000
00000000
00000000
00010000
00000000
00000000
,
10000000
01000000
00010000
00001000
00000100
00000001
00001000
00000100
,
00000010
00000001
00001000
00000000
00000001
00000100
00000010
00000000
00001000
00000000
00000001
00000000
00000010
00000100
00000000
00000010
,
00000001
00001000
00000010
00000100
00001000
00010000
00001000
00100000
,
00010000
00000000
10000000
00000000
00100000
01000000
00000000
00010000
01000000
00010000
10000000
00000000
00010000
00000000
00100000
00000000
,
01000000
00000000
00010000
00000000
00001000
00000000
00000010
00000000
00000100
00001000
00000001
00000000
00000100
00000010
00001000
00000000
,
00001001
00000000
00000001
00000000
00000010
00000100
00000000
00000010
00000001
00000000
00001000
00000000
00000010
00000000
00000100
00000010
,
00010000
00000000
00001000
00000000
01000000
00000000
00010000
00000000
10000000
00000000
01000000
00100000
00000000
00010000
10000000
00010000
,
01000000
00000000
00100000
00000000
00010000
00000000
00001000
00000000
00100000
00001000
00010000
00000000
00001000
00000000
00000100
00000000
,
00000010
00000000
00000010
00000000
00000010
00001000
00000001
00000000
00001000
00000000
00000100
00000000
00000010
00000000
00001000
00000000
,
00010000
00000000
00001000
00100000
00000000
00001000
00020000
00000000
00000000
00000000
00031000
00000000
01000000
00000000
00100000
00000000
,
10000000
00000000
00010000
00000000
00100000
00000000
01000000
00000000
00100000
00001000
00010000
00001000
00010000
00001000
00200000
00000000
,
00000000
00000000
00301000
00010000
00000010
00000000
00000100
00000001
,
00001000
00000001
00000010
00001000
00000000
00000000
00011000
00000000
,
00020000
01030000
00020000
00031000
,
00020000
00000000
00030010
00000000
00010000
00001000
00010000
00000000
,
00001000
00000000
00010000
00001000
00100000
00000000
01000000
10000000
,
00010000
10000000
00100000
00010000
00000000
00000000
00011000
00000000
,
00002000
00003100
00002000
00013000
,
00002000
00000000
00103000
00000000
00001000
00010000
00001000
00000000
,
00010000
00000000
00100000
00000000
10000000
00000000
00010000
00000000
00100000
00000000
01000000
00000000
10000000
00010000
01000000
00000000
,
00100000
00000000
00010000
00000000
00001000
00000000
00100000
00001000
00010000
00001000
00000000
00010000
00000100
00000000
00001000
00000000
,
00000001
00000000
00000100
00000010
00000100
00000000
00000010
00000000
00010000
00001000
00010000
00000000
00001000
00000000
00100000
01000000
,
00100000
00000000
01000000
00000000
10000000
00010000
10000000
00000000
00010000
00000000
01000000
00000000
00100000
00000000
00010000
00000000
,
00001000
00000000
00100000
00000000
00001000
00000000
00010000
00000000
00000100
00000000
00000010
00000001
00001000
00000000
00000001
00000000
,
00001001
00000000
00000000
00000000
00001000
00000010
00000000
00000010
00000100
00001000
00000000
00010000
00000000
00001000
00000000
00000000
,
00100000
00000000
00010000
00000000
10000000
00100000
01000000
00100000
10000000
00000000
00000000
00000000
00010000
10000000
01000000
00100000
,
00020000
00000000
00000000
10000000
00000000
00000000
00130000
00000000
00002000
00000000
00000000
00010000
00000000
00000000
01003000
00000000
,
00001000
00000000
00010000
00020000
00000000
00000000
00030100
00000000
,
00000010
00000001
00001000
00001000
00000000
00000010
00010010
00000000
,
00010000
00000000
00001000
00002000
00000000
00000000
01003000
00000000
,
00100000
10000000
00010000
00010000
00000000
00100000
00101000
00000000
,
00001000
00000000
00010000
00000000
00100000
00000000
10000000
00000000
01000000
10000000
00100000
00000000
01000000
00000000
00001000
00000000
,
00010000
00000000
00001000
00000000
00000010
00000000
00000001
00000000
00000100
00000001
00000010
00000000
00000100
00000000
00010000
00000000
,
00001000
00000000
01000000
00000000
00100000
00000000
10000000
00000000
00010000
00100000
01000000
00000000
10000000
00010000
01000000
00000000
,
00001000
00010000
00001000
00010000
00001000
00010000
00001000
00000000
00000100
00000000
00000001
00000000
00001000
00000100
00000010
00000000
,
00000001
00000000
00000100
00001000
00000000
00000000
00001000
00000000
00010000
00000000
00100000
10000000
00000000
00000000
00010000
00000000
,
10000000
00000000
01000000
00010000
00000000
00000000
00010000
00000000
00001000
00000000
00000010
00000001
00000000
00000000
00001000
00000000
,
00000001
00000100
00000010
00000000
00001000
00000010
00010000
00000000
00001000
00100000
00010000
00000000
00100000
01000000
10000000
00000000
,
00010000
00000000
01000000
00100000
00000000
10000000
00010000
00000000
00100000
00001000
00010000
00001000
00100000
00000000
00001000
00000000
,
00022000
00000000
00000000
00000000
,
00000000
00000000
00000000
00000000
,
00033000
00000000
00000000
00000000
,
00000000
00000000
00000000
00000000
,
00010000
00001000
00010000
00001000
00010000
00001000
00000000
00000000
00000000
00000000
00000000
00000000
00000000
00000000
00000000
00000000
,
00000000
00000000
00000000
00000000
,
00100000
00010000
00100000
00010000
00100000
00010000
00000000
00000000
00000000
00000000
00000000
00000000
00000000
00000000
00000000
00000000
,
10000000
00100000
10000000
00100000
10000000
00100000
00000000
00000000
00000000
00000000
00000000
00000000
00000000
00000000
00000000
00000000
,
01000000
00001000
01000000
00001000
01000000
00001000
00000000
00000000
00000000
00000000
00000000
00000000
00000000
00000000
00010000
00001000
,
00010000
00001000
00010000
00001000
00000000
00000000
00000000
00000000
00010000
00000000
00000000
00000000
00000100
00000000
00000000
00000000
,
00000010
00000001
00000010
00000001
00001000
00000010
00000000
00000000
00001000
00000010
00001000
00000010
00010000
00002000
00000000
00000000
,
00000000
00000000
00000000
00000000
,
00013000
00000000
00000000
00100000
00000000
00000000
10000000
00000000
00000000
00000000
00010000
00100000
,
01000000
10000000
00000000
00000000
00010000
00000000
00000000
02000000
00000000
03200000
00000000
00000000
,
00310000
00001000
00000100
00000020
00000000
00000000
00000000
00000100
00000000
00001000
00000000
00010030
,
00000010
00001000
00000001
00002000
00000000
00000000
00000100
00000000
00000001
00000000
00003010
00000000
,
00010000
00000000
00000000
00010000
00000000
00000000
00001000
00010000
00100000
01000000
00000000
00000000
,
00010000
10000000
01000000
10000000
00010000
01000000
00010000
01000000
00001000
00010000
00000100
00001000
,
00000100
00000010
00000001
00001000
00000010
00001000
00000010
00000100
00001000
00010000
00000000
00100000
,
01000000
00010000
01000000
00100000
10000000
00010000
00100000
01000000
00100000
00001000
00010000
00001000
,
00010000
00000000
00000100
00000000
00000010
00000000
00000001
00001000
00000100
00000010
00000001
00000000
00000000
00002000
00000000
00000000
,
00003010
00000000
00000100
00000000
00001000
00000000
00020000
00000000
00000000
00030010
00000000
00000000
00010000
00000000
00002000
00000000
,
00100000
00000000
00010000
00000000
01003000
00000000
00000000
00200000
00000000
00000000
10300000
00000000
00010000
00000000
00100000
00000000
,
00001000
00010000
00000100
00000000
00001000
00000100
00000010
00000000
00000001
00001000
00000010
00010000
00001000
00010000
00000010
00000000
,
00010000
00000000
00001000
00000000
00100000
00000000
01000000
10000000
00000000
00010000
01000000
00100000
00000000
02000000
00000000
00000000
,
03100000
00000000
00010000
00000000
00001000
00000000
00200000
00000000
00000000
00301000
00000000
00000000
00020000
00000000
00030100
00000000
,
00001000
00000100
00000010
00000001
00000100
00000000
00000010
00000000
00001000
00000010
00010000
00001000
00010000
00000000
00001000
00000000
,
00100000
00000000
00010000
00000000
00010000
00000000
00010000
00000000
10000000
00100000
01000000
00010000
01000000
00001000
00020000
00000000
,
00000000
00000000
00000000
00000000
,
00000000
00000000
00000000
00000000
,
00030100
00000010
00000000
00000001
00001000
00000000
00000010
00000000
00000400
00000000
00000000
00000000
00000301
00000000
00001000
00000000
,
00000100
00010000
00001000
00010000
00001000
00100000
00010000
00100000
01000000
10000000
00100000
01000000
00010000
01000000
00001000
00010000
,
00000000
00022000
00000000
00000000
,
00000000
00000000
00000000
00000000
,
00000000
00000000
00000000
00000000
,
00000000
00000000
00000000
00000000
,
00033000
00000000
00000000
00000000
;

//---------------dance-single - ----------------
#NOTEDATA:;
#CHARTNAME:;
#STEPSTYPE:dance-single;
#DESCRIPTION:;
#CHARTSTYLE:;
#DIFFICULTY:Easy;
#METER:12;
#RADARVALUES:0.444491,0.614100,0.081880,0.218347,0.092115,456.000000,444.000000,12.000000,32.000000,0.000000,0.000000,1.000000,0.000000,0.000000,0.444491,0.614100,0.081880,0.218347,0.092115,456.000000,444.000000,12.000000,32.000000,0.000000,0.000000,1.000000,0.000000,0.000000;
#CREDIT:Kekkle;
#NOTES:
0000
0000
0000
0000
,
0000
0000
0000
0000
,
0000
0000
0000
0000
,
0000
0000
0000
0000
,
0000
0000
0000
0000
,
0000
0000
0000
0000
,
1000
0100
0010
0001
,
1000
0010
0100
0010
1000
0001
0010
0100
,
0040
0000
0000
0000
,
0030
0000
0000
0000
,
0001
1000
0020
0000
0130
0001
1000
0100
,
0020
0000
0000
0032
0000
0000
2003
0000
0000
3020
0000
0000
0000
0130
0000
0000
,
1001
1000
0100
0010
,
0001
1000
0010
0200
0000
0000
0310
0000
,
1000
0001
0010
0100
,
1000
0001
0100
0020
0000
0000
0130
0000
,
0001
1000
0100
1000
,
0001
0100
0010
2000
0000
0000
3010
0000
,
1000
0001
0100
0001
,
1000
0100
0010
0002
0000
0000
0000
0000
,
1003
0010
0100
0010
1000
0000
0001
0000
,
0010
0000
0000
0010
0000
0000
0100
0000
1000
0000
0001
0000
0000
0000
0100
0000
,
0010
1000
0001
0000
0010
0100
1000
0000
,
0001
0100
0010
0100
0001
1000
0000
0100
,
0020
0000
0000
0000
0000
0000
0031
0000
1000
0000
0010
0000
0000
0100
0000
0000
,
0002
0000
1003
0200
0000
0310
0001
1000
,
0010
0000
0100
0000
0001
0000
0100
0000
0010
0000
1000
0000
0000
1000
0000
0000
,
0001
0010
0100
0010
0001
1000
0010
0000
,
0001
0000
0010
0000
0100
0001
1000
0100
,
0010
0100
1000
0000
0001
0100
0010
0000
,
0001
0000
0010
0000
1000
0001
0010
0100
,
0010
0001
1000
0000
0001
0100
0010
0000
,
0001
0000
0010
0000
1000
0001
0010
0000
,
0100
0000
0100
1000
0001
0000
1000
0000
,
0010
0000
0000
0100
0000
0000
0020
0000
0000
0000
0000
0000
1030
0000
0000
0000
,
0001
0010
0100
0010
0001
0100
0001
0020
,
0000
0130
1000
0000
,
0001
0100
0010
2000
0000
0000
3001
0000
,
1000
1000
0001
0001
,
0010
0000
0100
0000
1000
0001
1000
0000
,
0010
0100
0001
0000
,
1000
0100
0010
0002
0000
0000
1003
0000
,
0001
0001
1000
1000
,
0010
0000
0100
0000
0001
1000
0001
0000
,
0010
0001
0010
0001
0100
0010
1000
0000
,
0010
1000
0010
1000
0100
0010
0001
0000
,
1000
0010
0010
1000
0001
0001
0010
0100
,
0100
0010
0001
0001
1000
0010
0100
0001
,
0010
0100
1000
0100
0010
0001
0100
0010
,
2000
0000
3001
0000
0010
0100
0010
0000
,
0001
1000
0010
0100
0001
0000
0010
0100
,
1000
0000
0000
1000
0000
0000
1000
0000
0001
0000
0000
0001
0000
0000
0001
0000
,
0100
0010
1000
0020
0000
0000
0130
0000
,
0001
0000
1000
0000
0100
0010
0110
0000
,
0100
0010
0001
0020
0000
0000
0130
0000
,
1000
0000
0001
0000
0100
0010
0110
0000
,
0100
0001
0010
0000
0100
1000
0100
0010
,
0100
1000
0010
0000
0100
0001
0100
0010
,
0100
0001
0010
0000
0100
1000
0010
0100
,
0001
0100
0001
0100
0010
1000
0100
0010
,
0001
0000
0000
0010
0000
0000
0011
0000
0001
0000
0000
1000
0000
0000
1010
0000
,
0010
0000
0000
0100
0000
0000
0101
0000
0001
0000
0000
1000
0000
0000
1100
0000
,
0100
0010
0001
0100
0010
1000
0010
0100
,
0001
0000
0000
0001
0000
0000
0001
0000
1000
0000
0100
0000
0010
0000
0001
0000
,
0200
0000
0000
0000
,
0000
0000
0000
0000
,
0300
0000
0000
0000
,
0000
0000
0000
0000
,
0002
0003
0000
0000
,
0000
0000
0000
0000
,
2000
3000
0000
0000
,
0200
0300
0000
0000
,
0020
0000
0030
0000
0000
0000
0000
0002
,
0000
0003
0000
0000
0000
0000
0000
0000
,
1000
0010
0200
0000
0301
0010
0200
0000
,
0000
0000
0000
0000
,
1300
0000
0000
1000
0000
0000
1000
0000
0000
0000
0000
0001
,
0100
0010
1000
0001
,
0010
0000
0000
0010
0000
0000
0100
0000
0000
1000
0000
0001
,
0100
0010
1000
1000
,
0100
0000
0000
0010
0000
0000
0001
0000
1000
0001
0000
0000
,
0100
0010
1000
0001
,
0010
0000
0001
0010
0000
0000
0100
0000
0000
1000
0000
0001
,
0100
0010
0001
0010
,
1000
0001
0010
0100
1000
0001
0000
0100
,
0010
1000
0100
0010
0001
0100
0010
1000
,
0100
0010
0200
0000
1300
0001
0100
0010
,
1000
1000
0001
0001
0010
0100
0010
0001
,
1000
0000
0000
0010
0000
0000
0101
0000
0001
0000
0000
0010
0000
0000
1100
0000
,
1000
0000
0000
0100
0000
0000
0011
0000
0001
0000
0000
0100
0000
0000
1010
0000
,
0010
1000
0200
0000
0310
0001
0200
0000
,
0310
0000
1000
0000
1000
0000
1000
0000
0100
0000
0010
0000
0001
1000
0001
0000
,
0000
0000
0000
0000
,
0000
0000
0000
0000
,
1000
0000
0000
1000
0000
0000
0010
0000
0100
0000
0001
0000
1000
0000
1000
0000
,
0100
0000
0010
0000
0001
0000
0100
0000
0010
0000
1000
0000
0001
1000
0001
1000
,
0000
2002
0000
0000
,
0000
0000
0000
0000
,
0000
0000
0000
0000
,
0000
0000
0000
0000
,
3003
0000
0000
0000
;

//---------------dance-double - ----------------
#NOTEDATA:;
#CHARTNAME:;
#STEPSTYPE:dance-double;
#DESCRIPTION:;
#CHARTSTYLE:;
#DIFFICULTY:Easy;
#METER:12;
#RADARVALUES:0.426946,0.545866,0.027293,0.218347,0.098938,438.000000,434.000000,4.000000,32.000000,0.000000,0.000000,1.000000,0.000000,0.000000,0.426946,0.545866,0.027293,0.218347,0.098938,438.000000,434.000000,4.000000,32.000000,0.000000,0.000000,1.000000,0.000000,0.000000;
#CREDIT:Kekkle;
#NOTES:
00000000
00000000
00000000
00000000
,
00000000
00000000
00000000
00000000
,
00000000
00000000
00000000
00000000
,
00000000
00000000
00000000
00000000
,
00000000
00000000
00000000
00000000
,
00000000
00000000
00000000
00000000
,
10000000
01000000
00100000
00010000
,
00001000
00000100
00000010
00000001
00001000
00000010
00000100
00000000
,
00000040
00000000
00000000
00000000
,
00000030
00000000
00000000
00000000
,
00001000
00000001
00000010
00000000
00000100
00001000
00000001
00000100
,
00000020
00000000
00000000
00020030
00000000
00000000
00032000
00000000
00000000
00203000
00000000
00000000
00000000
00301000
00000000
00000000
,
00011000
00010000
00100000
00000000
,
10000000
00010000
00100000
02000000
00000000
00000000
03100000
00000000
,
00001000
00010000
00000010
00000000
,
00001000
00000010
00000100
00000002
00000000
00000000
00001003
00000000
,
00000100
00010000
00001000
00000000
,
01000000
00010000
00100000
02000000
00000000
00000000
13000000
00000000
,
00010000
01000000
00001000
00000000
,
00010000
00000100
00001000
00000020
00000000
00000000
00000000
00000000
,
00000130
00000001
00001000
00000000
00000001
00000010
00000100
00000000
,
00001000
00000000
00000000
00001000
00000000
00000000
00000100
00000000
00010000
00000000
00001000
00000000
00000000
00000000
01000000
00000000
,
00010000
10000000
01000000
00000000
00100000
00010000
10000000
00000000
,
00100000
01000000
00001000
00010000
00000100
00010000
00000000
00000100
,
00000020
00000000
00000000
00000000
00000000
00000000
00000031
00000000
00001000
00000000
00000010
00000000
00000000
00000100
00000000
00000000
,
00000001
00001000
00000100
00000010
00000100
00001000
00000010
00010000
,
00001000
00000000
00100000
00000000
00010000
00000000
10000000
00000000
00100000
00000000
01000000
00000000
00000000
01000000
00000000
00000000
,
00010000
10000000
01000000
00100000
00010000
10000000
00100000
00000000
,
00010000
00000000
00100000
00000000
01000000
00001000
00010000
00000100
,
00010000
00000100
00001000
00000100
00000010
00000001
00000100
00000000
,
00001000
00000000
00000100
00000000
00000010
00001000
00000001
00000010
,
00000100
00001000
00000010
00010000
00000010
00010000
00001000
00000000
,
00000100
00000000
00001000
00000000
00010000
00001000
00100000
00010000
,
10000000
10000000
00100000
00000000
01000000
00010000
10000000
00000000
,
01000000
00000000
00000000
00100000
00000000
00000000
02000000
00000000
00000000
00000000
00000000
00000000
03100000
00000000
00000000
00000000
,
00001000
00000000
00010000
00000000
00000010
00000100
00000001
00000020
,
00000000
00000130
00001000
00000000
,
00000001
00000100
00000010
00020000
00000000
00000000
00031000
00000000
,
00010000
00010000
00001000
00001000
,
00100000
00000000
01000000
00000000
10000000
00010000
10000000
00000000
,
00100000
01000000
00010000
00000000
,
10000000
01000000
00100000
00002000
00000000
00000000
00013000
00000000
,
00001000
00001000
00010000
00010000
,
00000010
00000000
00000100
00000000
00000001
00001000
00000001
00000000
,
00001000
00000100
00001000
00000100
00010000
00001000
00100000
00000000
,
00010000
01000000
00010000
01000000
00001000
00010000
00000010
00000000
,
00020000
00000000
00031000
02000000
00000000
03100000
20000000
00000000
,
30010000
00200000
00000000
01300000
10000000
00010000
00100000
00000000
,
00001000
00000000
00010000
00000000
00000010
00000100
00000001
00001000
,
00000200
00000000
00000310
00000000
00000001
00001000
00000001
00000000
,
00000100
00000010
00010000
00001000
00100000
00000000
00001000
00010000
,
00001000
00000000
00000000
00001000
00000000
00000000
00001000
00000000
00010000
00000000
00000000
00010000
00000000
00000000
00010000
00000000
,
00001000
01000000
00100000
02000000
00000000
00000000
03010000
00000000
,
10000000
00000000
01000000
00000000
00010000
00001000
00011000
00000000
,
00010000
00000100
00000010
00000200
00000000
00000000
00001300
00000000
,
00000001
00000000
00000100
00000000
00001000
00010000
00011000
00000000
,
00001000
01000000
00001000
00100000
00010000
00100000
01000000
00000000
,
10000000
01000000
10000000
00100000
01000000
00001000
00010000
00000000
,
00000100
00001000
00000100
00000010
00000001
00001000
00000010
00000000
,
00010000
00001000
00010000
00001000
00010000
00001000
00100000
00000000
,
00010000
00000000
00000000
10000000
00000000
00000000
01000000
00000000
00010000
00000000
00000000
00001000
00000000
00000000
00000100
00000000
,
00000001
00000000
00000000
00000010
00000000
00000000
00001000
00000000
00010000
00000000
00000000
00100000
00000000
00000000
10000000
00000000
,
00010000
00000000
00000000
01000000
00000000
00000000
00100000
00000000
00010000
00000000
00000000
00001000
00000000
00000000
00000100
00000000
,
00000001
00000000
00000000
00000001
00000000
00000000
00001000
00000000
00000100
00000000
00000010
00000000
00000100
00000000
00010000
00000000
,
00002000
00000000
00000000
00000000
,
00000000
00000000
00000000
00000000
,
00003000
00000000
00000000
00000000
,
00000000
00000000
00000000
00000000
,
00020000
00030000
00000000
00000000
,
00000000
00000000
00000000
00000000
,
00002000
00003000
00000000
00000000
,
02000000
03000000
00000000
00000000
,
00200000
00000000
00300000
00000000
00000000
00000000
00000000
20000000
,
00000000
30000000
00000000
00000000
00000000
00000000
00000000
00000000
,
00010000
00100000
02000000
00000000
03100000
00001000
00020000
00000000
,
00000000
00000000
00000000
00000000
,
00031000
00000000
00000000
00100000
00000000
00000000
00001000
00000000
00000000
00010000
00000000
00000100
,
00001000
00000001
00000100
00000010
,
00010000
00000000
00001000
00010000
00000000
00000000
00100000
00000000
00000000
00100000
00000000
00000000
,
10000000
00000000
00010000
00100000
00000000
00000000
01000000
00000000
00000000
01000000
00000000
00000000
,
00010000
00000000
00000000
00001000
00000000
00000000
00100000
00000000
00001000
00010000
00000000
00000000
,
00001000
00000000
00000000
00000100
00000000
00000000
00000001
00000000
00000000
00001000
00000000
00000100
,
00000010
00000000
00000000
00000001
00000000
00000000
00001000
00000000
00000010
00000100
00000000
00000000
,
00001000
00010000
00100000
10000000
,
00010000
00100000
01000000
00100000
00010000
10000000
00000000
00100000
,
01000000
00010000
00100000
00001000
00010000
00000010
00001000
00000100
,
00000010
00000001
00000100
00000010
00010000
00001000
00100000
00000000
,
00001000
00010000
00000100
00010000
00001000
00100000
00010000
10000000
,
00100000
00000000
00000000
00010000
00000000
00000000
00001000
00000000
00000100
00000000
00000000
00000001
00000000
00000000
00000010
00000000
,
00001000
00000000
00000000
00010000
00000000
00000000
01000000
00000000
10000000
00000000
00000000
00100000
00000000
00000000
00010000
00000000
,
00001000
00000100
00002000
00000000
00013000
01000000
00020000
00000000
,
00031000
00000000
00100000
00000000
00010000
00000000
10000000
00000000
00100000
00000000
01000000
00000000
00010000
10000000
00010000
00000000
,
00000000
00000000
00000000
00000000
,
00000000
00000000
00000000
00000000
,
10000000
00000000
00000000
10000000
00000000
00000000
01000000
00000000
00100000
00000000
00010000
00000000
10000000
00000000
00100000
00000000
,
00010000
00000000
00001000
00000000
00000100
00000000
00000001
00000000
00001000
00000000
00000100
00000000
00000010
00000100
00000010
00000000
,
00000000
00002002
00000000
00000000
,
00000000
00000000
00000000
00000000
,
00000000
00000000
00000000
00000000
,
00000000
00000000
00000000
00000000
,
00003003
00000000
00000000
00000000
;

//---------------dance-single - ----------------
#NOTEDATA:;
#CHARTNAME:;
#STEPSTYPE:dance-single;
#DESCRIPTION:;
#CHARTSTYLE:;
#DIFFICULTY:Beginner;
#METER:9;
#RADARVALUES:0.284630,0.443516,0.027293,0.061410,0.000000,292.000000,288.000000,4.000000,9.000000,0.000000,0.000000,0.000000,0.000000,0.000000,0.284630,0.443516,0.027293,0.061410,0.000000,292.000000,288.000000,4.000000,9.000000,0.000000,0.000000,0.000000,0.000000,0.000000;
#CREDIT:Kekkle;
#NOTES:
0000
0000
0000
0000
,
0000
0000
0000
0000
,
0000
0000
0000
0000
,
0000
0000
0000
0000
,
0000
0000
0000
0000
,
0000
0000
0000
0000
,
0001
0000
0001
0000
,
1000
0100
0010
0001
,
2000
0000
0000
0000
,
3000
0000
0000
0000
,
0001
0001
1000
1000
,
0200
0000
0000
0000
0000
0000
0000
0000
0000
0000
0000
0000
0000
0300
0000
0000
,
2001
0000
0000
0000
,
3010
0000
0100
0000
0001
1000
0001
0000
,
2000
0000
0000
0000
,
3100
0000
0010
0000
0001
1000
0001
0000
,
0100
0010
1000
0000
,
0010
0000
0100
0010
0000
0000
0010
0000
,
0100
0001
1000
0000
,
0100
0000
0000
0100
0010
0000
0000
0000
,
0001
1000
0010
0000
,
0100
0000
0100
0000
0010
0100
0000
0000
,
0001
0100
1000
0100
,
0001
0000
1000
0000
0100
0010
0000
0000
,
0001
0000
0001
0100
,
0010
0000
0000
0010
0000
0000
0010
0000
,
1000
0001
0010
0010
,
0100
1000
0001
0100
,
1000
0000
0100
0001
,
0010
0100
1000
0100
,
0001
0000
0100
1000
,
0010
0100
0001
0100
,
1000
0000
0100
0001
,
1000
1000
0100
0010
,
0001
0000
0000
0001
0000
0000
0100
0000
,
0010
0000
1000
0000
0001
1000
0001
2000
,
0000
3000
0100
0000
,
0010
0000
0001
1000
0000
0000
0010
0000
,
0100
0000
0010
0000
,
0100
0001
1000
0000
,
0100
0010
0001
0000
,
1000
0000
0010
0100
0000
0000
0010
0000
,
1000
0000
0001
0000
,
0010
0100
1000
0000
,
0001
0000
0100
0000
0001
1000
0001
0000
,
0010
0100
1000
1000
,
0001
0000
0000
0100
0000
0000
0010
0000
,
0000
1000
0000
0000
0001
0000
0010
0000
,
1000
0010
0001
1000
,
0010
0000
0100
0100
,
0001
0000
0010
0000
0100
0000
1000
0001
,
1000
1000
0001
0001
,
0100
0000
0000
0010
,
1000
0001
0000
1001
,
1000
0000
0000
0100
,
0010
0001
0000
1001
,
1000
0010
0001
0010
,
0100
0000
0001
0000
1000
0001
1000
0000
,
0001
0010
1000
0010
,
0100
0000
1000
0000
0001
1000
0001
0000
,
1000
1000
0001
0001
,
0100
0100
0010
0010
,
1000
0100
0010
0001
,
1000
0000
0010
0000
0100
0010
0100
0020
,
0000
0000
0000
0000
,
0000
0000
0000
0000
,
0030
0000
0000
0000
,
0000
0000
0000
0000
,
1000
0000
0000
0000
,
0000
0000
0000
0000
,
0001
0000
0000
0000
,
0010
0000
0000
0000
,
0100
0000
0000
0000
0000
0000
0000
1000
,
0000
0000
0000
0000
,
0001
0001
1000
2000
,
0000
0000
0000
0000
,
3001
0100
0010
1000
,
0100
0010
0001
0001
,
0100
0010
1000
0001
,
0010
0010
0100
1000
,
0001
0100
0010
0001
,
0010
1000
0001
0010
,
0100
1000
0100
0010
,
0001
0001
0100
0010
,
1000
0000
0010
0000
0100
0000
0001
1000
,
0001
0010
0100
0010
,
1000
0010
0001
1000
,
0010
0100
0010
0000
0100
0010
0100
0000
,
0010
1000
0001
0010
,
1000
0010
0001
1000
,
0010
0100
0010
0000
0100
0010
0100
0000
,
0010
0000
1000
0000
0001
1000
0001
1000
,
0000
0000
0000
0000
,
0000
0000
0000
0000
,
0001
0010
0100
1000
,
0001
1000
0001
1000
0001
1000
0001
1000
,
0000
2002
0000
0000
,
0000
0000
0000
0000
,
0000
0000
0000
0000
,
0000
0000
0000
0000
,
3003
0000
0000
0000
;
