#TITLE:SKIBIDI;
#SUBTITLE:(Romantic Version);
#ARTIST:Little Big;
#TITLETRANSLIT:;
#SUBTITLETRANSLIT:;
#ARTISTTRANSLIT:;
#GENRE:;
#CREDIT:;
#BANNER:Skibidi (Romantic Version).png;
#BACKGROUND:Skibidi (Romantic Version)-bg.png;
#LYRICSPATH:Skibidi (Romantic Version).lrc;
#CDTITLE:;
#MUSIC:Skibidi (Romantic Version).ogg;
#OFFSET:0.005683;
#SAMPLESTART:22.286346;
#SAMPLELENGTH:16.400007;
#SELECTABLE:YES;
#BPMS:0.000000=125.999992
;
#STOPS:
;
#BGCHANGES:0.000=Skibidi (Romantic Version).avi=1.000=0=0=1=====,
99999=-nosongbg-=1.000=0=0=0 // don't automatically add -songbackground-
;
#KEYSOUNDS:;
#ATTACKS:;

//---------------dance-double - ----------------
#NOTES:
     dance-double:
     :
     Hard:
     13:
     0.556651,0.536113,0.161237,0.286643,0.340389,435.000000,417.000000,18.000000,32.000000,12.000000,0.000000,0.556651,0.536113,0.161237,0.286643,0.340389,435.000000,417.000000,18.000000,32.000000,12.000000,0.000000:
// measure 0
00000000
00000000
00000000
00000000
,  // measure 1
00000000
00000000
00000000
00000000
,  // measure 2
00000000
00000000
00000000
00000000
,  // measure 3
00000000
00000000
00000000
00000000
,  // measure 4
10010000
00000000
00000000
10000000
01000000
00000000
00100000
00000000
00010000
00000000
00000000
00010000
02000000
00000000
00000000
00000000
,  // measure 5
03100000
00010000
00001000
00010000
00001000
00000100
00000001
00001000
,  // measure 6
00001001
00000000
00000000
00000001
00000010
00000000
00000100
00000000
00001000
00000000
00000000
00001000
00000020
00000000
00000000
00000000
,  // measure 7
00000130
00001000
00010000
00001000
00010000
00100000
10000000
00010000
,  // measure 8
10000000
00000000
00000000
10000000
01000000
00000000
00100000
00000000
00010000
00000000
00000000
00010000
02000000
00000000
00000000
00000000
,  // measure 9
03100000
00000000
10000000
00010000
10000000
00000000
01000000
00000000
00100000
00000000
00001000
00000000
00010000
00000000
00000000
00000000
,  // measure 10
00001000
00010000
00000000
0001M000
00000000
00100000
00001000
00000000
00000000
00000000
00010000
00000000
00001000
00000000
00000000
00000000
,  // measure 11
00010000
00001000
00000000
000M1000
00000000
00000010
00010000
00000000
00000000
00000000
00000000
00000000
00001000
00010000
00001000
00000000
,  // measure 12
00100000
00000000
00010000
00000000
00120000
00000000
00000000
00000000
10030000
00000000
00100000
00000000
01000000
00010000
10000000
00000000
,  // measure 13
01000000
00000000
01000000
00000000
01000000
00000000
01000000
00000000
01200000
00000000
00000000
00000000
00310000
10000000
00010000
00000000
,  // measure 14
00100000
00001000
00001000
00001000
00001000
00010000
00010000
00000100
,  // measure 15
00000100
00000000
00000010
00000001
00001000
00000000
00000001
00000000
00001002
00000000
00000000
00000000
00000103
00000010
00001000
00000000
,  // measure 16
00000001
00000010
00000000
00000000
00000000
00000000
00000000
00000000
00000100
00001000
00000000
00000000
00000000
00000000
00000000
00000000
00020000
00001000
00000000
00000000
00000000
00000000
00000000
00000000
00031000
00000000
01000000
00000000
00001000
00000000
00000000
00000000
,  // measure 17
00010000
00000000
00000000
00000000
01000000
00000000
00000000
00000000
10000000
00000000
00000000
00000000
01000000
00000000
00000000
00000000
00020000
00001000
00000000
00000000
00000000
00000000
00000000
00000000
00030100
00000000
00000010
00000000
00000100
00000000
00000000
00000000
,  // measure 18
00001000
00000010
00000001
00000010
00000100
00000001
00000001
00001000
,  // measure 19
00000001
00000100
00000000
0000010M
00001000
00000000
00000001
00000010
00000000
0000001M
00001000
00000000
00000100
00000000
00000000
00000000
,  // measure 20
00020100
00000000
00001000
00000000
00000010
00000100
00001000
00000000
,  // measure 21
00000100
00000100
00000010
00000010
00000100
00001000
00031000
00000000
,  // measure 22
00002000
00000000
00010000
00000000
01000000
00100000
00010000
00000000
,  // measure 23
00103000
00000000
00000000
00000000
00100000
00000000
00000000
00000000
00010000
00000000
00000000
00000000
10000000
00000000
00000000
00000000
00100000
00000000
00000000
00000000
01000000
00000000
00000000
00000000
00013000
10000000
00000000
00000000
00000000
00000000
00000000
00000000
,  // measure 24
10000000
00000000
01000000
00100000
01000000
00000000
00100000
00000000
00010000
00000000
00M10000
00000000
00000200
00000000
00000000
00000000
,  // measure 25
00000310
00000000
00000001
00001000
00000001
00000000
00000100
00000000
00000010
00000000
00001000
00000000
00000001
00000000
00000000
00000000
,  // measure 26
00000001
00000000
00000010
00000100
00000010
00000000
00000100
00000000
00001000
00000000
00001M00
00000000
00200000
00000000
00000000
00000000
,  // measure 27
00310000
00000000
00000000
00000000
01000000
00000000
00000000
00000000
10000000
00000000
00000000
00000000
01000000
00000000
00000000
00000000
00010000
00000000
00000000
00000000
00100000
00000000
00000000
00000000
00010000
10000000
00000000
00000000
00000000
00000000
00000000
00000000
,  // measure 28
10000000
00000000
01000000
00000000
12000000
00000000
00000000
00000000
03100000
00000000
00010000
00000000
10000000
00100000
10000000
00000000
,  // measure 29
00010000
00000000
00010000
00000000
01000000
00000000
01000000
00000000
00002000
00000000
00000000
00000000
00013000
00000100
00010000
00000000
,  // measure 30
00000100
00000010
00000001
00000100
00001000
00010000
00100000
10000000
,  // measure 31
00010000
00000000
10000000
01000000
10000000
00000000
00010000
00000000
02000000
00000000
00000000
00000000
03001000
00010000
00001000
00000000
,  // measure 32
00011000
00000000
00000000
00000000
00101000
00000000
00000000
00000000
00010020
00000000
00000000
00000000
00001030
00000100
00010000
00000000
,  // measure 33
00001000
00000000
00001000
00000000
00001000
00000000
00001000
00000000
00020000
00000000
00000000
00000000
00031000
00100000
00001000
00000000
,  // measure 34
00100000
00010000
01000000
10000000
01000000
00010000
00010000
00100000
,  // measure 35
00010000
01000000
00000000
010M0000
10000000
00000000
00010000
00100000
00000000
001M0000
10000000
00000000
00010000
00100000
00001000
00010000
,  // measure 36
00000000
00000000
00000000
00011000
,  // measure 37
00101000
00000000
00011000
00000000
00010200
00000000
00000000
00000000
00000310
00000000
00000001
00000000
00001000
00000010
00001000
00000000
,  // measure 38
00000001
00000000
00000100
00000000
00001000
00000000
00010000
00000000
00012000
00000000
00000000
00000000
00103000
00010000
00100000
00000000
,  // measure 39
00010000
10000000
00010000
10000000
00010000
01000000
01000000
00100000
,  // measure 40
00100000
00000000
10000000
01000000
00100000
00000000
00001000
00000000
00201000
00000000
00000000
00000000
00310000
01000000
00010000
00000000
,  // measure 41
10000000
01000000
00000000
00000000
00000000
00000000
00000000
00000000
00100000
00010000
00000000
00000000
00000000
00000000
00000000
00000000
00002000
00010000
00000000
00000000
00000000
00000000
00000000
00000000
00013000
00000000
00000010
00000000
00010000
00000000
00000000
00000000
,  // measure 42
00001000
00000000
00000000
00000000
00000010
00000000
00000000
00000000
00000001
00000000
00000000
00000000
00000010
00000000
00000000
00000000
00002000
00010000
00000000
00000000
00000000
00000000
00000000
00000000
00103000
00000000
01000000
00000000
00100000
00000000
00000000
00000000
,  // measure 43
00010000
01000000
10000000
01000000
00100000
10000000
10000000
00010000
,  // measure 44
10000000
00100000
00000000
M0100000
00010000
00000000
10000000
01000000
00000000
M1000000
00010000
00000000
10000000
00010000
10000000
00010000
,  // measure 45
20000000
01000000
32000000
00010000
03020000
00001000
00032000
00000100
,  // measure 46
00003200
00000001
00000302
00000010
00000023
00001000
00002030
00010000
,  // measure 47
00013000
00001000
00100000
00001000
00010000
00000010
00010000
00001000
,  // measure 48
00100000
00010000
01000000
00001000
00010000
00000100
00000110
00000000
,  // measure 49
00000001
00000000
00000000
00000001
00000100
00000000
00000000
00000100
00001000
00000000
00000000
00001000
00010000
00000000
00000000
00010000
,  // measure 50
00100000
00000000
00000000
00100000
10000000
00000000
00000000
10000000
01000000
00000000
00000000
01000000
00010000
00000000
00000000
00010000
,  // measure 51
00001000
00100000
00001000
00010000
00000010
00001000
00000010
00010000
,  // measure 52
00001000
00010000
00000000
0001M000
00100000
00000000
00001000
00010000
00000000
0001M000
00100000
00000000
00001000
00010000
00001000
00010000
,  // measure 53
00002000
00000000
00000010
00000000
00010000
00010000
00013000
00000000
,  // measure 54
00001000
00010000
00100000
10000000
01000000
00010000
00001000
00000000
,  // measure 55
00020000
00000000
01000000
00000000
00001000
00001000
00031000
00000000
,  // measure 56
00010000
00000000
00000000
00000000
00001000
00000000
00000000
00000000
00000100
00000000
00000000
00000000
00000001
00000000
00000000
00000000
00000010
00000000
00000000
00000000
00001000
00000000
00000000
00000000
00010000
00001000
00000000
00000000
00000000
00000000
00000000
00000000
,  // measure 57
00011000
00000000
00000000
00000000
;

//---------------dance-single - ----------------
#NOTES:
     dance-single:
     :
     Medium:
     9:
     0.399253,0.408467,0.214982,0.277686,0.013436,312.000000,288.000000,24.000000,31.000000,0.000000,0.000000,0.399253,0.408467,0.214982,0.277686,0.013436,312.000000,288.000000,24.000000,31.000000,0.000000,0.000000:
0000
0000
0000
0000
,
0000
0000
0000
0000
,
0000
0000
0000
0000
,
0000
0000
0000
0000
,
1000
0000
0000
0100
0000
0000
0010
0000
0002
0000
0000
0003
1000
0000
0000
0000
,
0000
0001
0100
0000
0010
0000
1000
0000
,
0001
0000
0000
0010
0000
0000
0100
0000
2000
0000
0000
0000
3001
0000
0000
0000
,
0000
1000
0010
0000
0100
0000
0001
0000
,
1000
1100
0001
0101
,
0000
1000
0001
1000
0200
0000
0310
0000
,
0001
0010
0001
0010
0100
0000
1000
0000
,
0001
0100
0001
0100
0000
0000
0000
0000
,
0001
1000
0200
0000
0300
0000
1000
0000
,
0001
0010
0001
0010
0002
0000
1003
0000
,
0001
0100
0001
0100
0001
0100
0100
0010
,
0010
1000
0001
1000
0002
0000
1003
0000
,
1100
0101
2001
3010
,
1000
0001
1000
0001
0200
0000
0310
0000
,
1000
0100
1000
0100
1000
0001
0001
1000
,
1000
0001
0100
0010
2000
0000
3001
0000
,
1000
0000
0001
0000
0100
0100
0100
0000
,
0001
0001
1000
1000
0001
1000
0100
0000
,
1000
0000
0001
0000
0010
0010
0010
0000
,
0001
0001
1000
1000
0001
1000
0010
0000
,
1000
0000
1010
0000
0001
0100
1001
0000
,
0001
0010
1000
0010
0001
1000
0001
0000
,
1000
0000
0101
0000
0001
0100
1001
0000
,
0001
0010
1000
0010
0001
1000
0010
0000
,
2000
0100
0100
0010
,
3002
0100
0100
0010
,
2003
0100
0001
0010
,
3002
0100
2003
0100
,
3001
1001
2100
3001
,
1000
0001
1000
0001
0200
0000
0301
0000
,
0100
0010
0100
0010
0100
0010
0010
1000
,
0001
0010
0100
1000
0010
0100
0001
1000
,
0000
0000
0000
1001
,
0001
0100
0020
0000
1030
0000
0001
1000
,
0100
0010
0100
0010
0002
0000
1003
0000
,
0001
0001
1000
1000
0010
0010
0100
0100
,
0001
0010
0100
1000
0002
0000
1003
0000
,
1100
0110
1002
0103
,
0001
0100
0010
0100
0020
0000
1030
0000
,
0001
1000
0001
1000
0001
0100
0100
0001
,
0010
0100
1000
0010
0200
0000
0301
0000
,
2010
0001
3100
1100
,
0012
1000
0103
0101
,
0001
1000
0010
0000
1000
0001
0010
0000
,
0001
1000
0100
1000
0001
0100
0010
0000
,
2000
0010
3100
1100
,
0002
0010
0103
0101
,
1000
0001
1000
0001
0100
0010
1000
0000
,
0001
0010
0100
0000
2000
0000
3001
0000
,
2002
0000
3003
0000
0001
1000
0010
0000
,
1000
1000
0010
0000
0100
0100
0001
0000
,
2002
0000
3003
0000
1000
0100
0010
0000
,
0001
0001
0010
0000
0100
0100
1000
0000
,
1001
0000
0000
0000
;

//---------------dance-single - ----------------
#NOTES:
     dance-single:
     :
     Challenge:
     16:
     0.653905,0.765875,0.519541,0.295601,0.456838,511.000000,453.000000,58.000000,33.000000,33.000000,21.000000,0.653905,0.765875,0.519541,0.295601,0.456838,511.000000,453.000000,58.000000,33.000000,33.000000,21.000000:
0000
0000
0000
0000
,
0000
0000
0000
0000
,
0000
0000
0000
0000
,
0000
0000
0000
0000
,
0101
0000
0000
010M
1000
0000
0001
0000
0100
0000
0000
010M
4000
0000
3004
0000
,
3103
0000
0001
0010
0100
0000
1000
0001
1000
0000
0001
0100
0010
0000
1000
0000
,
1010
0000
0000
M010
0001
0000
1000
0000
0010
0000
0000
M010
0002
0000
0000
0000
,
1003
0000
0001
0010
0100
0000
1000
0010
1000
0000
0001
0010
0100
0000
1000
0000
,
1001
0000
0000
0001
1100
0000
0001
0000
0001
0000
0000
0001
2100
0000
0000
0000
,
3010
0000
1000
0100
0010
0000
0001
0000
1000
0000
0001
0100
0002
0000
2033
0000
,
3001
0010
0000
001M
0000
0100
0001
0000
1000
0000
0100
0000
M100
0000
0100
0000
,
1000
0010
0000
M010
0000
0100
1000
0000
0000
0000
0000
0000
0001
1000
0010
0000
,
1010
0000
0110
0000
0102
0000
0000
0000
1003
0000
0001
0000
0010
0100
1000
0000
,
0001
0000
0100
0000
1000
0000
0100
0000
0010
0000
1000
0000
0001
1000
0010
0000
,
1000
M001
100M
M001
100M
M001
M001
100M
,
M001
0000
1000
0001
1000
0000
M001
0000
0200
0000
0000
0000
0310
1000
0100
0000
,
1000
0010
0000
0000
0000
0000
0000
0000
0100
0001
0000
0000
0000
0000
0000
0000
0002
1000
0000
0000
0000
0000
0000
0000
3013
0000
0100
0000
1000
0000
0000
0000
,
M010
0000
0000
0000
001M
0000
0000
0000
M010
0000
0000
0000
001M
0000
0000
0000
0001
2000
0000
0000
0000
0000
0000
0000
3100
3000
0010
0000
0002
0000
0000
0000
,
1103
0011
1100
0011
1100
0010
0010
1000
,
0001
0000
1000
0100
0010
0000
0M10
1000
0001
1000
0001
0000
0000
0000
0000
0000
,
1002
0000
0100
0000
0010
0100
1000
0000
,
0100
0100
1000
0100
0010
1003
0001
1001
,
2000
0000
0010
0000
0100
0010
0001
0000
,
3010
0000
0000
0000
0010
0000
0000
0000
1000
0001
0000
0000
1000
0001
0000
0000
1000
0000
0000
0000
0010
0000
0000
0000
0100
0000
0000
0000
0M00
0000
0000
0000
,
1001
0000
0001
0010
0100
0000
1000
0000
1010
0000
0110
0000
1001
0000
0000
0000
,
0101
0101
1100
1100
0001
1000
0010
1001
,
2000
3100
0002
0103
0010
0010
2001
0000
,
3001
0000
0100
0000
010M
0000
1000
0000
0010
0000
M010
0000
0001
1000
0001
0000
,
1000
0000
0200
0000
1320
0000
0000
0000
0031
0000
1000
0000
0001
0010
0100
0000
,
2000
0000
0011
0000
0011
0000
0011
0000
3011
0000
0000
0000
1000
0001
0020
0000
,
0101
0101
0101
0101
0101
1100
1100
0101
,
0131
0000
0010
0100
1000
0000
0001
0000
1001
0000
0000
0000
1000
0010
0100
0000
,
0001
0100
0000
0000
0000
0000
0000
0000
0010
1000
0000
0000
0000
0000
0000
0000
2000
0001
0000
0000
0000
0000
0000
0000
3103
0000
0010
0000
0001
0000
0000
0000
,
010M
0000
0000
0000
M100
0000
0000
0000
010M
0000
0000
0000
M100
0000
0000
0000
1000
0002
0000
0000
0000
0000
0000
0000
0013
0003
0100
0000
2000
0000
0000
0000
,
3011
1100
0011
1100
0011
0100
0100
0001
,
1000
0100
M100
0001
0100
010M
1000
0010
M010
0001
0010
0100
1000
0001
1000
0001
,
0000
0000
0000
1001
,
0101
0000
0110
0000
2001
0000
0000
0000
3001
0000
1000
0000
0100
0010
0001
0000
,
2000
0000
0010
0000
0001
0000
0100
0000
3101
0000
0000
0000
1000
0100
0010
0000
,
0002
0100
1000
0010
1000
1100
1100
1000
,
0010
0003
1000
0100
0010
0000
0001
0000
1001
0000
0000
0000
0001
0010
0100
0000
,
1000
0100
0000
0000
0000
0000
0000
0000
0010
0001
0000
0000
0000
0000
0000
0000
0002
1000
0000
0000
0000
0000
0000
0000
1003
0000
0010
0000
0200
0000
0000
0000
,
0301
0000
0000
0000
0102
0000
0000
0000
1003
0000
0000
0000
2010
0000
0000
0000
3001
1000
0000
0000
0000
0000
0000
0000
0001
0000
0010
0000
0100
0000
0000
0000
,
1000
0100
0001
0100
1000
0010
0010
1000
,
0010
0000
0001
0010
0100
0000
0001
0000
1000
0001
1000
0000
0001
0010
0100
1000
,
0040
0000
1000
0001
0000
0000
0001
1000
0000
0000
1000
0001
0030
0000
0001
1000
,
0400
0000
1000
0001
0000
0000
0001
1000
0000
0000
1000
0001
0300
0000
0001
1000
,
0001
0000
1000
0100
0010
0001
1000
0000
0001
0000
0100
0000
0010
0000
0010
0000
,
1000
0000
0001
0010
0100
0010
0100
0010
0002
0000
0000
0000
1313
0000
0001
0000
,
0400
0000
0001
1000
0000
0000
1000
0001
0000
0000
0001
1000
0300
0000
1000
0001
,
0040
0000
0001
1000
0000
0000
1000
0001
0000
0000
0001
1000
0030
0000
1000
0001
,
1000
0000
0001
0010
0100
1000
0001
0000
1000
0000
0010
0000
0100
0000
0001
0000
,
1000
0100
M100
0010
1000
0000
0001
0100
010M
0010
0001
0000
1000
0001
1000
0001
,
0200
0000
0010
0000
1000
0010
0301
0000
,
1000
1000
0001
0001
0010
0100
1000
2001
,
3020
0000
0100
0000
0001
0100
1030
0000
,
0001
0001
1000
1000
0100
0010
0001
2000
,
3011
0000
0000
0000
;

//---------------dance-single - ----------------
#NOTES:
     dance-single:
     :
     Hard:
     13:
     0.554092,0.510583,0.170194,0.277686,0.344868,433.000000,414.000000,19.000000,31.000000,16.000000,0.000000,0.554092,0.510583,0.170194,0.277686,0.344868,433.000000,414.000000,19.000000,31.000000,16.000000,0.000000:
0000
0000
0000
0000
,
0000
0000
0000
0000
,
0000
0000
0000
0000
,
0000
0000
0000
0000
,
1001
0000
0000
1000
0100
0000
1000
0000
0001
0000
0000
0001
0200
0000
0000
0000
,
0310
0000
1000
0001
1000
0000
0001
0000
0010
0000
0100
0000
1000
0000
0010
0000
,
1010
0000
0000
0010
0100
0000
0001
0000
0011
0000
0000
0010
0200
0000
0000
0000
,
1300
0010
0001
0010
1000
0001
0010
0100
,
1100
0000
0000
0100
0010
0000
0001
0000
0101
0000
0000
0100
0020
0000
0000
0000
,
1030
0000
0001
0100
0001
0000
1000
0000
0100
0000
0010
0000
0001
0000
0000
0000
,
1000
0010
0000
M010
0000
0001
1000
0000
0000
0000
0001
0000
0100
0000
0100
0000
,
0001
0010
0000
001M
0000
1000
0001
0000
0000
0000
0000
0000
1000
0001
1000
0000
,
0100
0000
0010
0000
0012
0000
0000
0000
1033
0000
0001
0000
0010
0100
1000
0000
,
0001
0000
0001
0000
0001
0000
0001
0000
0201
0000
0000
0000
0310
1000
0001
0000
,
1000
1000
1000
1000
1000
0001
0001
1000
,
1000
0000
0001
0100
0010
0000
1000
0000
1200
0000
0000
0000
0310
0001
1000
0000
,
0001
0100
0000
0000
0000
0000
0000
0000
0001
0100
0000
0000
0000
0000
0000
0000
0002
1000
0000
0000
0000
0000
0003
0000
1000
0000
0100
0000
0010
0000
0000
0000
,
0001
0000
0000
0000
0100
0000
0000
0000
1000
0000
0000
0000
0100
0000
0000
0000
0020
0100
0000
0000
0000
0000
0000
0000
1030
0000
0001
0000
1000
0000
0000
0000
,
0100
0100
0100
0100
0100
0010
0010
0001
,
1000
0100
0000
M100
0001
0000
1000
0010
0000
M010
0001
0000
0000
0000
0000
0000
,
2001
0000
0100
0000
0010
0001
0100
0000
,
0001
0001
0100
0100
0001
0100
3010
0000
,
1002
0000
0010
0000
0100
1000
0010
0000
,
1003
0000
0000
0000
0100
0000
0000
0000
0001
0000
0000
0000
0100
0000
0000
0000
1000
0000
0000
0000
0001
0000
0000
0000
0200
0010
0000
0000
0000
0000
0000
0000
,
0310
0000
1000
0001
1000
0000
0100
0000
0010
0000
0M10
0000
1000
0000
0001
0000
,
0100
010M
0010
0M10
1000
0001
0010
0200
,
1330
0000
0001
0100
0010
0000
1000
0030
0100
0000
01M0
0000
0001
0000
1000
0000
,
0010
0000
0000
0000
M010
0000
0000
0000
0100
0000
0000
0000
01M0
0000
0000
0000
0001
0000
0000
0000
1000
0000
0000
0000
0001
1000
0000
0000
0000
0000
0000
0000
,
1000
0000
0100
0000
1100
0000
0000
0000
0000
0000
0000
0000
0001
1000
0001
0000
,
1000
0000
0010
0000
0001
0000
0010
0000
0200
0000
0000
0000
0301
1000
0001
0000
,
1000
0100
0001
0100
1000
0100
0100
0010
,
0010
0000
0001
1000
0001
0000
1000
0000
0020
0000
0000
0000
0130
0001
1000
0000
,
0001
0000
0000
0000
1003
0000
0000
0000
2001
0000
0000
0000
3001
0100
0001
0000
,
1000
0000
0100
0000
0001
0000
0100
0000
0020
0000
0000
0000
0031
1000
0001
0000
,
0100
0100
0100
0100
0100
0010
0010
1000
,
0001
0010
0000
001M
1000
0000
0001
0100
0000
010M
1000
0000
0001
1000
0001
1000
,
0000
0000
0000
0110
,
0101
0000
0110
0000
2001
0000
0000
3000
0001
0000
0010
0000
0100
1000
0010
0000
,
0100
0000
0100
0000
0100
0000
0100
0000
0020
0000
0000
0000
1030
0001
1000
0000
,
0100
0100
0100
0100
0100
0010
0010
0001
,
1000
0000
0001
0100
0001
0000
1000
0000
2001
0000
0000
0030
3001
0100
0001
0000
,
1000
0010
0000
0000
0000
0000
0000
0000
1000
0010
0000
0000
0000
0000
0000
0000
2000
0001
0000
0000
0000
0000
0000
0000
3001
0000
0010
0000
0100
0000
0000
0000
,
1000
0000
0000
0000
0010
0000
0000
0000
0001
0000
0000
0000
0010
0000
0000
0000
0200
0010
0000
0000
0000
0000
0000
0000
0301
0000
1000
0000
0001
0000
0000
0000
,
0010
0010
0010
0010
0010
0100
0100
0010
,
0001
0100
0000
010M
1000
0000
0001
0010
0000
001M
1000
0000
0001
0000
0000
0000
,
2000
0100
3002
0100
2003
0010
3002
0010
,
2003
0100
3002
0100
2003
0010
3002
0010
,
1003
0001
0100
1000
0100
0001
0010
1000
,
0010
0001
1000
0010
0100
0010
0110
0000
,
0001
0000
0000
0001
0100
0000
0000
0100
1000
0000
0000
1000
0100
0000
0000
0100
,
0001
0000
0000
0001
0010
0000
0000
0010
1000
0000
0000
1000
0010
0000
0000
0010
,
0001
1000
0010
0100
0001
0010
0100
1000
,
0001
0100
0000
010M
1000
0000
0001
0010
0000
001M
1000
0000
0001
1000
0001
0000
,
2000
0000
0100
0000
0001
0001
3001
0000
,
1000
0100
0001
0100
1000
0001
0100
0000
,
0002
0000
0010
0000
1000
1000
1003
0000
,
0001
0000
0000
0000
0001
0000
0000
0000
1000
0000
0000
0000
1000
0000
0000
0000
0100
0000
0000
0000
0010
0000
0000
0000
0001
1000
0000
0000
0000
0000
0000
0000
,
1001
0000
0000
0000
;

//---------------dance-single - ----------------
#NOTES:
     dance-single:
     :
     Easy:
     5:
     0.200906,0.229763,0.044788,0.107491,0.000000,157.000000,152.000000,5.000000,12.000000,0.000000,0.000000,0.200906,0.229763,0.044788,0.107491,0.000000,157.000000,152.000000,5.000000,12.000000,0.000000,0.000000:
0000
0000
0000
0000
,
0000
0000
0000
0000
,
0000
0000
0000
0000
,
0000
0000
0000
0000
,
1000
0000
1000
0000
,
0001
0000
0001
0000
,
0100
0000
0100
0000
,
0010
0000
0010
0000
,
1000
0000
0100
0000
,
0010
0000
0001
0000
,
1000
1000
0010
0000
,
0100
0100
0001
0000
,
2002
3003
0001
1000
,
0100
0100
0100
0000
,
0010
0010
0010
0010
,
0010
0001
1000
0000
,
0001
0100
0020
0030
,
1000
0100
0020
0030
,
0001
0001
0001
1000
,
0010
0010
0100
0000
,
1001
0000
1000
0000
,
0001
0010
0100
0000
,
1000
0000
0001
0000
,
1000
1000
0010
0000
,
1000
0010
0100
0000
,
0001
1000
0100
0000
,
0100
0010
0001
0000
,
1000
1000
0001
0000
,
0001
0100
0000
0000
,
0001
0100
0010
0000
,
1000
1000
0100
0100
,
0010
0010
0001
0000
,
1000
0100
1000
0000
,
0001
0100
0001
0000
,
1000
0010
0100
0001
,
0010
0010
0100
0100
,
0000
0000
0000
0110
,
2002
3003
1000
0001
,
0010
0010
0010
0000
,
0100
0100
0100
0100
,
0100
1000
0001
0000
,
1000
0010
0200
0300
,
0001
0010
0200
0300
,
1000
1000
1000
0001
,
0100
0100
0010
0000
,
1000
0100
1000
0100
,
0010
0001
0010
0001
,
1000
0000
0001
0000
,
0100
0100
0010
0000
,
1000
0010
1000
0010
,
0100
0001
0100
0001
,
1000
0000
0100
0000
,
0010
0010
0001
0000
,
2000
3000
0000
0000
,
0002
0003
0000
0000
,
0200
0300
0100
0000
,
0020
0030
0010
0000
,
1001
0000
0000
0000
;

//---------------dance-single - ----------------
#NOTES:
     dance-single:
     :
     Beginner:
     2:
     0.090856,0.153175,0.008958,0.000000,0.000000,71.000000,70.000000,1.000000,0.000000,0.000000,0.000000,0.090856,0.153175,0.008958,0.000000,0.000000,71.000000,70.000000,1.000000,0.000000,0.000000,0.000000:
0000
0000
0000
0000
,
0000
0000
0000
0000
,
0000
0000
0000
0000
,
0000
0000
0000
0000
,
1000
0000
0000
0000
,
0001
0000
0000
0000
,
0100
0000
0000
0000
,
0100
0000
0000
0000
,
0010
0000
0000
0000
,
1000
0000
0000
0000
,
0001
0000
0000
0000
,
1000
0000
0000
0000
,
0100
0100
0000
0000
,
0100
0000
0000
0000
,
0010
0000
0010
0000
,
0010
0000
0000
0000
,
0001
0001
0000
0000
,
0001
0000
0000
0000
,
1000
0000
1000
0000
,
1000
0000
0000
0000
,
0010
0000
0000
0000
,
0100
0000
0000
0000
,
0001
0000
0000
0000
,
1000
0000
0000
0000
,
0100
0000
0100
0000
,
0100
0000
0000
0000
,
0010
0000
0010
0000
,
0010
0000
0000
0000
,
0001
0000
0000
0000
,
1000
0000
0000
0000
,
0010
0000
0000
0000
,
0100
0000
0000
0000
,
0001
0001
0000
0000
,
1000
0000
0000
0000
,
1000
1000
0000
0000
,
0100
0000
0100
0000
,
0000
0000
0000
0000
,
1001
1000
0000
0000
,
0001
0000
0001
0000
,
0001
0000
0000
0000
,
0100
0000
0000
0000
,
0010
0010
0000
0000
,
0010
0000
0000
0000
,
1000
0000
1000
0000
,
1000
0000
0000
0000
,
0001
0000
0001
0000
,
0001
0000
0001
0000
,
0001
0000
0000
0000
,
0000
0000
0000
0000
,
1000
0000
1000
0000
,
1000
0000
1000
0000
,
1000
0000
0000
0000
,
0010
0000
0000
0000
,
0100
0000
0000
0000
,
0100
0000
0000
0000
,
0010
0000
0000
0000
,
0010
0000
0010
0000
,
0010
0000
0000
0000
;

//---------------dance-double - ----------------
#NOTES:
     dance-double:
     :
     Challenge:
     16:
     0.639829,0.791404,0.528499,0.268728,0.434444,500.000000,441.000000,59.000000,30.000000,38.000000,36.000000,0.639829,0.791404,0.528499,0.268728,0.434444,500.000000,441.000000,59.000000,30.000000,38.000000,36.000000:
00000000
00000000
00000000
00000000
,
00000000
00000000
00000000
00000000
,
00000000
00000000
00000000
00000000
,
00000000
00000000
00000000
00000000
,
00011000
00000000
00000000
0001M000
00100000
00000000
00001000
00000000
00010000
00000000
00000000
0001M000
00400000
00000000
00340000
00000000
,
10030000
00000000
00010000
01000000
00010000
00000000
10000000
00100000
10000000
00000000
00010000
00000000
00100000
00000000
00001000
00000000
,
00011000
00000000
00000000
000M1000
00000100
00000000
00010000
00000000
00001000
00000000
00000000
000M1000
00000200
00000000
00000000
00000000
,
00003310
00000000
00000001
00000100
00000001
00000000
00001000
00000010
00001000
00000000
00000100
00000000
00000100
00000000
00010000
00000000
,
00001000
00000000
00000000
00001000
01010000
00000000
00001000
00000000
00001000
00000000
00000000
00001000
02010000
00000000
00000000
00000000
,
03100000
00000000
10000000
00010000
10000000
00000000
01000000
00000000
00100000
00000000
00010000
00000000
10010000
00000000
00000000
00000000
,
00010000
01000000
00000000
010M0000
00000000
00100000
00010000
00000000
01000000
00000000
00001000
00000000
00010000
00000000
00000100
00000000
,
00001000
00000010
00000000
0000M010
00000000
00000100
00001000
00000000
00000000
00000000
00000000
00000000
00000100
00010000
00001000
00000000
,
00020000
00000000
00001010
00000000
00031010
00030000
00000000
00000000
00010000
00000000
00001000
00000000
00100000
00010000
02000000
00000000
,
00110000
00000000
00110000
00000000
00110000
00000000
00110000
00000000
03110000
00000000
00000000
00000000
01000000
00001000
00010000
00000000
,
00001000
0001M000
000M1000
0001M000
000M1000
0001M000
00010000
000M1000
,
00001000
00000000
00010000
00001000
00000100
00000000
00000010
00000000
00000210
00000000
00000000
00000000
00000301
00001000
00000001
00000000
,
00001000
00000100
00000000
00000000
00000000
00000000
00000000
00000000
00010000
00001000
00000000
00000000
00000000
00000000
00000000
00000000
00200000
00010000
00000000
00000000
00000000
00000000
00000000
00000000
01300000
00000000
10000000
00000000
00010000
00000000
00000000
00000000
,
M1000000
00000000
00000000
00000000
010M0000
00000000
00000000
00000000
M1000000
00000000
00000000
00000000
010M0000
00000000
00000000
00000000
20000000
00010000
00000000
00000000
00000000
00000000
00000000
00000000
30010000
00000000
01000000
00000000
00200000
00000000
00000000
00000000
,
00320000
00001000
00001000
00001000
00001000
00000001
00000001
00001000
,
00031000
00010000
0001M000
00100000
00001000
00000000
00010000
00001000
000M1000
00000010
00010000
00000000
00000000
00000000
00000000
00000000
,
00021000
00000000
00000100
00000000
00000001
00000100
00001000
00000000
,
00000100
00000100
00000010
00000010
00000100
00000001
00030100
00010000
,
00002000
00000000
00100000
00000000
10000000
00100000
00010000
00000000
,
00103000
00000000
00000000
00000000
00100000
00000000
00000000
00000000
00001000
00010000
00000000
00000000
00001000
00010000
00000000
00000000
00001000
00000000
00000000
00000000
00100000
00000000
00000000
00000000
01000000
00000000
00000000
00000000
0M000000
00000000
00000000
00000000
,
10010000
00000000
10000000
01000000
00100000
00000000
00010000
00000000
01000000
00000000
00001000
00000000
00011000
00000000
00000000
00000000
,
00010100
00000000
00010100
00000000
00000110
00000000
00000110
00000000
00000001
00000000
00001000
00000001
00000100
00000000
00000M00
00000000
,
00001001
00000000
00000001
00000010
00000100
00000000
00001000
00000000
00000010
00000000
00010000
00000000
00011000
00000000
00000000
00000000
,
00001000
00010000
0001M000
00100000
01000000
01M00000
00100000
00000000
,
10010000
00000000
01100000
00000000
20010000
00000000
00000000
00000000
30100000
00000000
01000000
00000000
00010000
00100000
00002000
00000000
,
00110000
00000000
00110000
00000000
00110000
00000000
00110000
00000000
00113000
00000000
00000000
00000000
00001000
00010000
00000020
00000000
,
00001100
00001100
00001100
00001100
00001100
00000101
00000101
00001100
,
00001130
00000000
00001000
00000001
00000010
00000000
00000100
00000000
00002100
00000000
00000000
00000000
00003100
00010000
00001000
00000000
,
00100000
00010000
00000000
00000000
00000000
00000000
00000000
00000000
00001000
00010000
00000000
00000000
00000000
00000000
00000000
00000000
00000200
00001000
00000000
00000000
00000000
00000000
00000000
00000000
00000310
00000000
00000001
00000000
00001000
00000000
00000000
00000000
,
0000001M
00000000
00000000
00000000
0000M010
00000000
00000000
00000000
0000001M
00000000
00000000
00000000
0000M010
00000000
00000000
00000000
00000002
00001000
00000000
00000000
00000000
00000000
00000000
00000000
00001003
00000000
00000010
00000000
00020000
00000000
00000000
00000000
,
00001010
00001010
00001010
00001010
00001010
00001100
00031100
00010000
,
00001000
00010000
0001M000
00100000
00001000
00000000
00010000
00001000
000M1000
00000010
00010000
00000000
00001000
00010000
00001000
00010000
,
00000000
00000000
00000000
10010000
,
20000000
00000000
01000000
00000000
31010000
00000000
00000000
00000000
10000000
00000000
01000000
00000000
00100000
00010000
01000000
00000000
,
00002000
00000000
00110000
00000000
00110000
00000000
00110000
00000000
00113000
00000000
00000000
00000000
00001000
00010000
00001000
00000000
,
00010000
000M1000
0001M000
000M1000
0001M000
000M1000
00001000
0001M000
,
00010000
00000000
00001000
00010000
00000010
00000000
00000100
00000000
00000120
00000000
00000000
00000000
00301030
00000001
00001000
00000000
,
00000001
00000010
00000000
00000000
00000000
00000000
00000000
00000000
00000100
00001000
00000000
00000000
00000000
00000000
00000000
00000000
00020000
00001000
00000000
00000000
00000000
00000000
00000000
00000000
00031000
00000000
01000000
00000000
00100000
00000000
00000000
00000000
,
10000000
00000000
00000000
00000000
20100000
00000000
00000000
00000000
30010000
00000000
00000000
00000000
02010000
00000000
00000000
00000000
03310000
10000000
00000000
00000000
00000000
00000000
00000000
00000000
00010000
00000000
00100000
00000000
01000000
00000000
00000000
00000000
,
10000000
00100000
00010000
00001000
00000100
00000010
00000010
00001000
,
00000001
00000010
0000001M
00001000
00000001
00000000
00001000
00000100
0000M100
00000001
00001000
00000000
00000100
00010000
00000100
00010000
,
00004000
00000000
00010000
00000100
00000000
00000000
00000100
00010000
00000000
00000000
00010000
00000100
00003000
00000000
00000100
00000000
,
00040000
00300000
00001000
00100000
00000000
00000000
00100000
00001000
00000000
00000000
00001000
00100000
00030000
00000000
00100000
00000000
,
00010000
00000000
10000000
00100000
10000000
00100000
10000000
00000000
00010000
00000000
20000000
00000000
31010000
00000000
00000000
00000000
,
10000000
00000000
00010000
01000000
00100000
01000000
00010000
10000000
00020000
00000000
00000000
00000000
00130000
00000000
00001000
00000000
,
00040000
00000000
00001000
00100000
00000000
00000000
00100000
00001000
00000000
00000000
00001000
00100000
00030000
00000000
00100000
00000000
,
00004000
00000300
00010000
00000100
00000000
00000000
00000100
00010000
00000000
00000000
00010000
00000100
00003000
00000000
00000100
00000000
,
00001000
00000000
00000001
00000100
00000001
00000100
00000001
00000000
00001000
00000000
00000002
00000000
00001013
00000000
00000000
00000000
,
00000001
00000010
0000001M
00000100
00000001
00000000
00001000
00000100
0000M100
00000010
00001000
00000000
00000100
00010000
00000100
00010000
,
00002000
00000000
00010000
00000000
01000000
00100000
01000000
00000000
,
00010000
00010000
01000000
01000000
00100000
01000000
00013000
00000000
,
00020000
00000000
00001000
00000000
00000010
00000100
00000010
00000000
,
00031000
00010000
00100000
10000000
01000000
00010000
00001000
00020000
,
00031010
00000000
00000000
00000000
;

//---------------dance-double - ----------------
#NOTES:
     dance-double:
     :
     Medium:
     9:
     0.409490,0.408467,0.143322,0.429965,0.026873,320.000000,304.000000,16.000000,48.000000,0.000000,0.000000,0.409490,0.408467,0.143322,0.429965,0.026873,320.000000,304.000000,16.000000,48.000000,0.000000,0.000000:
00000000
00000000
00000000
00000000
,
00000000
00000000
00000000
00000000
,
00000000
00000000
00000000
00000000
,
00000000
00000000
00000000
00000000
,
00000001
00000000
00000000
00000100
00000000
00000000
00000100
00000000
00000020
00000000
00000000
00000000
00001030
00000000
00000000
00000000
,
00001000
00000100
00010000
00000000
00001000
00100000
00010000
00000000
,
10000000
00000000
00000000
10000000
00000000
00000000
00100000
00000000
02000000
00000000
00000000
00000000
03010000
00000000
00000000
00000000
,
00100000
00001000
00010000
00000000
00001000
00010000
00000100
00000000
,
00001000
00000000
00000000
00001000
00000000
00000000
00000001
00000000
00000100
00000000
00000000
00000000
00001002
00000000
00000000
00000000
,
00000103
00000010
00001000
00000000
00000100
00010000
00001000
00000000
,
00010000
00001000
00010000
00001000
00200000
00000000
00310000
00000000
,
10000000
00010000
10000000
01000000
00000000
00000000
00000000
00000000
,
10000000
01000000
00200000
00000000
00310000
00000000
10000000
00000000
,
00010000
01000000
00010000
01000000
00002000
00000000
00013000
00000000
,
00000100
00000010
00000100
00000010
00000100
00000010
00000010
00000100
,
00000100
00001000
00000001
00000100
00000020
00000000
00001030
00000000
,
00000101
00000000
00001100
00000000
00021000
00000000
00031000
00100000
,
00010000
10000000
00010000
10000000
00200000
00000000
01300000
00000000
,
00010000
10000000
00010000
10000000
00010000
01000000
01000000
00001000
,
00001000
00010000
00000100
00000010
00000002
00000000
00001003
00000000
,
00001002
00000000
00000103
00000000
00000010
00001000
00000100
00000000
,
00010000
00010000
00001000
00001000
00100000
00010000
01000000
00000000
,
20010000
00000000
30100000
00000000
01000000
00010000
00100000
00000000
,
00001000
00001000
00010000
00010000
00000100
00001000
00000010
00000000
,
00001000
00000001
00001000
00000001
00000100
00000010
00020000
00000000
,
00031000
00100000
00001000
00100000
00010000
10000000
00200000
00000000
,
10300000
00010000
10000000
00010000
01000000
00001000
00020000
00000000
,
00030100
00000100
00000010
00000010
00000001
00001000
00000001
00000000
,
00001000
00001000
00001000
00000000
00000000
00000000
00000001
00000100
,
00000010
00000010
00000010
00000010
00000010
00000000
00001000
00000100
,
00010000
00010000
00010000
00010000
00010000
00001000
00001000
00100000
,
00100000
00010000
10000000
00100000
02000000
00000000
03010000
00000000
,
01010000
00000000
00000000
00000000
10100000
00000000
00000000
00000000
10020000
00000000
00000000
00000000
00230000
00030000
00000000
00000000
,
00301000
00010000
00001000
00010000
00000200
00000000
00000310
00000000
,
00000001
00001000
00000001
00001000
00000100
00010000
00000100
00010000
,
00001000
00000000
00000000
00000100
00000000
00000000
00000001
00000000
00000000
00001000
00000000
00000000
00000100
00000000
00000100
00000000
,
00000000
00000000
00000000
00001001
,
00000001
00000010
00000200
00000000
00001300
00000000
00000001
00000000
,
00001000
00000010
00001000
00000010
00020000
00000000
00031000
00000000
,
00100000
01000000
00100000
01000000
00100000
01000000
01000000
00100000
,
00100000
00010000
10000000
00100000
02000000
00000000
03010000
00000000
,
10100000
00000000
00110000
00000000
00012000
00000000
00013000
00000100
,
00001000
00000001
00001000
00000001
00000200
00000000
00000310
00000000
,
00001000
00000001
00001000
00000001
00001000
00000010
00000010
00010000
,
00010000
00001000
00100000
01000000
20000000
00000000
30010000
00000000
,
20010000
32000000
03020000
00032000
,
00003200
00000302
00000023
00002030
,
00013000
00000100
00010000
00000000
00001000
00100000
00001000
00000000
,
00010000
00000100
00000010
00000000
00000002
00000000
00001003
00000000
,
00000002
00000203
00002300
00023000
,
00230000
20300000
32000000
03020000
,
00031000
00100000
00001000
00000000
00010000
00001000
00010000
00000000
,
00000100
00000010
00000001
00000100
00000020
00000000
00001030
00000000
,
00002020
00000000
00003030
00000000
00000001
00001000
00000100
00000000
,
00010000
00010000
00001000
00001000
,
00202000
00000000
00303000
00000000
00100000
00010000
01000000
00000000
,
00010000
10000000
00010000
00000000
10000000
01000000
00020000
00000000
,
00031000
00000000
00000000
00000000
;

//---------------dance-double - ----------------
#NOTES:
     dance-double:
     :
     Easy:
     5:
     0.203466,0.229763,0.008958,0.026873,0.000000,159.000000,158.000000,1.000000,3.000000,0.000000,0.000000,0.203466,0.229763,0.008958,0.026873,0.000000,159.000000,158.000000,1.000000,3.000000,0.000000,0.000000:
00000000
00000000
00000000
00000000
,
00000000
00000000
00000000
00000000
,
00000000
00000000
00000000
00000000
,
00000000
00000000
00000000
00000000
,
00010000
00000000
00001000
00000000
,
00100000
00100000
00010000
00000000
,
10000000
00000000
00100000
00000000
,
01000000
01000000
00001000
00000000
,
00010000
00000000
00000100
00000000
,
00000100
00000100
00000010
00000000
,
00000001
00001000
00000001
00000000
,
00001000
00000001
00001000
00000000
,
00000001
00000100
00000000
00000010
,
00010000
00010000
00010000
00000000
,
00001000
00001000
00100000
00100000
,
00010000
10000000
00100000
00000000
,
10000000
10000000
00010000
00000000
,
00010000
00010000
01000000
00000000
,
00001000
00010000
00001000
00010000
,
00000100
00000010
00000001
00000000
,
00001000
00000000
00001000
00000000
,
00000100
00000100
00010000
00010000
,
00001000
00000000
00001000
00000000
,
00100000
00100000
00010000
00000000
,
10000000
00100000
01000000
00000000
,
00010000
00100000
01000000
00000000
,
10000000
10000000
00010000
00000000
,
00100000
00001000
00010000
00000000
,
00000100
00000100
00000000
00000000
,
00000010
00000010
00000010
00000000
,
00000001
00000001
00000100
00000100
,
00000010
00000010
00010000
00000000
,
00001000
00001000
00001000
00000000
,
00100000
00100000
00100000
00000000
,
10000000
00010000
00100000
00000000
,
00001000
00001000
00010000
00001000
,
00000000
00000000
00000000
10010000
,
10000000
00100000
00000000
01000000
,
00001000
00001000
00001000
00000000
,
00010000
00010000
00000100
00000100
,
00001000
00000001
00000100
00000000
,
00000001
00000001
00001000
00000000
,
00001000
00001000
00000010
00000000
,
00010000
00001000
00010000
00001000
,
00100000
01000000
10000000
00000000
,
00010000
01000000
00010000
01000000
,
00001000
00010000
00001000
00010000
,
00000100
00000000
00000010
00000000
,
00000001
00001000
00000001
00000000
,
00001000
00000100
00001000
00000100
,
00010000
00001000
00010000
00001000
,
00100000
00000000
00010000
00000000
,
10000000
00100000
01000000
00000000
,
00002000
00000000
00003000
00000000
,
00020000
00030000
00000100
00000010
,
00000002
00000000
00000003
00000000
,
00000100
00000100
00000010
00000010
,
00010000
00000000
00000000
00000000
;
