#TITLE:SCHIZOPHRENIA;
#SUBTITLE:;
#ARTIST:99%PUNK;
#TITLETRANSLIT:;
#SUBTITLETRANSLIT:;
#ARTISTTRANSLIT:;
#GENRE:;
#CREDIT:;
#BANNER:bn.png;
#BACKGROUND:bg.png;
#LYRICSPATH:;
#CDTITLE:cdtitle.png;
#MUSIC:SCHIZOPHRENIA.ogg;
#OFFSET:0.000000;
#SAMPLESTART:72.800003;
#SAMPLELENGTH:12.800000;
#SELECTABLE:YES;
#BPMS:0.000000=150.000000
;
#STOPS:
;
#BGCHANGES:;
#KEYSOUNDS:;
#ATTACKS:;

//---------------dance-single - pinklemonade----------------
#NOTES:
     dance-single:
     pinklemonade:
     Medium:
     11:
     0.439060,0.576035,0.185146,0.027772,0.074058,332.000000,312.000000,20.000000,3.000000,0.000000,0.000000,0.439060,0.576035,0.185146,0.027772,0.074058,332.000000,312.000000,20.000000,3.000000,0.000000,0.000000:
0000
0000
0000
0000
,
0000
0000
0000
0000
,
0000
0000
0000
0000
,
0000
0000
0000
0000
,
0000
0000
0000
0000
,
1001
0000
1000
0010
0100
0100
0001
1000
,
0100
0100
1000
0001
0010
0100
0001
0100
,
1000
0000
0001
0100
0010
0010
1000
0100
,
0010
0000
0010
0000
0001
0000
1000
0000
0010
0100
0010
0000
2000
0000
0000
0000
,
3001
0000
1000
0001
0100
0100
0010
1000
,
0100
0100
0010
0001
1000
0010
0001
0020
,
0130
0000
0001
1000
0010
0010
0100
0001
,
0010
0000
0010
0000
0001
1000
0001
0000
1000
0000
0000
0000
0000
0000
0000
0000
,
0001
0000
0000
0001
0000
0000
0000
0000
,
1000
0000
0000
1000
0000
0000
0000
0000
,
0010
0000
0000
0010
0000
0000
0000
0000
,
0100
0000
0000
0100
0000
0000
0000
0000
,
0001
0000
0000
0001
0000
0000
0000
0000
,
1000
0000
0000
1000
0000
0000
0000
0000
,
0001
0000
0000
0001
0000
0000
0000
0000
,
0000
0000
0000
0000
,
1001
0000
1100
0000
,
0101
0000
0011
0000
,
1001
0000
1010
0000
,
0011
0000
1001
0000
,
1000
0100
1000
0001
0100
0001
1000
0010
,
1000
0000
0001
0000
0100
0000
0010
0000
0100
0000
0001
0000
1000
0001
1000
0001
,
1000
0000
0000
0000
,
0020
0000
0130
0000
,
0110
0040
0000
4030
,
3004
0003
4000
0000
,
3400
0340
0000
0034
,
0003
0000
0000
0000
0001
0000
1000
0001
,
1000
0040
0000
4030
,
3004
0003
0040
0000
,
0034
4003
0000
3400
,
0300
0000
1000
0001
1000
0000
0000
0000
,
1001
0000
0000
0000
0001
1000
0001
0010
,
1000
0010
0001
0000
1000
0100
1000
1000
,
0001
0000
0000
0000
0000
1000
0100
1000
0100
0000
0000
0000
1000
0000
0010
0000
,
0001
0010
1000
0000
0001
1000
0010
0010
,
0100
0000
0000
0000
0110
0000
0010
0100
,
0001
1000
0001
0000
1000
0100
0010
0001
,
1000
0000
0000
0000
0000
0010
0100
0010
0100
0000
0010
0000
1000
0000
0000
0000
,
0001
0010
0001
1000
0001
0010
1000
0010
,
0001
1000
0001
0000
1000
0100
1000
0001
,
0010
0000
0011
0000
1000
0100
1000
0001
,
0010
0001
1001
0000
1000
0010
0100
0001
,
0010
0000
0011
0000
1000
0010
0100
0001
,
0010
0100
0001
0100
1000
0000
1100
0000
,
0100
1001
0010
0101
,
0010
0000
0000
0000
1001
0000
0000
0000
1000
0100
0000
0100
1000
0000
0001
1000
,
0000
1000
0001
0000
1000
0000
0010
0000
0100
0000
0000
0000
0000
0000
0100
0000
,
0000
0000
0000
0000
1001
0000
0001
0100
,
0010
0010
1000
0001
0010
0010
0001
1000
,
0100
0010
1000
0010
0001
0000
1000
0010
,
0100
0100
0001
0010
0100
0100
1000
0001
,
0100
0010
0100
0000
0010
0100
0010
0000
1000
0000
0000
0000
0001
0000
1000
0000
,
0010
0010
0000
1000
0010
0010
0000
1000
,
0010
0100
1000
0100
0010
0000
1000
0001
,
0100
0100
0000
0001
0100
0100
0000
0001
,
1000
1000
0010
1000
0001
0000
0100
0001
,
0010
0010
0000
0001
0010
0010
0000
0001
,
0010
0100
0001
0100
1000
0000
0010
1000
,
0100
0100
0000
1000
0100
0100
0000
1000
,
0100
0000
1000
0000
0001
1000
0001
1000
0001
0000
0000
0000
0000
0000
0000
0000
,
0000
0000
0000
0000
,
0000
0000
0000
0000
;

//---------------dance-single - ----------------
#NOTES:
     dance-single:
     :
     Hard:
     14:
     0.696941,0.727623,0.259204,0.055544,0.805384,527.000000,499.000000,28.000000,6.000000,70.000000,0.000000,0.696941,0.727623,0.259204,0.055544,0.805384,527.000000,499.000000,28.000000,6.000000,70.000000,0.000000:
// measure 0
0000
0000
0000
0000
,  // measure 1
0000
0000
0000
0000
,  // measure 2
0000
0000
0000
0000
,  // measure 3
0000
0000
0000
0000
,  // measure 4
0000
0000
0000
0000
,  // measure 5
1001
0000
0000
0000
0001
0000
1000
0100
0010
0000
0010
0000
0001
0000
1000
0100
,  // measure 6
0010
0010
0001
1000
0001
0100
1000
0100
,  // measure 7
0001
0000
0000
0000
1000
0000
0001
0100
0010
0000
0010
0000
1000
0000
0001
0100
,  // measure 8
0010
0000
0010
0000
1000
0000
0001
0000
0010
0001
1000
0001
0020
0000
0001
0030
,  // measure 9
1001
0000
0000
0000
1000
0000
0001
0010
0100
0000
0100
0000
1000
0000
0001
0010
,  // measure 10
0100
0100
1000
0001
1000
0010
0001
0020
,  // measure 11
1030
0000
0000
0000
0001
0000
1000
0010
0100
0000
0100
0000
0001
0000
1000
0010
,  // measure 12
0100
0000
0100
0000
0001
0010
0001
1000
0200
0000
0000
0000
0000
0000
0000
0000
,  // measure 13
1300
0001
1000
0000
0000
0000
0001
1000
0001
0000
0000
0000
0000
0000
0000
0000
,  // measure 14
0100
0001
0100
0000
0000
0000
0001
0100
0001
0000
0000
0000
0000
0000
0000
0000
,  // measure 15
1000
0010
1000
0000
0000
0000
0010
1000
0010
0000
0000
0000
0000
0000
0000
0000
,  // measure 16
0100
0010
0100
0000
0000
0000
0010
0100
0010
0000
0000
0000
0000
0000
0000
0000
,  // measure 17
1000
0001
1000
0000
0000
0000
0001
1000
0001
0000
0000
0000
0000
0000
0000
0000
,  // measure 18
0010
0001
0010
0000
0000
0000
0001
0010
0001
0000
0000
0000
0000
0000
0000
0000
,  // measure 19
1000
0001
1000
0000
0000
0000
0001
1000
0001
0000
0000
0000
M000
0M00
M000
00M0
,  // measure 20
0M00
000M
00M0
M000
0M00
0000
M000
0M00
00M0
M000
000M
00M0
0M00
00M0
0000
0000
,  // measure 21
1100
0001
1000
0001
1100
0001
1000
0001
,  // measure 22
1100
0001
1000
0001
1100
0001
0010
0100
,  // measure 23
1100
0001
1000
0001
1100
0001
1000
0001
,  // measure 24
1100
0001
1000
0001
1100
0001
0010
0100
,  // measure 25
1000
0100
1000
0000
0001
0000
1000
0001
1000
0000
0001
0000
0010
0001
0010
0000
,  // measure 26
0001
1000
0001
0000
1000
0000
0010
1000
0010
0000
0010
0000
0100
0010
0100
0010
,  // measure 27
0100
0000
M000
00M0
0000
0M00
00M0
M000
000M
0M00
00M0
000M
0M00
M000
00M0
000M
,  // measure 28
1000
0100
0010
0001
1000
0100
0010
0001
1000
000M
0M00
00M0
M000
0M00
00M0
000M
,  // measure 29
1001
0000
0000
0001
0010
0001
1000
0010
0100
0001
0010
0001
,  // measure 30
1000
0010
1000
0001
0000
0000
1000
0100
1000
0001
0100
0010
,  // measure 31
1000
0001
0010
1000
0010
0001
1000
0010
0100
0001
0100
0010
,  // measure 32
1000
0000
0001
0000
1001
0000
1000
1000
,  // measure 33
0011
0000
0000
0001
0100
0010
1000
0100
1000
0001
0100
0010
,  // measure 34
1000
0001
0010
0001
0000
0000
1000
0001
0010
0100
1000
0010
,  // measure 35
1000
0001
0100
1000
0100
0001
1000
0010
0100
0010
1000
0001
,  // measure 36
0010
0000
0000
0000
0001
1000
0001
0000
1001
0000
M000
0M00
00M0
000M
M000
0000
,  // measure 37
1100
0000
0000
0000
0000
0000
00M0
0000
0000
0000
0000
0000
M000
0000
0000
0M00
0000
0000
000M
0000
0000
0000
0000
0000
0001
0000
0000
0000
1000
0000
0000
0000
0000
0000
0000
0000
0001
0000
0000
0100
0000
0000
0001
0000
0000
1000
0000
0000
,  // measure 38
0001
0100
0001
1000
0001
0000
0000
0000
1000
0001
1000
0000
0010
0000
0010
0000
,  // measure 39
1001
0M00
00M0
M000
00M0
0001
0010
0100
1000
0000
0001
0000
1000
0010
1000
0001
,  // measure 40
1000
0010
1000
0001
1000
0000
0000
0000
0001
1000
0001
0000
0100
0000
0100
0000
,  // measure 41
1001
0000
M000
00M0
0M00
000M
00M0
M000
0011
0000
0001
0000
1000
0000
0001
0010
,  // measure 42
0001
0100
0001
0000
1000
0000
0000
0000
0010
0100
0010
0000
0100
0000
0001
1000
,  // measure 43
0001
0M00
00M0
M000
000M
1000
0100
0010
0001
0000
0001
0000
1000
0000
0000
0000
,  // measure 44
0010
0100
0010
0000
1000
0000
0001
0000
1000
0010
1000
0100
1000
0010
1000
0100
,  // measure 45
1000
0000
1000
0000
0001
0000
0000
0000
1000
0100
1000
0000
0010
0000
0100
0001
,  // measure 46
0100
0000
0000
0000
0110
0000
0000
0000
1000
0100
1000
0000
0010
0000
0100
0001
,  // measure 47
0100
0000
0010
0000
0120
0000
0000
0000
1030
0100
1000
0000
0010
0000
0100
0001
,  // measure 48
0100
0000
0000
0000
0110
0000
0000
0000
1000
0100
1000
0000
0010
0000
0100
0001
,  // measure 49
0100
0000
1000
0000
0200
0000
0001
0300
1001
0000
0000
0000
1001
0000
1000
0100
,  // measure 50
0010
0000
0000
0000
1001
0000
0001
0010
0100
0010
0000
0000
1001
0000
1000
0010
,  // measure 51
0100
0000
0000
0000
1001
0000
0001
0100
0010
1000
0000
1000
0001
0000
0001
0010
,  // measure 52
0000
0010
0100
0000
0100
0000
1000
0000
0001
1000
0001
0000
0000
0000
1000
0001
,  // measure 53
1000
0000
0000
0000
0M00
0000
00M0
0000
1001
0000
0000
0000
0001
0000
1000
0100
,  // measure 54
0010
0000
0010
0000
0001
0000
1000
0100
0010
0000
0010
0000
0001
0000
1000
0000
,  // measure 55
0010
0000
0100
0000
1000
0000
0200
0000
0301
0000
0000
0000
1000
0000
0001
0100
,  // measure 56
0010
0000
0010
0000
1000
0000
0001
0100
0010
0000
0010
0000
1000
0000
0001
0000
,  // measure 57
0010
0001
1000
0001
0010
0100
1000
0001
1000
0000
0000
0000
0010
0100
0001
1000
,  // measure 58
0100
0000
0100
0000
0M00
0000
0001
1000
0100
0000
0100
0000
0M00
0000
0001
0000
,  // measure 59
0010
0000
0100
0000
0001
0000
0100
0000
1000
0000
0000
0000
0001
1000
0001
0100
,  // measure 60
0010
0000
0010
0000
00M0
0000
0001
0100
0010
0000
0010
0000
00M0
0000
0001
0000
,  // measure 61
0100
0000
0100
0000
0010
0000
1000
0000
1001
0000
0000
0000
0001
1000
0010
1000
,  // measure 62
0100
0000
0100
0000
0M00
0000
0010
1000
0100
0000
0100
0000
0M00
0000
0010
0000
,  // measure 63
1000
0000
0100
0000
0001
0000
0100
0000
1000
0000
0000
0000
0001
1000
0100
1000
,  // measure 64
0010
0000
0010
0000
00M0
0000
0100
1000
0010
0000
0010
0000
00M0
0000
0100
0000
,  // measure 65
1000
0000
1000
0000
0001
0100
0010
1000
0001
0000
0000
0000
0000
0000
0000
0000
;
