#TITLE:SAMURAI-Scramble;
#SUBTITLE:;
#ARTIST:DJ Mass MAD Izm*;
#TITLETRANSLIT:;
#SUBTITLETRANSLIT:;
#ARTISTTRANSLIT:;
#GENRE:;
#CREDIT:;
#BANNER:SAMURAI-Scramble-banner.png;
#BACKGROUND:SAMURAI-Scramble-bg.png;
#LYRICSPATH:;
#CDTITLE:CDtitle.png;
#MUSIC:SAMURAI-Scramble.ogg;
#OFFSET:0.000000;
#SAMPLESTART:32.000000;
#SAMPLELENGTH:12.833000;
#SELECTABLE:YES;
#BPMS:0.000000=150.000000
,16.000000=75.000000
,32.000000=150.000000
;
#STOPS:224.000000=2.000000
;
#BGCHANGES:;
#KEYSOUNDS:;
#ATTACKS:;

//---------------dance-single - Pandy as "SHOGUN"----------------
#NOTES:
     dance-single:
     :
     Beginner:
     4:
     0.167138,0.340460,0.124796,0.000000,0.000000,150.000000,134.000000,16.000000,0.000000,0.000000,0.000000,0.167138,0.340460,0.124796,0.000000,0.000000,150.000000,134.000000,16.000000,0.000000,0.000000,0.000000:
// measure 0
0000
0000
0000
0000
,  // measure 1
0000
0000
0000
0000
,  // measure 2
0000
0000
0000
0000
,  // measure 3
0000
0000
0000
0000
,  // measure 4
0001
0000
1000
0000
,  // measure 5
0000
0010
0100
0000
,  // measure 6
0010
0000
1000
0000
,  // measure 7
0000
0001
1000
0000
,  // measure 8
0010
0000
0000
0000
,  // measure 9
0100
0000
0000
0000
,  // measure 10
0001
0000
0000
0000
,  // measure 11
1000
0000
0000
0000
,  // measure 12
0100
0000
0000
0000
,  // measure 13
1000
0000
0000
0000
,  // measure 14
0010
0000
0000
0000
,  // measure 15
0100
0000
0000
1001
,  // measure 16
0001
0000
0001
0000
,  // measure 17
1000
0000
1000
0000
,  // measure 18
0010
0000
0010
0000
,  // measure 19
0100
0000
0100
0000
,  // measure 20
0001
0000
0001
0000
,  // measure 21
0010
0000
0010
0000
,  // measure 22
0100
0000
0100
0000
,  // measure 23
1000
0000
1000
0000
,  // measure 24
0001
0001
0001
0000
,  // measure 25
1000
1000
1000
0000
,  // measure 26
0010
0010
0010
0000
,  // measure 27
0100
0100
0100
0000
,  // measure 28
0010
0010
0010
0000
,  // measure 29
1000
1000
1000
0000
,  // measure 30
0001
0001
0001
0000
,  // measure 31
0010
0010
0010
0000
,  // measure 32
0110
0000
0100
0000
,  // measure 33
1000
0000
0001
0000
,  // measure 34
0100
0000
0010
0000
,  // measure 35
1000
0000
0001
0000
,  // measure 36
1000
1000
0001
0000
,  // measure 37
0001
0001
1000
0000
,  // measure 38
0010
0000
0100
0000
,  // measure 39
0001
1000
0001
0000
,  // measure 40
0110
0000
0000
0000
,  // measure 41
0000
0000
0000
0000
,  // measure 42
1001
0000
0000
0000
,  // measure 43
0000
0000
0000
0000
,  // measure 44
0110
0000
0000
0000
,  // measure 45
0000
0000
0000
0000
,  // measure 46
1001
0000
0110
0000
,  // measure 47
1001
0110
1001
0000
,  // measure 48
0001
0001
0001
0000
,  // measure 49
1000
1000
1000
0000
,  // measure 50
0010
0010
0010
0000
,  // measure 51
0100
0100
0100
0000
,  // measure 52
0010
1000
0010
0000
,  // measure 53
0100
0001
0100
0000
,  // measure 54
0001
0000
1000
0000
,  // measure 55
0010
0100
0001
1000
,  // measure 56
0000
0000
0000
1000
,  // measure 57
0000
0000
0000
0001
,  // measure 58
0000
0000
0000
0010
,  // measure 59
0000
0000
0000
0100
,  // measure 60
0000
0000
0000
1000
,  // measure 61
0000
0000
0000
0010
,  // measure 62
0000
0000
0000
0100
,  // measure 63
0000
0000
0000
0001
,  // measure 64
0000
0000
0000
1000
,  // measure 65
0000
0100
0000
0010
,  // measure 66
0000
0001
0000
1000
,  // measure 67
0000
0100
0000
0010
,  // measure 68
0000
0001
0000
1000
,  // measure 69
0000
0100
0000
0010
,  // measure 70
0000
0001
0000
1001
,  // measure 71
0000
0110
0000
1001
,  // measure 72
0000
0110
1001
0110
;

//---------------dance-single - Pandy as "SHOGUN"----------------
#NOTES:
     dance-single:
     :
     Easy:
     8:
     0.324247,0.510690,0.280792,0.101397,0.000000,291.000000,255.000000,36.000000,13.000000,0.000000,0.000000,0.324247,0.510690,0.280792,0.101397,0.000000,291.000000,255.000000,36.000000,13.000000,0.000000,0.000000:
0000
0000
0000
0000
,
0000
0000
0000
0000
,
0000
0000
0000
0000
,
0000
0000
0000
0000
,
0110
0000
1000
0000
,
0000
0100
1000
0000
,
0110
0000
0001
0000
,
0000
0010
0001
0000
,
1000
0000
0001
0000
,
0100
0000
0010
0000
,
0100
0000
0001
0000
,
0010
0000
0100
0000
,
1000
0100
1000
0100
,
0010
0001
0010
0001
,
1000
0010
0100
0001
,
1000
0001
1000
0001
0000
0000
0110
0000
,
1001
0000
1000
0000
0100
1000
0100
0000
,
1000
0000
0010
0000
0100
0001
0100
0000
,
0001
0000
0010
0000
0100
1000
0100
0000
,
1000
0000
0001
0000
0100
0001
0100
0000
,
0001
0000
0010
0000
0100
0010
0100
0000
,
0010
0000
0001
0000
1000
0010
1000
0000
,
0010
0000
1000
0000
0001
0010
0001
0000
,
0010
0000
0001
0000
0100
0010
0100
0000
,
0010
1000
0001
0010
,
1000
0010
0001
0100
,
0001
0100
1000
0100
,
0001
0001
1000
1000
,
0001
1000
0010
0000
1000
0000
0001
0000
,
0010
0100
1000
0000
0100
0000
1000
0000
,
0010
1000
0100
0000
0010
0000
0001
0000
,
0010
0001
0100
0000
0010
0000
1000
0000
,
1001
0001
1000
1000
,
0001
0100
0001
0010
,
0110
0100
0110
0010
,
0011
0001
0100
0010
,
1010
0000
0011
0000
0010
0100
0000
0100
,
1000
0000
0100
0000
1000
0100
0000
0100
,
0010
0001
0100
0010
,
1000
0001
1000
0000
0100
0010
0100
0000
,
1100
0000
0000
0000
,
0000
0001
0001
0000
1000
0000
0000
0000
,
0110
0000
0000
0000
,
0000
0100
0100
0000
0010
0000
1000
0000
,
0101
0000
0000
0000
,
0000
0001
0001
0000
0010
0000
0100
0000
,
1100
0000
0101
0000
,
1001
0110
1001
0110
,
0002
0203
0320
0030
,
0200
0320
1030
0200
,
0320
0230
2300
3000
,
0200
2300
3020
0130
,
0001
0001
1000
1000
,
0010
0010
0100
0100
,
0001
0100
0010
1000
,
0001
1000
0001
1000
0001
1000
0020
0000
,
0030
0000
0000
1000
,
0000
0010
0000
0000
1000
0000
0001
0000
,
0000
0010
0000
0000
0100
0000
1000
0000
,
0000
0100
0000
0000
1000
0000
0010
0000
,
0000
0100
0000
0000
0001
0000
0010
0000
,
0000
0100
0000
0000
0010
0000
0001
0000
,
0000
1000
0000
0000
0010
0000
1000
0000
,
0000
0001
0000
0000
0010
0000
0100
0000
,
0000
1000
0000
0000
0100
0000
1000
0000
,
1000
0100
0100
0010
,
0010
0001
0001
1000
,
1000
0100
0100
0010
,
0010
0001
0001
1100
,
1100
0110
0110
0011
,
0011
1001
1001
1100
,
0110
0011
0110
1100
,
0110
0101
1010
1001
;

//---------------dance-single - Pandy as "SHOGUN"----------------
#NOTES:
     dance-single:
     :
     Medium:
     11:
     0.450158,0.510690,0.670780,0.148196,0.058498,404.000000,318.000000,86.000000,19.000000,0.000000,0.000000,0.450158,0.510690,0.670780,0.148196,0.058498,404.000000,318.000000,86.000000,19.000000,0.000000,0.000000:
0000
0000
0000
0000
,
0000
0000
0000
0000
,
0000
0000
0000
0000
,
0000
0000
0000
0000
,
0110
0000
0000
0000
1000
0000
0000
0000
0001
0010
0010
0000
0100
0000
0000
0000
,
0010
0000
0000
0000
0011
0000
0000
0000
1000
0100
0100
0000
1000
0000
0000
0000
,
1010
0000
0000
0000
0100
0000
0000
0000
0001
0010
0010
0000
0100
0000
0000
0000
,
0010
0000
0000
0000
0011
0000
0000
0000
0100
1000
1000
0000
1001
0000
0000
0000
,
0001
0100
0010
1000
,
0100
0001
0100
1000
,
0010
0100
0010
1000
,
0001
0010
1000
0010
,
0011
0011
1100
1100
,
0101
0101
1010
1010
,
0001
0100
0001
0000
1000
0100
1000
0000
,
0001
0100
0020
2000
0000
0000
3030
0000
,
1001
0000
0001
0000
0100
0001
0100
0000
,
0010
0000
1000
0000
0100
0010
0010
0000
,
0100
0000
1000
0000
0001
1000
0001
0000
,
0010
0000
0001
0000
0100
0100
0001
0000
,
0010
0000
0100
0000
0010
0001
0100
0000
,
0010
0000
1000
0000
0001
0100
1000
0000
,
0100
0000
0010
0000
0010
1000
0001
0000
,
0010
0000
1000
0000
0010
0100
1000
0000
,
0100
1000
0100
0000
1000
0010
1000
0000
,
0010
0000
0100
0000
0010
0100
0010
0000
,
0100
0001
0100
0000
0001
0010
0001
0000
,
0010
0000
0000
0001
0000
0000
0100
0000
0010
0000
0000
0000
1000
0000
0000
0000
,
0001
1000
0010
1000
0001
0000
1001
0000
,
1000
0100
1000
0001
1000
0000
1001
0000
,
0001
0100
0010
1000
0100
0000
0011
0000
,
0001
0010
0100
1000
0010
0000
0101
0000
,
1001
0000
0101
0000
0001
0010
0001
0100
,
0000
0010
1000
0000
0001
0010
0100
0000
,
1100
0000
1100
0000
1000
0100
0000
0010
,
0000
0100
1000
0010
0100
0001
1000
0000
,
1001
0000
1001
0000
0001
1000
0000
1000
,
0100
0000
0110
0000
0010
0100
1000
0010
,
0100
0101
0001
0011
,
0010
0001
0100
0010
1000
0001
1000
0000
,
0220
0000
0330
0000
,
0000
1001
1001
0000
0110
0000
0000
0000
,
2002
0000
3003
0000
,
0000
0110
0110
0000
1001
0000
0110
0000
,
2002
0000
3003
0000
,
0000
0110
0110
0000
1001
0000
0110
0000
,
1001
0000
0110
0000
,
1001
0110
1001
0110
,
0102
0010
0103
0020
,
2030
0001
0010
3200
,
2300
0010
3002
0013
,
0200
1000
0320
0230
,
1300
0010
0100
0001
0010
0100
1000
0000
0000
0000
0000
0000
,
0100
1000
0010
0100
0000
0000
0010
0000
0000
1000
0000
0000
,
0001
0010
0001
0100
0001
1000
0100
0000
0000
1000
0000
0000
,
0001
0100
0010
1000
0001
0010
0001
0000
,
2200
3300
0000
1001
,
0000
0101
0000
0000
1001
0000
1100
0000
,
0000
1001
0000
0000
0101
0000
1001
0000
,
0000
1100
0000
0000
1001
0000
0101
0000
,
0000
1001
0000
0000
1100
0000
1001
0000
,
0000
1010
0000
0000
1001
0000
0011
0000
,
0000
1001
0000
0000
1010
0000
1001
0000
,
0000
0011
0000
0000
1001
0000
1010
0000
,
0000
1001
0000
0000
0011
0000
0001
0000
,
0010
0100
1000
0100
,
0010
0001
0100
0101
,
0100
0110
0010
1010
,
1000
1001
0001
0011
,
0011
1010
1010
1100
,
1100
0000
0101
0000
0101
0000
0001
0100
,
0010
1000
0001
0100
0010
1000
0001
0001
,
1000
1000
0010
0010
0100
0100
1001
0000
;

//---------------dance-single - Pandy as "SHOGUN"----------------
#NOTES:
     dance-single:
     :
     Hard:
     16:
     0.679694,0.766034,0.405588,0.319790,0.491385,610.000000,558.000000,52.000000,41.000000,13.000000,0.000000,0.679694,0.766034,0.405588,0.319790,0.491385,610.000000,558.000000,52.000000,41.000000,13.000000,0.000000:
0000
0000
0000
0000
,
0000
0000
0000
0000
,
0000
0000
0000
0000
,
0000
0000
0000
0000
,
0110
0000
0000
0000
1000
0000
0000
0000
1001
0001
0001
0000
1000
0000
0000
0000
,
0100
0000
0000
0000
0110
0000
0000
0000
0011
0010
0010
0000
0001
0000
0000
0000
,
0101
0000
0000
0000
0010
0000
0000
0000
1100
1000
1000
0000
0100
0000
0000
0000
,
0010
0000
0000
0000
0110
0000
0000
0000
0011
0001
0001
0000
1000
0000
0000
0000
,
0001
0000
0100
0001
0010
0000
0100
0000
1000
0000
0100
0000
0010
0000
0100
0000
,
1000
0000
0010
0100
1000
0000
0100
0000
0010
0000
1000
0000
0001
0000
0010
0000
,
0100
0000
0010
0001
0100
0000
0010
0000
0100
0000
0001
0000
0010
0000
0100
0000
,
0010
0000
0001
1000
0100
0000
0010
0000
1000
0000
0010
0000
0100
0000
1000
0000
,
1001
0000
0001
0100
0010
0000
1000
0000
0100
0000
0100
0000
0010
0000
0010
0000
,
0100
0000
1000
0010
0100
0000
0001
0000
1000
0000
1000
0000
0001
0000
0001
0000
,
0010
0010
0100
0100
1000
1000
0001
0001
,
0100
0010
0100
0010
0100
0010
0100
0010
0000
0000
0000
0000
MMMM
0000
0000
0000
,
1020
0000
0000
0000
0230
0000
0000
0000
0301
0100
0001
0100
0010
0000
0000
0000
,
1000
0000
0001
1000
0010
1000
0001
0000
1000
0000
1000
0000
0200
0000
0000
0000
,
0310
0001
0100
0001
0010
0001
1000
0000
1000
0000
0010
0000
0100
0000
0010
1000
,
0001
1000
0001
0000
1000
0100
1000
0000
1100
0000
1000
0000
0001
0000
0000
0000
,
1020
0000
0000
0000
0130
0000
0010
1000
0001
0100
0010
0000
0010
0000
0000
0000
,
2000
0000
3100
0010
0100
0000
0010
0000
0100
1000
0010
0000
2000
0000
3020
0000
,
0230
0000
0000
0000
0301
0010
0000
0010
0200
0000
0320
0000
0031
0000
1000
0000
,
0010
0000
0100
0010
1000
0000
0001
0010
0100
0000
0010
0000
1001
0000
0000
0000
,
0001
0100
0001
0000
0100
0000
0010
0000
1000
0100
0010
0100
1000
0000
0000
0000
,
0001
0000
1000
0010
1000
0000
0010
0000
0100
0001
0010
0001
1000
0000
1000
0000
,
0020
0000
0000
0000
0130
0001
0010
0001
1000
0000
0100
0000
0010
0000
0100
0000
,
1000
0000
0001
0010
0000
0010
100M
0000
0010
0000
0010
0000
1001
0000
1000
0000
,
0010
0000
0010
0000
0100
0001
0100
0001
0010
0100
1000
0010
0100
0000
0000
0000
,
0010
0100
0001
0010
0001
1000
0100
0010
0100
1000
0001
1000
0010
0000
0100
0000
,
0020
0000
1030
0100
0010
0001
0000
0000
0010
0000
0001
0010
0100
1000
0000
0000
,
0001
1000
0100
0000
0010
0001
0100
0000
0010
1000
0001
0010
0100
0000
0000
0000
,
0011
0000
0001
0010
0001
0000
0100
0000
0010
0000
0010
0000
0100
0010
0100
0001
,
2000
0000
0010
0000
3010
0000
1000
0000
0200
0000
0310
0100
0010
0000
1000
0000
,
0002
1003
0200
0310
0020
0230
1300
0100
,
2000
0000
3001
0100
0010
0000
0100
0000
0002
0000
0013
0000
0002
0000
0003
0000
,
0220
0000
0330
0000
2002
0000
3003
0000
0100
0010
1000
0010
0100
0000
0001
0000
,
1002
0000
1003
0100
0010
0000
0100
0000
0010
0000
0001
0000
0100
0000
0010
0000
,
0100
0000
0010
1000
0010
1000
0001
0000
2000
0000
3100
0000
0010
0100
1000
0001
,
0100
0000
0010
1000
0010
0000
0100
0001
0100
0000
0001
0010
0100
0000
1000
0000
,
0001
0000
1000
0000
0010
0000
1000
0000
0001
0000
0001
0010
0000
0010
100M
0000
,
0001
1001
1001
0000
2000
0000
3002
0000
,
0013
0000
0001
0000
1000
0000
0100
0000
0010
0000
0001
0100
0000
0100
100M
0000
,
0010
0000
0100
0000
0101
0000
0000
0000
1010
0000
1000
0010
0000
0010
M001
0000
,
1001
0000
1000
0000
0100
0000
0010
0000
0001
0000
1000
0100
0000
0100
M001
0000
,
0100
0110
0110
0000
0101
0000
0011
0000
,
1001
0000
0010
0100
1001
0000
0100
0010
,
1001
1000
0001
1000
0001
1000
0001
1000
0002
0000
0000
0000
2003
0000
0000
0000
,
3001
0001
1000
0010
0010
0100
0000
0000
0000
0010
1000
0001
,
0010
0010
0100
1000
1000
0100
0010
0100
1000
0010
0010
0100
,
0001
0001
1000
0001
0001
0010
0000
0000
0000
0000
0000
0000
,
0100
0100
1000
0010
0010
0100
0001
0000
0000
0011
0000
0000
,
1000
0000
0000
0000
1000
0000
0000
0000
0001
0000
0000
0000
1000
0000
0000
0001
0000
0000
1000
0000
0000
0000
0000
0000
0001
0000
0000
0000
0000
0000
0010
0000
0000
0000
0000
0000
0001
0000
0000
0000
0000
0000
0000
0000
0000
0000
0000
0000
,
1000
0000
1000
0000
0001
0000
0100
0000
0000
0010
0000
0000
1000
0000
0000
0100
0000
0000
0011
0000
0000
0000
0000
0000
,
0001
0000
1000
0010
1000
0010
1000
0000
0001
0000
1000
0100
1000
0100
1000
0000
,
0001
1000
0001
1000
0001
1000
0001
1000
0001
1000
0001
2000
0002
0000
0000
0000
,
3003
0000
0000
0000
MMMM
0000
0000
0000
1000
0001
1000
0001
2000
0000
0000
0000
,
0000
0100
0000
3000
0011
0000
0002
0000
,
0000
0100
0000
0003
1010
0000
2000
0000
,
0000
0010
0000
3000
1001
0000
0002
0000
,
0000
0100
0000
0003
1010
0000
1200
0000
,
0000
0001
0000
0300
1100
0000
1020
0000
,
0000
0001
0000
0030
1010
0000
2001
0000
,
0000
0010
0000
3000
1001
0000
0021
0000
,
0000
0100
0000
0030
1100
0000
1001
0001
,
0100
0001
1000
0010
1000
0010
1000
0100
,
1000
0100
0010
0001
0010
0100
1000
0001
,
1000
0001
0100
0010
0100
0010
1000
0010
,
1000
0010
0100
0001
0100
0001
0010
0010
,
1000
0010
0001
0001
0100
1000
0100
0100
,
0010
1000
0001
0001
0010
0100
1100
0100
,
0010
0010
0011
0001
1000
1000
1001
0010
,
1001
0100
0101
0100
0110
1000
1001
0000
;

//---------------dance-double - Pandy as "SHOGUN"----------------
#NOTES:
     dance-double:
     :
     Hard:
     12:
     0.433444,0.595805,0.413388,0.109197,0.077998,389.000000,336.000000,53.000000,14.000000,0.000000,0.000000,0.433444,0.595805,0.413388,0.109197,0.077998,389.000000,336.000000,53.000000,14.000000,0.000000,0.000000:
00000000
00000000
00000000
00000000
,
00000000
00000000
00000000
00000000
,
00000000
00000000
00000000
00000000
,
00000000
00000000
00000000
00000000
,
11000000
00000000
00000000
00000000
10000000
00000000
00000000
00000000
00000000
00010000
00010000
00000000
00100000
00000000
00000000
00000000
,
00000000
00000000
00000000
00000000
00001000
00000000
00000000
00000000
00010000
00000100
00000100
00000000
00001000
00000000
00000000
00000000
,
00000010
00000000
00000000
00000000
00000100
00000000
00000000
00000000
00000000
00000001
00000001
00000000
00000010
00000000
00000000
00000000
,
00000100
00000000
00000000
00000000
00010000
00000000
00000000
00000000
00001000
00010000
00010000
00000000
00011000
00000000
00000000
00000000
,
00001000
01000000
00100000
10000000
,
01000000
00010000
01000000
00100000
,
00001000
00010000
00000100
00001000
,
00000010
00000001
00000010
00001000
,
00001100
00001100
00010100
00010100
,
00011000
00011000
00001000
01001000
,
01000000
00100000
01000000
00100000
10000000
00010000
10000000
00010000
,
10000000
01000000
10000000
01000000
10000000
01000000
20000000
02000000
00000000
00000000
00000000
00000000
33000000
00000000
00000000
00000000
,
00110000
00000000
00100000
00000000
00001000
00010000
00000100
00000000
,
00010000
00001000
00100000
00001000
00010000
00000100
00010000
00000000
,
00001000
00010000
00001000
00000000
00010000
00000100
00010000
00000000
,
00000100
00001000
00000010
00000100
00000001
00000010
00000100
00000000
,
00000010
00000000
00000001
00000000
00000100
00000100
00000010
00000000
,
00001000
00000000
00000100
00000000
00010000
00010000
00001000
00100000
,
01000000
00000000
10000000
00000000
01000000
00100000
00010000
00000000
,
00100000
00100000
00001000
00001000
00010000
00001000
00010000
00000000
,
00000100
00001000
00000100
00000000
00001000
00000010
00001000
00000000
,
00000010
00000100
00000010
00000100
00000001
00000100
00000001
00000000
,
00000010
00000001
00000010
00000000
00000010
00000100
00000010
00000000
,
00000100
00001000
00000100
00001000
00000100
00010000
00001000
00000000
,
00001000
01000000
00100000
00000000
10000000
01000000
00010000
00000000
,
01000000
10000000
00100000
01000000
00001000
00010000
00001000
00000000
,
00010000
00000100
00001000
00000000
00000100
00001000
00000010
00000000
,
00000100
00000010
00010000
00001000
01000000
00100000
10000000
00000000
,
11000000
00000000
01000000
00000000
00100000
00100000
00010000
01000000
,
00000000
00100000
10000000
00000000
00010000
00100000
00001000
00001000
,
00000000
00010000
00000100
00000100
00001000
00000010
00000100
00000001
,
00000000
00000010
00000100
00000100
00001000
00000100
00010000
00001000
,
00011000
00000000
00011000
00000000
00010000
00000100
00010000
00001000
,
01000000
00000000
01001000
00000000
00001000
01000000
00010000
01000000
,
00100000
00000000
10000000
00000000
01000000
00100000
01000000
00000000
,
01000000
00100000
00010000
00001000
00000100
00000010
00000001
00000000
,
00001001
00000000
00000000
00000000
,
00000000
00000110
00000110
00000000
00000100
00000000
00000000
00000000
,
00001001
00000000
00000000
00000000
,
00000000
00001100
00001100
00000000
00000100
00000000
00010000
00000000
,
00011000
00000000
00000000
00000000
,
00000000
00101000
00101000
00000000
00001000
00000000
00000000
00000000
,
00110000
00000000
11000000
00000000
,
10010000
01100000
10010000
01100000
,
20000000
32000000
03020000
00031000
,
00000020
00000032
00000103
00001001
,
00000002
00000203
00002300
00013000
,
00200000
20300000
30010000
10010000
,
10000000
01000000
10000000
00100000
10000000
00100000
00000000
00000000
00000000
01000000
00100000
01000000
,
00010000
01000000
00010000
00100000
00001000
00100000
00001000
00010000
00001000
01000000
00000000
00000000
,
00010000
01000000
00100000
00000000
00100000
10000000
00010000
00000000
,
00100000
00001000
00010000
00000100
00010000
00001000
00100000
00000000
,
00022000
00033000
00000000
00100000
,
00000000
00010000
00000000
00000000
11000000
00000000
10000000
00000000
,
00000000
00100000
00000000
00000000
01010000
00000000
00010000
00000000
,
00000000
00100000
00000000
00000000
00101000
00000000
00001000
00000000
,
00000000
00010000
00000000
00000000
00010100
00000000
00000100
00000000
,
00000000
00001000
00000000
00000000
00001010
00000000
00000010
00000000
,
00000000
00000100
00000000
00000000
00000101
00000000
00000001
00000000
,
00000000
00000010
00000000
00000000
00000110
00000000
00000100
00000000
,
00000000
00010000
00000000
00000000
00011000
00000000
00001000
00000000
,
01000000
00100000
10000000
01000000
,
00010000
01000000
10000000
00010000
,
00100000
00001000
00010000
00000010
,
00000001
00000010
00001000
00001100
,
00000100
00010100
00010000
00011000
,
00001000
01001000
01000000
01100000
,
01100000
10010000
10010000
11000000
,
01100000
00110000
00101000
00011000
;

//---------------dance-double - Pandy as "SHOGUN"----------------
#NOTES:
     dance-double:
     :
     Challenge:
     16:
     0.686379,0.794406,0.366589,0.140396,0.475786,616.000000,569.000000,47.000000,18.000000,17.000000,0.000000,0.686379,0.794406,0.366589,0.140396,0.475786,616.000000,569.000000,47.000000,18.000000,17.000000,0.000000:
00000000
00000000
00000000
00000000
,
00000000
00000000
00000000
00000000
,
00000000
00000000
00000000
00000000
,
00000000
00000000
00000000
00000000
,
10010000
00000000
00000000
00000000
00010000
00000000
00000000
00000000
11000000
10000000
10000000
00000000
00010000
00000000
00000000
00000000
,
00110000
00000000
00000000
00000000
00101000
00000000
00000000
00000000
00010100
00000100
00000100
00000000
00011000
00000000
00000000
00000000
,
00101000
00000000
00000000
00000000
00100000
00000000
00000000
00000000
11000000
01000000
01000000
00000000
10100000
00000000
00000000
00000000
,
01000000
00000000
00000000
00000000
01010000
00000000
00000000
00000000
00101000
00001000
00001000
00000000
00011000
00000000
00000000
00000000
,
00010000
00000000
00000100
00010000
00001000
00000000
01000000
00000000
10000000
00000000
01000000
00000000
00010000
00000000
10000000
00000000
,
01000000
00000000
00100000
00001000
00010000
00000000
00001000
00000000
00000010
00000000
00000001
00000000
00000010
00000000
00000100
00000000
,
00001000
00000000
00000100
00010000
00001000
00000000
00100000
00000000
01000000
00000000
10000000
00000000
00100000
00000000
10000000
00000000
,
00010000
00000000
01000000
00100000
10000000
00000000
00010000
00000000
00100000
00000000
00001000
00000000
00010000
00000000
00000100
00000000
,
00001001
00000000
00001000
00000010
00010000
00000000
00001000
00000000
01000000
00000000
10000000
00000000
01000000
00000000
00010000
00000000
,
00100000
00000000
00001000
00010000
00001000
00000000
00010000
00000000
00000010
00000000
00000001
00000000
00000010
00000000
00001000
00000000
,
00000001
00000010
00000100
00001000
00000010
00000100
00000001
00001000
,
00000001
00000100
00000001
00000100
00000010
00001000
00000010
00001000
00000000
00000000
00000000
00000000
0011MMMM
00000000
00000000
00000000
,
11000000
00000000
00000000
00000000
01000000
00000000
00100000
00000000
00010000
00100000
00010000
00100000
01000000
00000000
00000000
00000000
,
10000000
00000000
01000000
10000000
00100000
10000000
01000000
00000000
00100000
00010000
01000000
00010000
00100000
00000000
00000000
00000000
,
00001000
00010000
00000100
00010000
00001000
00000000
00010000
00000100
00001000
00000010
00000100
00000000
00000010
00000000
00000100
00000001
,
00001000
00000100
00001000
00000000
00010000
00001000
00010000
00000000
01000000
00010000
01000000
00000000
10010000
00000000
00000000
00000000
,
12000000
00000000
00000000
00000000
03100000
00000000
01000000
10000000
00100000
01000000
00020000
00000000
00230000
00000000
00000000
00000000
,
00302000
00000000
00000000
00000000
00013000
00000000
00010000
00000000
00001000
01000000
00010000
01000000
00200000
00000000
20300000
00000000
,
31000000
00100000
00020000
00000000
10000000
00000000
10030000
00000000
01000000
10000000
00100000
00000000
01000000
00000000
00100000
01000000
,
00010000
00000000
00100000
00001000
00010000
00000010
00000100
00000000
00000010
00001000
00000001
00000000
00001100
00000000
00000000
00000000
,
00101000
00001000
00001000
00010000
00000100
00000100
00001000
00001000
,
00000010
00000100
00000100
00000001
00000010
00000010
00000100
00000100
,
00001000
00000010
00000010
00010000
00001000
00001000
01000000
01000000
,
00100000
00000000
10000000
00100000
00000000
01000000
00010000
00000000
00100000
00000000
00100000
00000000
01000000
00000000
01000000
00000000
,
11000000
00000000
01000000
00000000
00100000
01000000
10000000
00010000
01000000
00010000
00100000
00001000
00010000
00000000
00000000
00000000
,
00010000
00000010
00000100
00000000
00000010
00000000
00000100
00000001
00000010
00000100
00001000
00000001
00002000
00000000
00000000
00000000
,
00003200
00000000
00010300
00001000
01000000
00000000
00100000
10000000
01000000
00100000
00010000
00100000
01000000
10000000
00100000
01000000
,
00010000
00100000
00010000
00100000
00010000
00000000
10000000
00000000
00100000
01000000
00100000
01000000
00100000
00000000
01000000
00000000
,
01002000
00010000
00013000
00001000
00010000
00010000
00010000
00010000
,
00000100
00001000
00001000
00000010
00000100
00000100
00000100
00000100
,
00000010
00010000
00010000
00001000
01000000
01000000
01000000
01000000
,
00100000
10000000
10000000
01000000
00100000
00100000
00100000
00100000
,
00101000
00000000
00011000
00000000
00010100
00010000
00011000
00001000
,
01001000
00000000
01100000
00100000
01000000
01000000
01000000
01000000
,
00100000
10000000
10000000
10000000
10000000
10000000
10000000
10000000
,
00010000
00100000
00100000
00100000
00100000
00100000
00100000
00100000
,
00101000
00000000
00100000
00000000
00001000
00000000
00010000
00000000
00000010
00000000
00001000
00000100
00000000
00000100
0000M001
00000000
,
00001000
00000000
00001001
00000000
00001001
00000000
00000001
00000000
00000100
00000000
00000001
00000010
00000000
00000010
0000100M
00000000
,
00001010
00000000
00000010
00000000
00010000
00000000
00001000
00000000
01000000
00000000
00010000
00100000
00000000
00100000
100M0000
00000000
,
01000000
00000000
11000000
00000000
11000000
00000000
10000000
00000000
00100000
00000000
01000000
00001000
00000000
00001000
00010000
00000000
,
00011000
00000000
00010000
00000000
00001000
00000000
00010000
00000000
00000010
00000000
00001000
00000010
00000000
00000010
0000M001
00000000
,
00000010
00000000
00000011
00000000
00000011
00000000
00000001
00000000
00000100
00000000
00000001
00000100
00000000
00000100
0000100M
00000000
,
00001100
00000000
00000100
00010000
00011000
00000000
00010000
00001000
,
00010000
00000100
00010000
00000100
00010000
00001000
00010000
00001000
01000000
00001000
01000000
00001000
01000000
00000000
00100000
00000000
,
10000000
01000000
00010000
00001000
00000010
00000001
00001000
00000000
00000000
00000000
00000000
00000000
,
00000001
00000100
00001000
00010000
00100000
10000000
00010000
10000000
01000000
00100000
00010000
00100000
,
01000000
00100000
00010000
00001000
00000100
00000010
00000100
00000000
00000000
00001000
00000001
00001000
,
00000001
00000100
00001000
00010000
00100000
10000000
00010000
00100000
01000000
10000000
01000000
00100000
,
00010000
00000000
10000000
00000000
00010000
00000000
00100000
00000000
00001000
00000000
00010000
00000000
00000100
00000000
00000000
00010000
00000000
00000000
00001000
00000000
00000000
01000000
00000000
00000000
,
00100000
00000000
00000000
00000000
01000000
00000000
00000000
00000000
00010000
00000000
00000000
00000000
00100000
00000000
00000000
00000000
00001000
00000000
00000000
00000000
00010000
00000000
00000000
00000000
00000100
00000000
00000000
00010000
00000000
00000000
00001000
00000000
00000000
00000000
00000000
00000000
00001000
00000000
00000000
01000000
00000000
00000000
00100000
00000000
00000000
00000000
00000000
00000000
,
01000000
00010000
00100000
00001000
00010000
00000100
00010000
00001000
,
00010000
00000010
00010000
00000010
00010000
00001000
00010000
00001000
00100000
00001000
00100000
00001000
00100000
00000000
00000000
00000000
,
00011000
MMMMMMMM
00000000
00201000
,
00000000
00010000
00000000
00000000
00301000
00000000
00021000
00000000
,
00000000
00000100
00000000
00000000
00031000
00000000
00210000
00000000
,
00000000
00010000
00000000
00000000
00301000
00000000
00012000
00000000
,
00000000
01000000
00000000
00000000
00013000
00000000
02001000
00000000
,
00000000
00010000
00000000
00000000
03100000
00000000
21000000
00000000
,
00000000
01000000
00000000
00000000
30010000
00000000
00201000
00000000
,
00000000
00010000
00000000
00000000
00301000
00000000
00002100
00000000
,
00000000
00000010
00000000
00000000
00003001
00000000
00000100
00000010
,
00000100
00000010
00001000
00000010
00001000
00000010
00001000
00000100
,
00001000
00000100
00010000
00000100
00010000
00000100
00010000
00001000
,
00100000
00001000
00010000
00000100
00001000
00000010
00001000
00000100
,
00010000
00001000
01000000
00100000
01000000
00001000
00010000
00010000
,
00000100
00001000
00000010
00000010
00000100
00000001
00000010
00000010
,
00000100
00001000
00000100
00000100
00010000
00001000
01000000
01000000
,
00100000
10000000
01000000
01000000
00100000
00001000
00010000
00010000
,
00000100
00000000
00001000
00000000
00000100
00010000
00000100
00010000
00001000
00010000
00001000
00010000
00000010
00000000
00000000
00000000
;
