#VERSION:0.83;
#TITLE:S.N.U.F.F.Y (CupcakKe Remix);
#SUBTITLE:;
#ARTIST:METAROOM remixed by Z-I-v Step Team;
#TITLETRANSLIT:;
#SUBTITLETRANSLIT:;
#ARTISTTRANSLIT:;
#GENRE:;
#CREDIT:;
#MUSIC:S.N.U.F.F.Y (CupcakKe Remix).ogg;
#BANNER:S.N.U.F.F.Y (CupcakKe Remix)-bn.png;
#BACKGROUND:S.N.U.F.F.Y (CupcakKe Remix)-bg.png;
#CDTITLE:;
#SAMPLESTART:28.803;
#SAMPLELENGTH:15.000;
#SELECTABLE:YES;
#OFFSET:2.387;
#BPMS:0.000=100.000;
#STOPS:;
#SPEEDS:0.000=1.000=0.000=0;
#SCROLLS:0.000=1.000,
116.000=0.500,
119.000=1.000
;
#BGCHANGES:;
#FGCHANGES:;

//--------------- dance-single - ----------------
#NOTEDATA:;
#STEPSTYPE:dance-single;
#DESCRIPTION:;
#DIFFICULTY:Hard;
#METER:12;
#RADARVALUES:0,0,0,0,0;
#CREDIT:Talkion (respect to Kekkle);
#NOTES:
0000
0000
0000
0000
,
0000
0000
0000
0000
,
0000
0000
0000
0000
,
0000
0000
0000
0000
,
0000
0000
0000
0000
,
0001
0000
1000
0200
1000
0000
0310
0000
0000
0000
0001
0200
0001
0000
0310
0000
,
0000
0000
1000
0100
0010
0000
0000
0010
0001
1000
0100
1000
0002
0000
0103
0000
,
2000
0000
0000
3100
0001
0000
0000
1000
0001
1000
0010
1000
0002
0000
0013
0000
,
2000
0000
0000
3010
0001
0000
0000
1000
0001
1000
0100
1000
0002
0000
0103
0000
,
0010
0000
1000
0020
1000
0000
0130
0000
0000
0000
0001
0020
0001
0000
0130
0000
,
2100
3001
0102
1003
2010
3001
0012
1003
,
0100
0000
1000
0100
0010
0000
0000
0010
0001
1000
0100
1000
0001
0000
0100
0000
,
0201
1300
1200
0301
0021
1030
1020
0031
,
1001
0000
0000
0000
1000
0000
0001
0100
0000
0100
0000
0100
2000
0000
3000
0000
,
0101
0000
0000
0000
1001
0000
1000
0100
0000
0100
0000
0100
0002
0000
0003
0000
,
1100
0000
0000
0000
1001
0000
0001
0100
0000
0100
0000
0100
2000
0000
3000
0000
,
0101
0000
0000
0000
1001
0000
1000
0100
0000
0100
0000
0100
0002
0000
0103
0000
,
1100
0000
0000
0000
1001
0000
1000
0010
0000
0010
0000
0010
0002
0000
0003
0000
,
1010
0000
0000
0000
1001
0000
0001
0010
0000
0010
0000
0010
2000
0000
3000
0000
,
0011
0000
0000
0000
1001
0000
1000
0010
0000
0010
0000
0010
0002
0000
0003
0000
,
1010
0000
0000
0000
1001
0000
0001
0010
0000
0010
0000
0010
2000
0000
3010
0000
,
0001
0010
0000
0010
0200
0000
0000
1300
0000
1000
0000
0001
0100
0000
0000
0000
,
0020
0130
0002
1003
0200
0310
0002
1003
,
0010
0100
0001
0000
1000
0100
1000
0100
1000
0000
0001
0100
0010
0000
0000
0000
,
0100
0000
1000
0000
0100
0000
0001
0000
0010
0000
1000
0000
0010
0100
0010
0000
,
0002
0000
1003
0000
0010
0100
0010
0000
1000
0001
0000
0010
0000
0010
0000
0000
,
0200
0310
0002
1003
0020
0130
0002
1003
,
0100
0010
0100
0000
1000
0001
1000
0000
0010
0100
0000
0001
0000
0001
0000
0000
,
0021
1030
1020
0031
0201
1300
1200
0301
,
2002
0000
0000
3003
,
1001
0000
0000
0000
1000
0000
0001
0010
0000
0010
0000
0010
2000
0000
3010
0100
,
0010
0000
0000
0000
1001
0000
1000
0010
0000
0010
0000
0010
0002
0000
0013
0100
,
0010
0000
0000
0000
1001
0000
0001
0010
0000
0010
0000
0010
2000
0000
3010
0000
,
0011
0000
0000
0000
1001
0000
0001
0100
0000
0100
0000
0100
2000
0000
3100
0010
,
0100
0000
0000
0000
1001
0000
1000
0100
0000
0100
0000
0100
0002
0000
0103
0010
,
0100
0000
0000
0000
1001
0000
0001
0100
0000
0100
0000
0100
2000
0000
3100
0010
,
0100
0000
0000
0000
1001
0000
1000
0100
0000
0100
0000
0100
0002
0000
0103
0000
,
1000
0000
0001
0200
0001
0000
0310
0000
1000
0000
0001
0020
0001
0000
0130
0000
,
1000
0000
0001
0100
0010
0000
0000
0010
1000
0001
0100
0001
1000
0000
0100
0000
,
0002
0000
0000
0103
1000
0000
0000
0001
1000
0001
0010
0001
1000
0000
0010
0000
,
0002
0000
0000
0013
1000
0000
0000
0001
1000
0001
0100
0001
1000
0000
0100
0000
,
0010
0100
0010
0200
1000
0000
0310
0000
0001
0000
1000
0020
1000
0000
0130
0000
,
0010
0100
0010
0100
0001
0000
0000
0001
1000
0001
0010
0001
1000
0000
0100
0000
,
0002
0000
0000
0103
1000
0000
0000
0001
1000
0001
0010
0001
1000
0000
0010
0000
,
0002
0000
0000
0013
1000
0000
0000
0001
1000
0001
0100
0001
2000
0000
3100
0000
;

//--------------- dance-single - ----------------
#NOTEDATA:;
#STEPSTYPE:dance-single;
#DESCRIPTION:;
#DIFFICULTY:Challenge;
#METER:14;
#RADARVALUES:0,0,0,0,0;
#CREDIT:Talkion (respect to Kekkle);
#NOTES:
0000
0000
0000
0000
,
0000
0000
0000
0000
,
0000
0000
0000
0000
,
0000
0000
0000
0000
,
0000
0000
0000
0000
,
1001
0000
0001
0100
0020
0000
0130
0000
0010
0000
1000
0100
0020
0000
0130
0000
,
0010
0000
0001
0100
2001
0000
0000
3010
0100
1000
0100
0010
2000
0000
3002
0000
,
MMM0
0000
0003
0010
2001
0000
0000
3100
0010
1000
0010
0100
2000
0000
3002
0000
,
MMM0
0000
0003
0100
2001
0000
0000
3010
0100
1000
0100
0010
2000
0000
3001
0000
,
1001
0000
1000
0100
0020
0000
0130
0000
0010
0000
0001
0100
0020
0000
0130
0000
,
0010
0000
1000
0100
1002
0000
0000
0013
0100
0001
0100
0010
0002
0000
2003
0000
,
0MMM
0000
3000
0010
1002
0000
0000
0103
2000
3100
0010
1000
0001
0000
1000
0000
,
1002
0000
1003
0100
0002
0000
1003
0010
0002
0000
1003
0010
0002
0000
0013
1000
,
1001
0000
0000
0000
1020
0000
0130
1000
0000
1000
0100
0010
2000
0000
3001
0000
,
0010
0000
0000
0000
0021
0000
0130
0001
0000
0001
0100
0010
0002
0000
1003
0000
,
0010
0000
0000
0000
1020
0000
0130
1000
0000
1000
0100
0010
2000
0000
3001
0000
,
0010
0000
0000
0000
0021
0000
0130
1000
0000
1000
0010
0100
0001
1000
0001
1000
,
0100
0000
0000
0000
1200
0000
0310
1000
0000
1000
0010
0100
2000
0000
3001
0000
,
0100
0000
0000
0000
0201
0000
0310
0001
0000
0001
0010
0100
0002
0000
1003
0000
,
0100
0000
0000
0000
1200
0000
0310
1000
0000
1000
0010
0100
2000
0000
3001
0000
,
0100
0000
0000
0000
0201
0000
0310
1000
0000
1000
0100
0010
0002
0000
1003
0000
,
0001
0100
0000
0100
0020
0000
0000
1030
0000
1000
0000
0001
0100
0001
1000
0001
,
0020
0130
2000
3001
0200
0310
2000
3001
,
0010
0100
1000
0000
0001
0100
0010
0100
0001
0000
1000
0001
0010
0001
1000
0001
,
0100
0000
1000
0000
0100
0000
0001
0000
0010
0000
1000
0000
0010
0100
0010
0000
,
2001
0000
3010
0000
0100
0010
0100
0001
1000
0100
0000
0010
0100
1000
0001
1000
,
0020
0130
0002
1003
0200
0310
0002
1003
,
0010
0100
0001
1000
0100
0010
0100
0000
1000
0001
0000
0100
0010
0100
0001
0000
,
2001
0000
3001
0010
2000
0000
3001
0100
2000
0000
3001
0100
2000
0000
3200
0000
,
M0MM
M0MM
M0MM
M0MM
M0MM
M0MM
0300
0000
,
1001
0000
1000
0000
1200
0000
0310
1000
0000
1000
0010
0100
1000
0001
0010
0001
,
1000
0000
0010
0000
1020
0000
0130
1000
0000
1000
0100
0010
1000
0001
0100
0001
,
1000
0000
0100
0000
1200
0000
0310
1000
0000
1000
0010
0100
1000
0001
1000
0001
,
0100
0000
0001
0000
0021
0000
0130
0001
0000
0001
0100
0010
0001
1000
0100
1000
,
0001
0000
0100
0000
0201
0000
0310
0001
0000
0001
0010
0100
0001
1000
0010
1000
,
0001
0000
0010
0000
0021
0000
0130
0001
0000
0001
0100
0010
0001
1000
0100
1000
,
0001
0000
0100
0000
0201
0000
0310
1000
0000
1000
0100
0010
0001
0001
1000
1000
,
0010
0100
0001
1000
0200
0010
0300
0001
1000
0010
0100
0010
2000
0000
3001
0000
,
0010
0001
1000
0100
1001
0000
1000
0010
0100
1000
0100
0010
1000
1000
0002
0000
,
MMM0
0000
0003
0100
1001
0000
0001
0010
0100
0001
0100
0010
0001
0001
2000
0000
,
0MMM
0000
3000
0100
1001
0000
1000
0010
0100
1000
0100
0010
1000
0001
0010
0000
,
0100
0010
0001
0100
0020
0000
0130
0000
0010
0000
1000
0100
0020
0000
0130
0000
,
0010
0001
0100
0010
1001
0000
1000
0001
0010
1000
0010
0001
1000
1000
0020
0000
,
MM0M
0000
0030
0100
1001
0000
0001
1000
0010
0001
0010
1000
0001
0001
0020
0000
,
MM0M
0000
0030
0100
1001
0000
1000
0001
0010
1000
0010
0001
2000
0000
3010
0000
;
