#TITLE:Round & Round;
#SUBTITLE:;
#ARTIST:Cherry;
#TITLETRANSLIT:;
#SUBTITLETRANSLIT:;
#ARTISTTRANSLIT:;
#GENRE:;
#CREDIT:Nezemarth;
#BANNER:Round & Round.png;
#BACKGROUND:ROUND & ROUND-bg.png;
#LYRICSPATH:;
#CDTITLE:;
#MUSIC:Round & Round.ogg;
#OFFSET:-5.704000;
#SAMPLESTART:67.251999;
#SAMPLELENGTH:12.000000;
#SELECTABLE:YES;
#BPMS:0.000000=155.990997
;
#STOPS:
;
#BGCHANGES:;
#KEYSOUNDS:;
#ATTACKS:;

//---------------dance-single - ----------------
#NOTES:
     dance-single:
     :
     Beginner:
     4:
     0.000000,0.000000,0.000000,0.000000,0.000000,0.000000,0.000000,0.000000,0.000000,0.000000,0.000000,0.000000,0.000000,0.000000,0.000000,0.000000,0.000000,0.000000,0.000000,0.000000,0.000000,0.000000:
0000
0000
0000
0000
,
0000
0000
0000
0000
,
0000
0000
0000
0000
,
0000
0000
0000
0000
,
1000
1000
0000
0000
,
0001
0001
0000
0000
,
1000
1000
0000
0000
,
0001
0001
0000
0000
,
0010
0000
0000
0000
,
0100
0000
0000
0000
,
1000
0000
0000
0000
,
0001
0000
0000
0000
,
0100
0000
0000
0000
,
0010
0000
0000
0000
,
1000
0000
0000
0000
,
0001
0000
0000
0000
,
1000
0000
0100
0000
,
0100
0000
0001
0000
,
0001
0000
0010
0000
,
0010
0010
0010
0000
,
1000
0000
1000
0000
,
0010
0000
0010
0000
,
0001
0000
0001
0000
,
0100
0100
0100
0000
,
1000
1000
1000
0000
,
0001
0000
0001
0000
,
0100
0000
1000
0000
,
0010
0000
0001
0000
,
1000
1000
1000
0000
,
0001
0000
0001
0000
,
1000
0000
0100
0000
,
0001
0000
0010
0000
,
1000
0000
0100
0000
,
0001
0000
0100
0000
,
1000
0000
0100
0000
,
0001
0000
0000
0000
,
1000
0000
0010
0000
,
0001
0000
0010
0000
,
1000
0000
0010
0000
,
0001
0000
0100
0000
,
1000
0000
0100
0000
,
0001
0000
0010
0000
,
1000
0000
0001
0000
,
1000
0000
1000
0000
,
0001
0000
0100
0000
,
1000
0000
0010
0000
,
0001
0000
1000
0000
,
0001
0000
0001
0000
,
0100
0000
0010
0000
,
1000
0000
0100
0000
,
0100
0000
0001
0000
,
0010
0010
0010
0000
,
1000
0000
1000
0000
,
0010
0000
0010
0000
,
0001
0000
0001
0000
,
0100
0100
0100
0000
,
1000
0000
0010
0000
,
0001
0000
0100
0000
,
1000
0000
0001
0000
,
1000
0000
1000
0000
,
0001
0000
0100
0000
,
1000
0000
0010
0000
,
0001
0000
1000
0000
,
0001
0000
0001
0000
,
1000
0000
0100
0000
,
0001
0000
0010
0000
,
1000
0000
0001
0000
,
1000
0000
1000
0000
,
0001
0000
0010
0000
,
1000
0000
0100
0000
,
0001
0000
0001
0000
,
1000
0000
0100
0000
;

//---------------dance-single - ----------------
#NOTES:
     dance-single:
     :
     Easy:
     7:
     0.000000,0.000000,0.000000,0.000000,0.000000,0.000000,0.000000,0.000000,0.000000,0.000000,0.000000,0.000000,0.000000,0.000000,0.000000,0.000000,0.000000,0.000000,0.000000,0.000000,0.000000,0.000000:
0000
0000
0000
0000
,
0000
0000
0000
0000
,
0000
0000
0000
0000
,
0000
0000
0000
0000
,
1001
1001
0000
0000
,
1001
0011
0000
0000
,
1001
1001
0000
0000
,
0001
0000
0100
0010
0000
1000
0000
0000
,
0001
0001
0000
0000
,
1000
1000
0000
0000
,
0100
0100
0000
0000
,
0010
0001
2000
0000
,
3010
0010
0000
0000
,
0100
0100
0000
0000
,
0001
0001
0000
0000
,
1000
0010
2000
0000
,
3001
0001
0010
0010
,
1000
1000
0010
0010
,
0001
0001
0100
0100
,
1000
0010
0002
0000
,
1003
1000
0010
0010
,
0001
0001
0010
0010
,
1000
1000
0100
0100
,
0001
0010
2000
0000
,
3001
0001
0100
0010
,
1010
1010
1000
0100
,
0110
0001
1001
1000
,
0010
0100
0001
0001
,
0011
0011
0010
0100
,
1100
1100
1000
0010
,
0110
0001
1001
1000
,
0100
0010
1001
0000
,
1000
0100
0001
0100
,
0010
0001
0100
1000
,
0100
0100
0010
1000
,
0100
0000
0000
0010
,
0001
0100
1000
0100
,
0010
1000
0100
0001
,
1000
0010
0001
0100
,
0010
0000
0100
0001
0000
1000
0000
0000
,
1100
0100
1000
0100
,
0001
0010
0001
0010
,
1000
0100
0001
0100
,
0010
0001
0100
0000
,
0001
0100
0001
0100
,
1000
0010
1000
0010
,
0001
0100
1000
0100
,
0010
0000
1000
0000
0100
0100
0100
0000
,
0001
0001
0100
0100
,
1000
1000
0010
0010
,
0001
0001
0010
0010
,
1000
0100
0002
0000
,
1003
1000
0010
0010
,
0001
0001
0100
0100
,
1000
1000
0100
0100
,
0001
0010
2000
0000
,
3010
0001
0010
0001
,
0100
1000
0100
1000
,
0010
0001
0100
1000
,
0100
0001
1001
0000
,
0001
0010
0001
0010
,
1000
0100
1000
0100
,
0001
0010
1000
0100
,
0001
1000
1001
0000
,
1000
0100
1000
0100
,
0001
0011
0010
1010
,
1000
0100
0001
0100
,
1000
0001
1001
0000
,
0001
0100
1000
0010
,
0001
0011
1000
1010
,
0001
0010
0100
1000
,
0002
0000
0203
0300
;

//---------------dance-single - ----------------
#NOTES:
     dance-single:
     :
     Medium:
     12:
     0.556941,0.546098,0.422840,0.169136,0.262161,461.000000,411.000000,50.000000,20.000000,0.000000,0.000000,0.556941,0.546098,0.422840,0.169136,0.262161,461.000000,411.000000,50.000000,20.000000,0.000000,0.000000:
// measure 0
0000
0000
0000
0000
,  // measure 1
0000
0000
0000
0000
,  // measure 2
0000
0000
0000
0000
,  // measure 3
0000
0000
0000
0000
,  // measure 4
1001
0000
1001
0000
1000
0010
0100
0000
,  // measure 5
1001
0000
0011
0000
0010
0100
1000
0000
,  // measure 6
1001
0000
1001
0000
1000
0010
0100
0000
,  // measure 7
1001
0000
0001
0010
0000
1000
0010
0010
,  // measure 8
0011
0000
0010
0001
0000
0010
0001
0000
0000
0000
0000
0000
0100
0000
0100
0000
,  // measure 9
0010
0000
1000
0010
0000
1000
0010
0000
0000
0000
0000
0000
0000
0000
0000
0000
,  // measure 10
1010
0000
1000
0001
0000
1000
0001
0000
0000
0000
0000
0000
0000
0000
0000
0000
,  // measure 11
0010
0001
1000
0010
0100
0001
1000
0100
,  // measure 12
0110
0000
0010
0100
0000
1000
0001
0000
0000
0000
0000
0000
1000
0000
1000
0000
,  // measure 13
0010
0000
0100
0001
0000
1000
0100
0000
0000
0000
0000
0000
0010
0000
0010
0000
,  // measure 14
0011
0000
0001
0100
0000
0010
0100
0000
0000
0000
0000
0000
1000
0000
1000
0000
,  // measure 15
0100
0010
1000
0100
0010
0001
0100
0100
,  // measure 16
0110
0000
0000
0010
0000
0000
1000
0000
0100
0000
0000
0010
0000
0000
0001
0000
,  // measure 17
1000
0000
0000
0010
0000
0000
0001
0000
1000
0000
0000
0100
0000
0000
0001
0000
,  // measure 18
1001
0000
0000
0100
0000
0000
0010
0000
0011
0000
0000
1000
0000
0000
0100
0000
,  // measure 19
0010
0001
1000
0010
0100
0001
0010
0000
,  // measure 20
0110
0000
0000
0100
0000
0000
1000
0000
0010
0000
0000
0100
0000
0000
1000
0000
,  // measure 21
0001
0000
0000
0010
0000
0000
1000
0000
0001
0000
0000
0010
0000
0000
0100
0000
,  // measure 22
1100
0000
0000
0100
0000
0000
0001
0000
0101
0000
0000
0001
0000
0000
0100
0000
,  // measure 23
1000
0010
0100
1000
0100
0001
1000
0000
,  // measure 24
1100
0000
0110
0000
0010
0001
0100
0010
,  // measure 25
0000
0000
0110
0000
0010
1000
0100
0000
,  // measure 26
0201
0000
0010
0000
1300
0000
0001
0100
,  // measure 27
1000
0100
0000
0100
0001
1000
0100
0000
,  // measure 28
0110
0000
0011
0000
1000
0100
0010
1000
,  // measure 29
0000
0000
1010
0000
0010
0001
0100
0000
,  // measure 30
1200
0000
0010
0000
0301
0000
0001
0010
,  // measure 31
0000
0100
0000
1000
0100
0010
0001
0000
,  // measure 32
1000
0010
0001
0010
1000
0010
0001
0010
,  // measure 33
0000
0100
0000
0001
0000
0010
1000
0010
,  // measure 34
0001
0001
1000
0010
0100
1000
0100
0001
,  // measure 35
1000
0000
0100
0000
0010
0000
0001
1000
,  // measure 36
0001
0100
1000
0100
0001
0100
1000
0100
,  // measure 37
0001
0010
0000
1000
0010
0100
0000
0000
,  // measure 38
1000
0001
0100
1000
0000
0100
0000
0002
,  // measure 39
0000
0010
0000
1000
0000
0103
0000
0000
,  // measure 40
0001
0000
0000
0001
0010
0000
0000
0010
1000
0000
0000
1000
0100
0000
0000
0100
,  // measure 41
0001
0000
0000
0001
0010
0000
0000
0010
1000
0000
0000
1000
0200
0000
0000
0000
,  // measure 42
0301
0010
1000
0010
0000
0010
0001
0000
,  // measure 43
1000
0010
0100
0001
1000
0100
0010
0000
,  // measure 44
0001
0000
0000
0001
0100
0000
0000
0100
1000
0000
0000
1000
0010
0000
0000
0000
,  // measure 45
0012
0000
0203
0300
2100
0000
3020
0000
,  // measure 46
0031
0100
1000
0100
0000
0100
0010
0000
,  // measure 47
0010
1000
0100
0001
1000
0010
0100
0000
,  // measure 48
1001
0000
0000
1000
0000
0000
0010
0000
0100
0000
0000
1000
0000
0000
0100
0000
,  // measure 49
0001
0000
0000
1000
0000
0000
0100
0000
0010
0000
0000
0100
0000
0000
1000
0000
,  // measure 50
1001
0000
0000
0001
0000
0000
0100
0000
0110
0000
0000
0010
0000
0000
1000
0000
,  // measure 51
0001
0010
0001
1000
0100
0010
0001
0000
,  // measure 52
1001
0000
0000
1000
0000
0000
0010
0000
0100
0000
0000
1000
0000
0000
0100
0000
,  // measure 53
0001
0000
0000
1000
0000
0000
0100
0000
0010
0000
0000
1000
0000
0000
0010
0000
,  // measure 54
1001
0000
0000
0001
0000
0000
0100
0000
0110
0000
0000
0010
0000
0000
1000
0000
,  // measure 55
0001
0010
0001
1000
0100
0010
0001
0000
,  // measure 56
1001
0000
0000
0001
0100
0000
0000
0100
1000
0000
0000
1000
0010
0000
0000
0010
,  // measure 57
0001
0000
0000
0001
0100
0000
0000
0100
1000
0000
0000
1000
0010
0000
0000
0000
,  // measure 58
0001
0000
0100
1000
0000
1000
0100
0000
,  // measure 59
0010
1000
0001
0010
0100
1000
1001
0000
,  // measure 60
1001
0000
0000
1000
0100
0000
0000
0100
0001
0000
0000
0001
0010
0000
0000
0000
,  // measure 61
2010
3100
0102
0013
,  // measure 62
1000
0100
0001
0100
0000
0100
1000
0000
,  // measure 63
0001
0100
0010
1000
0001
0010
0100
0100
,  // measure 64
1001
0000
0000
0001
0100
0000
0000
0100
1000
0000
0000
1000
0010
0000
0000
0000
,  // measure 65
0012
0003
0201
0300
2100
3000
1020
0030
,  // measure 66
1001
0000
1000
0010
0000
0010
0100
0000
,  // measure 67
0001
1000
0100
0010
0001
0100
0110
0000
,  // measure 68
1001
0000
0000
1000
0100
0000
0000
0100
0001
0000
0000
0001
0010
0000
0000
0000
,  // measure 69
0021
0030
2010
3000
1200
0300
0102
0003
,  // measure 70
1000
0100
0010
1000
0010
0001
0100
0000
,  // measure 71
0020
0000
0032
0003
;

//---------------dance-single - ----------------
#NOTES:
     dance-single:
     :
     Hard:
     13:
     0.000000,0.000000,0.000000,0.000000,0.000000,0.000000,0.000000,0.000000,0.000000,0.000000,0.000000,0.000000,0.000000,0.000000,0.000000,0.000000,0.000000,0.000000,0.000000,0.000000,0.000000,0.000000:
0000
0000
0000
0000
,
0000
0000
0000
0000
,
0000
0000
0000
0000
,
0000
0000
0000
0000
,
1001
0000
1001
0000
1000
0100
0010
0000
,
0011
0000
0101
0000
0100
0010
1000
0000
,
1100
0000
0110
0000
0010
0001
0100
0000
,
0110
0000
0100
1010
0000
0100
0001
0001
,
1000
0000
0100
0010
0000
0100
0010
0000
0000
0000
0001
0000
0100
0000
0010
0000
,
1000
0000
0001
0100
0000
0001
0100
0000
0000
0000
0010
0000
1000
0000
0100
0000
,
0001
0000
1000
0010
0000
1000
0010
0000
0000
0000
0001
0000
0100
0000
0010
0000
,
0001
0001
1000
1000
0100
0001
1000
0000
,
0010
0000
1000
0100
0000
0010
0100
0000
1000
0000
0001
0000
0100
0000
0010
0000
,
1000
0000
0100
0010
0000
0001
0010
0000
0100
0000
1000
0000
0001
0000
0001
0000
,
0100
0000
0010
1000
0000
0010
0100
0000
0001
0000
1000
0000
0100
0000
0010
0000
,
0001
0010
0001
0000
1000
0010
1000
0000
0002
0000
0000
0000
0010
0000
0010
0000
,
1003
0000
0010
1000
0000
0010
1000
0000
0001
0000
0010
0001
0000
0010
0001
0000
,
1000
0000
0100
1000
0000
0100
1000
0000
0001
0000
0100
0001
0000
0100
0001
0000
,
1000
0000
0100
0010
0000
0100
1000
0000
0001
0000
0100
0010
0000
0100
0001
0000
,
1000
1000
0001
0001
0010
0000
0110
0000
,
1000
0000
0010
1000
0000
0010
1000
0000
0001
0000
0010
0001
0000
0010
0001
0000
,
1000
0000
0100
1000
0000
0100
1000
0000
0001
0000
0100
0001
0000
0100
0001
0000
,
1000
0000
0100
0010
0000
0100
1000
0000
0001
0000
0100
0010
0000
0100
0001
0000
,
1000
0100
1000
0000
0001
0100
0001
0000
2000
0000
0000
0000
0100
0000
3100
0000
,
1100
0000
0011
0000
0001
0100
0010
1000
,
1100
0000
0011
0000
0001
0100
0010
0000
,
0012
0000
0203
0000
1300
0000
0010
0100
,
1000
0100
0010
0100
0001
1000
0100
0000
,
0011
0000
1100
0000
0100
1000
0010
0100
,
1100
0000
0101
0000
0001
1000
0100
0000
,
0110
0000
0011
0000
0101
0000
0100
0010
,
1000
0001
0010
0100
1000
0000
0001
0001
,
0100
1000
0100
0010
0100
0001
1000
0100
,
0010
0001
0000
0010
0000
0100
1000
0001
,
0100
0100
0010
1000
0100
0001
0100
0010
,
0001
0000
1000
0000
0010
0000
0100
0001
,
0010
0100
0010
1000
0010
0100
0010
0001
,
1000
0010
0110
0000
0100
0001
0101
0000
,
1000
0100
0010
0001
1000
0001
0010
0100
,
1000
0001
0100
0110
0000
0001
0000
0000
,
0001
0010
0001
0000
0010
1000
0010
0000
,
1000
0100
1000
0000
0100
0001
0100
0000
,
0001
0010
0100
1000
0100
0001
1000
0000
,
1000
0010
0001
0100
1000
0100
0001
0000
,
0001
0100
0001
0000
0100
1000
0100
0000
,
1100
1000
1010
0010
,
0001
0100
0010
1000
0100
0001
1000
0000
,
1000
0010
0001
0100
1000
0100
0001
0000
,
0010
0000
0100
1000
0000
0100
1000
0000
0010
0000
0100
0001
0000
0100
0001
0000
,
1000
0000
0010
1000
0000
0010
1000
0000
0001
0000
0010
0001
0000
0010
0001
0000
,
1000
0000
0010
0100
0000
0001
0010
0000
0100
0000
1000
0010
0000
0100
0010
0000
,
1000
1000
0001
0001
1000
0100
0110
0000
,
0101
0000
0001
0100
0000
0001
0100
0000
0010
0000
1000
0100
0000
1000
0100
0000
,
0010
0000
0001
0010
0000
0001
0010
0000
0100
0000
1000
0010
0000
1000
0010
0000
,
0100
0000
0001
0010
0000
0100
0010
0000
0001
0000
0100
0010
0000
1000
0100
0000
,
1000
0010
1000
0000
0001
0010
0001
0000
2000
0000
0000
0000
0000
0000
0000
0000
,
3001
0100
1000
0000
0001
0100
1000
0000
,
0001
0010
1000
0000
0001
0010
1000
0000
,
0001
0000
0010
1000
0000
1000
0010
0000
,
0001
0100
1000
0010
1000
0100
0001
0000
,
1000
0100
0001
0000
1000
0100
0001
0000
,
1100
0010
0101
0010
,
0010
1000
0001
0010
1000
0010
0001
0000
,
1000
0100
0001
0010
0001
0100
1000
0000
,
1000
0010
0001
0000
1000
0010
0001
0000
,
0101
0110
1100
0110
,
0001
0010
0100
0001
0000
0001
0100
0000
,
0010
0001
0100
1000
0010
1000
0100
0000
,
0001
0100
1000
0000
0001
0100
1000
0000
,
1010
0110
0011
0110
,
0010
1000
0100
0010
0000
0010
1000
0000
,
0020
0000
0000
0031
0200
0000
0300
0000
;

//---------------dance-single - ----------------
#NOTES:
     dance-single:
     :
     Challenge:
     15:
     0.000000,0.000000,0.000000,0.000000,0.000000,0.000000,0.000000,0.000000,0.000000,0.000000,0.000000,0.000000,0.000000,0.000000,0.000000,0.000000,0.000000,0.000000,0.000000,0.000000,0.000000,0.000000:
0000
0000
0000
0000
,
0000
0000
0000
0000
,
0000
0000
0000
0000
,
0000
0000
0000
0000
,
1001
0000
0000
0000
1001
0000
1000
0100
0010
0100
1000
0000
0001
0100
0010
0000
,
0110
0000
0000
0000
1010
0000
1000
0001
0100
0010
0100
0000
0001
1000
0100
0000
,
1100
0000
0000
0000
0110
0000
0010
0001
1000
0010
0100
0000
0001
1000
0100
0000
,
0110
0000
0001
0000
0100
0000
0110
0000
1000
0000
0100
0000
0010
0001
1000
0010
,
1000
0000
0100
0001
0000
0100
0001
0000
1000
0000
0010
0000
0001
0100
0001
0100
,
0010
0000
1000
0100
0000
1000
0100
0000
0010
0000
0001
0000
1000
0010
1000
0010
,
0100
0000
1000
0100
0000
1000
0100
0000
0001
0000
0010
0000
0001
0100
0001
0100
,
0010
1000
0010
0000
0100
0001
0100
0000
0001
0000
1000
0100
0000
0010
0100
0000
,
1000
0000
0001
0100
0000
0010
0100
0000
1000
0000
0100
0000
0010
0100
0010
0000
,
1000
0000
0100
0001
0000
0100
0010
0000
0001
0000
0100
0000
0010
1000
0010
1000
,
0001
0000
0010
1000
0000
0010
0100
0000
1000
0000
0001
0000
0100
0010
0100
0010
,
1000
0100
1000
0100
0010
0001
0010
0001
1000
0010
1000
0010
0100
0001
0100
0001
,
1000
0000
1000
0100
0000
0100
0001
0000
1000
0000
0001
0010
0000
0010
1000
0000
,
0001
0000
1000
0010
0000
0010
0001
0000
1000
0000
0001
0100
0000
0100
1000
0000
,
0001
0000
1000
0010
0000
0010
0001
0000
1000
0000
0001
0100
0000
0100
1000
0000
,
0010
1000
0001
0000
0010
0001
1000
0000
0010
0000
0100
0000
0001
0000
0000
0000
,
1001
0000
0001
0010
0000
0010
1000
0000
0001
0000
1000
0100
0000
0100
0001
0000
,
1000
0000
0001
0100
0000
0100
1000
0000
0001
0000
1000
0010
0000
0010
0001
0000
,
1000
0000
0001
0100
0000
0100
1000
0000
0001
0000
1000
0010
0000
0010
0001
0000
,
1000
0010
0100
0000
0001
0010
0100
1000
0100
0010
0000
0001
0000
0000
0001
0100
,
0010
0000
0110
0000
0010
1000
0100
0010
,
0110
0000
0011
0000
0001
0100
0010
0000
,
2010
0000
3200
0000
0302
0000
0013
1000
,
0100
0010
0001
0100
1000
0100
0001
0000
,
0011
0000
0110
0000
0100
1000
0010
0100
,
0110
0000
0101
0000
0001
0010
0100
0000
,
2100
0000
3020
0000
0032
0000
0103
1000
,
0010
0000
0100
0000
1000
0000
0100
0000
0001
0000
0010
0000
0100
1000
0100
1000
,
0001
0001
0100
0100
1000
1000
0100
0010
,
1000
0100
0010
0001
1000
0001
0010
0100
,
1000
1000
0100
0010
0100
0001
0100
1000
,
0010
0000
0100
0000
0001
0000
0011
1000
,
1010
0010
0100
0001
1000
0100
0010
1000
,
0010
0001
1000
0010
0100
1000
0100
0000
,
0100
0001
1000
0100
0010
0011
0000
0101
,
0000
0110
0000
1010
1000
0001
0000
0000
,
1000
0100
0001
0000
1000
0100
0010
0000
,
1000
0100
0001
0000
1000
0100
0010
0000
,
1000
0100
0001
1000
0100
0010
1000
0000
,
0001
0010
0100
1000
0001
0010
0110
0000
,
0001
0100
1000
0000
0001
0100
0010
0000
,
0001
0100
1000
0000
0001
0100
0010
0000
,
0001
0100
1000
0001
0100
0010
0001
0000
,
0001
0100
1000
0100
0010
1000
1001
0000
,
1001
0000
0001
0100
0000
0100
1000
0000
0001
0000
1000
0010
0000
0010
0001
0000
,
1000
0000
0001
0010
0000
0010
1000
0000
0001
0000
1000
0100
0000
0100
0001
0000
,
1000
0000
0001
0010
0000
0010
1000
0000
0001
0000
1000
0100
0000
0100
0001
0000
,
0010
0100
1000
0000
0010
0100
0001
0000
1000
0000
0100
0000
0110
0000
0000
0000
,
1001
0000
1000
0100
0000
0100
0001
0000
1000
0000
0001
0010
0000
0010
1000
0000
,
0001
0000
1000
0010
0000
0010
0001
0000
1000
0000
0001
0100
0000
0100
1000
0000
,
0001
0000
1000
0100
0000
0100
0001
0000
1000
0000
0001
0010
0000
0010
1000
0000
,
0001
1000
0100
0000
1000
0001
0100
0010
1000
0001
0000
0010
0000
0100
1000
0001
,
1000
0010
0001
0000
1000
0010
0100
0000
,
1000
0010
0001
0000
1000
0010
0100
0000
,
1000
0000
0010
0001
0000
0001
0100
0000
,
1001
0001
0010
0100
1000
0010
1000
0000
,
0001
0010
1000
0000
0001
0010
0100
0000
,
0001
0010
1000
0000
0001
0010
0100
0000
,
0001
0010
0100
0001
0000
0001
0010
0000
,
1001
0000
0000
0000
0001
0000
0100
0000
0110
0000
0000
0000
0010
1000
0010
1000
,
0001
0100
1000
0000
0001
0100
1000
0000
,
1100
1010
0011
0101
,
0110
0000
0100
1000
0000
1000
0010
0000
,
1001
0000
0001
0010
0110
0000
0100
0000
,
1000
0100
0001
0000
1000
0100
0001
0000
,
0011
1010
1100
0101
,
0001
0010
0100
1000
0000
1000
0001
0000
,
2001
0000
0020
3030
;
