#VERSION:0.83;
#TITLE:Ring;
#SUBTITLE:;
#ARTIST:Kozo Nakamura;
#TITLETRANSLIT:;
#SUBTITLETRANSLIT:;
#ARTISTTRANSLIT:;
#GENRE:;
#ORIGIN:;
#CREDIT:;
#BANNER:Ring.png;
#BACKGROUND:Ring-bg.png;
#PREVIEWVID:;
#JACKET:Ring-jacket.png;
#CDIMAGE:;
#DISCIMAGE:;
#LYRICSPATH:;
#CDTITLE:CDtitle.png;
#MUSIC:Ring.ogg;
#OFFSET:-0.301000;
#SAMPLESTART:58.300999;
#SAMPLELENGTH:15.995000;
#SELECTABLE:YES;
#BPMS:0.000=240.000;
#STOPS:182.500=0.250,
200.000=0.250,
201.500=0.250,
206.000=0.250,
207.500=0.250,
212.000=0.250,
213.500=0.250,
218.000=0.250,
219.500=1.000;
#DELAYS:;
#WARPS:;
#TIMESIGNATURES:0.000=4=4;
#TICKCOUNTS:0.000=4;
#COMBOS:0.000=1;
#SPEEDS:0.000=1.000=0.000=0;
#SCROLLS:0.000=1.000;
#FAKES:;
#LABELS:0.000=Song Start;
#BGCHANGES:;
#KEYSOUNDS:;
#ATTACKS:
;

//---------------dance-single - ----------------
#NOTEDATA:;
#CHARTNAME:;
#STEPSTYPE:dance-single;
#DESCRIPTION:;
#CHARTSTYLE:;
#DIFFICULTY:Beginner;
#METER:6;
#RADARVALUES:0.176555,0.369863,0.126295,0.000000,0.000000,137.000000,123.000000,14.000000,0.000000,0.000000,0.000000,0.000000,0.000000,0.000000,0.176555,0.369863,0.126295,0.000000,0.000000,137.000000,123.000000,14.000000,0.000000,0.000000,0.000000,0.000000,0.000000,0.000000;
#CREDIT:Pandemonium X;
#NOTES:
// measure 0
0000
0000
0000
0000
,  // measure 1
0000
0000
0000
0000
,  // measure 2
0000
0000
0000
0000
,  // measure 3
0000
0000
0000
0000
,  // measure 4
0001
0000
0000
0000
,  // measure 5
0000
0000
0000
0000
,  // measure 6
1000
0000
0000
0000
,  // measure 7
0000
0000
0000
0000
,  // measure 8
0010
0000
0000
0000
,  // measure 9
0000
0000
0000
0000
,  // measure 10
0100
0000
0010
0000
,  // measure 11
1000
0000
0001
0000
,  // measure 12
1001
0000
0000
0000
,  // measure 13
0000
0000
0000
0000
,  // measure 14
0001
0000
0000
0000
,  // measure 15
1000
0000
0000
0000
,  // measure 16
0010
0000
0000
0000
,  // measure 17
1000
0000
0000
0000
,  // measure 18
0100
0000
0000
0000
,  // measure 19
0000
0000
0000
0000
,  // measure 20
1000
0000
0001
0000
,  // measure 21
1001
0000
0000
0000
,  // measure 22
0001
0000
0000
0000
,  // measure 23
0100
0000
0000
0000
,  // measure 24
0010
0000
0000
0000
,  // measure 25
0100
0000
0000
0000
,  // measure 26
0001
0000
0000
0000
,  // measure 27
0000
0000
0000
0000
,  // measure 28
1000
0000
0001
0000
,  // measure 29
1000
0000
0000
0000
,  // measure 30
0010
0010
0010
0000
,  // measure 31
0000
0000
0000
0000
,  // measure 32
0110
0000
0000
0000
,  // measure 33
1001
0000
0000
0000
,  // measure 34
0100
0100
0100
0000
,  // measure 35
0000
0000
0000
0000
,  // measure 36
1000
0000
0000
0000
,  // measure 37
0001
0000
0000
0000
,  // measure 38
0100
0100
0100
0000
,  // measure 39
0000
0000
0000
0000
,  // measure 40
1001
0000
0000
0000
,  // measure 41
0110
0000
0000
0000
,  // measure 42
0010
0010
0010
0000
,  // measure 43
0000
0000
0000
0000
,  // measure 44
1000
0000
0001
0000
,  // measure 45
0100
0000
0010
1001
,  // measure 46
0000
0000
0000
0000
,  // measure 47
0000
0000
0000
0000
,  // measure 48
0000
0000
0000
0000
,  // measure 49
0000
0000
0000
1000
,  // measure 50
0000
0000
0000
0000
,  // measure 51
0000
0001
0000
0000
,  // measure 52
0000
0000
0000
0100
,  // measure 53
0000
0000
0000
0000
,  // measure 54
0000
0010
0000
0000
,  // measure 55
0100
0000
0000
0000
,  // measure 56
0010
0000
0000
0000
,  // measure 57
1000
0000
0000
0000
,  // measure 58
0001
0000
0000
0000
,  // measure 59
1000
0000
1000
0000
,  // measure 60
0001
0000
0001
0000
,  // measure 61
1000
0000
1000
0000
,  // measure 62
0001
0000
0001
0000
,  // measure 63
0110
0000
0000
0000
,  // measure 64
0010
0000
0000
0000
,  // measure 65
0100
0000
0000
0000
,  // measure 66
0001
0000
0000
0000
,  // measure 67
0010
0000
0000
0000
,  // measure 68
0100
0000
0010
0000
,  // measure 69
0001
0000
1000
0000
,  // measure 70
0010
0000
0000
0000
,  // measure 71
0100
0000
0000
0000
,  // measure 72
0010
0000
0000
0000
,  // measure 73
1000
0000
1000
0000
,  // measure 74
1000
0000
0000
0000
,  // measure 75
0001
0000
0000
0000
,  // measure 76
0010
0000
0000
0000
,  // measure 77
0100
0000
0000
0000
,  // measure 78
0010
0000
0000
0000
,  // measure 79
0001
0000
0001
0000
,  // measure 80
0001
0000
0000
0000
,  // measure 81
1000
0000
1000
0000
,  // measure 82
1000
0000
0000
0000
,  // measure 83
0010
0000
0010
0000
,  // measure 84
0010
0000
0000
0000
,  // measure 85
0110
0000
0000
0000
,  // measure 86
1001
0000
0000
0000
,  // measure 87
1000
0000
0001
0000
,  // measure 88
0100
0000
0000
0000
,  // measure 89
0010
0000
0100
0000
,  // measure 90
0001
0000
0000
0000
,  // measure 91
1000
1000
1000
1000
,  // measure 92
0001
0000
1000
0000
,  // measure 93
0110
0000
0000
0000
,  // measure 94
1001
0000
0000
0000
,  // measure 95
1000
0000
0100
0000
,  // measure 96
0010
0000
0001
0000
,  // measure 97
1000
0000
0100
0000
,  // measure 98
0010
0000
1001
0000
,  // measure 99
0001
0000
0010
0000
,  // measure 100
0100
0000
1000
0000
,  // measure 101
0001
0000
0010
0000
,  // measure 102
0100
0000
1001
0000
;

//---------------dance-single - ----------------
#NOTEDATA:;
#CHARTNAME:;
#STEPSTYPE:dance-single;
#DESCRIPTION:;
#CHARTSTYLE:;
#DIFFICULTY:Easy;
#METER:9;
#RADARVALUES:0.315736,0.465711,0.072168,0.099231,0.000000,245.000000,237.000000,8.000000,11.000000,0.000000,0.000000,0.000000,0.000000,0.000000,0.315736,0.465711,0.072168,0.099231,0.000000,245.000000,237.000000,8.000000,11.000000,0.000000,0.000000,0.000000,0.000000,0.000000;
#CREDIT:Pandemonium X;
#NOTES:
// measure 0
0000
0000
0000
0000
,  // measure 1
0000
0000
0000
0000
,  // measure 2
0000
0000
0000
0000
,  // measure 3
0000
0000
0000
0000
,  // measure 4
0001
0000
0000
0001
0000
0000
0001
0000
,  // measure 5
0000
0000
0000
0000
,  // measure 6
1000
0000
0000
1000
0000
0000
1000
0000
,  // measure 7
0000
0001
0000
0000
,  // measure 8
0100
0000
0000
0100
0000
0000
0100
0000
,  // measure 9
0000
0000
0000
0000
,  // measure 10
0010
0000
0100
0000
,  // measure 11
0001
0000
1000
0000
,  // measure 12
2002
0000
0000
0000
,  // measure 13
3000
0000
0003
0000
,  // measure 14
1000
0000
0000
1000
0000
0000
0001
0000
,  // measure 15
0100
0000
0000
0100
0000
0000
0000
0000
,  // measure 16
0010
0000
0000
0010
0000
0000
1000
0000
,  // measure 17
0100
0000
0000
0100
0000
0000
0010
0000
,  // measure 18
0001
0000
0000
0010
,  // measure 19
0001
0000
0100
0000
,  // measure 20
0010
0000
1000
0000
,  // measure 21
1001
0000
0000
1001
0000
0000
0000
0000
,  // measure 22
0001
0000
0000
0001
0000
0000
1000
0000
,  // measure 23
0010
0000
0000
0010
0000
0000
0000
0000
,  // measure 24
1000
0000
0000
1000
0000
0000
0100
0000
,  // measure 25
0010
0000
0000
0100
0000
0000
1000
0000
,  // measure 26
0001
0000
0000
0100
,  // measure 27
0010
0000
1000
0000
,  // measure 28
0001
0000
0010
0000
,  // measure 29
0100
0100
0100
0000
,  // measure 30
1000
0000
0001
0000
1000
0001
0000
1000
,  // measure 31
0000
0000
0001
0100
,  // measure 32
0010
0000
0000
0010
0000
0000
0000
0000
,  // measure 33
0100
0000
0000
0100
0000
0000
0000
0000
,  // measure 34
0010
0000
1000
0000
0010
1000
0000
0010
,  // measure 35
0000
0000
0000
1000
,  // measure 36
0001
0000
0010
0000
,  // measure 37
0100
0000
1000
0000
,  // measure 38
0001
0000
1000
0000
0001
1000
0000
0001
,  // measure 39
0000
0000
0010
0001
,  // measure 40
0100
0000
0000
0100
0000
0000
0000
0000
,  // measure 41
0110
0000
0000
0110
0000
0000
0000
0000
,  // measure 42
0010
0000
0100
0000
0010
0100
0000
0010
,  // measure 43
0000
0000
0000
0100
,  // measure 44
0001
0000
0100
0000
,  // measure 45
0010
0000
1000
2002
,  // measure 46
0000
0000
0000
0000
,  // measure 47
0000
0000
0000
3003
,  // measure 48
0000
1000
0000
0001
,  // measure 49
0000
0100
0000
0001
,  // measure 50
0000
0001
0000
0000
0000
0000
0000
0000
,  // measure 51
0000
0000
1000
0000
0000
1000
0000
0000
,  // measure 52
0000
0000
0000
0010
,  // measure 53
0000
0010
0000
0000
0000
0000
0000
0000
,  // measure 54
0000
0000
0100
0000
0000
0100
0000
0000
,  // measure 55
0010
0000
1000
0000
,  // measure 56
0001
0000
0010
0000
,  // measure 57
0100
0000
0010
0000
,  // measure 58
0001
0000
1000
0000
,  // measure 59
0001
0001
1000
1000
,  // measure 60
0010
0010
0100
0100
,  // measure 61
0001
0001
0100
0100
,  // measure 62
0010
0010
1000
1000
,  // measure 63
0002
0000
0000
0013
,  // measure 64
0001
0000
0100
0000
,  // measure 65
0010
0000
0000
0010
0000
0000
0010
0000
,  // measure 66
1000
0000
0000
1000
0000
0000
1000
0000
,  // measure 67
0100
0000
0000
0000
,  // measure 68
0010
0000
0100
0000
,  // measure 69
1000
0000
0001
0000
,  // measure 70
0100
0000
0000
0000
,  // measure 71
0010
0000
0000
1000
0000
0000
0010
0000
,  // measure 72
1000
0000
0000
0010
0000
0000
1000
0000
,  // measure 73
0010
0000
0000
1000
0000
0000
0001
0000
,  // measure 74
0001
0000
0000
0000
,  // measure 75
0010
0000
0000
0001
0000
0000
0010
0000
,  // measure 76
0001
0000
0000
0010
0000
0000
0001
0000
,  // measure 77
1000
0000
0000
0000
,  // measure 78
0001
0000
0000
0000
,  // measure 79
1000
0000
0100
0000
,  // measure 80
0010
0001
0100
0010
,  // measure 81
1000
0000
0001
0000
,  // measure 82
0010
0001
0100
0000
,  // measure 83
0010
0000
0100
0000
,  // measure 84
0010
0100
0001
1000
,  // measure 85
0002
0000
0000
0000
,  // measure 86
2003
0000
0000
0000
,  // measure 87
3001
1000
0001
0000
,  // measure 88
0100
0010
0100
0000
,  // measure 89
0010
1000
0010
0000
,  // measure 90
0100
0001
0100
0000
,  // measure 91
0001
0001
0001
0001
,  // measure 92
1000
0001
0010
0100
,  // measure 93
2000
0000
0000
0000
,  // measure 94
0002
0000
0000
3003
,  // measure 95
1000
0010
0100
0001
,  // measure 96
1000
0010
0100
0001
,  // measure 97
1000
0010
0100
0001
,  // measure 98
1000
0010
1001
0000
,  // measure 99
1000
0100
0010
0001
,  // measure 100
1000
0100
0010
0001
,  // measure 101
1000
0100
0010
0001
,  // measure 102
0010
0100
2002
0000
,  // measure 103
0000
3003
0000
0000
;

//---------------dance-single - ----------------
#NOTEDATA:;
#CHARTNAME:;
#STEPSTYPE:dance-single;
#DESCRIPTION:;
#CHARTSTYLE:;
#DIFFICULTY:Medium;
#METER:13;
#RADARVALUES:0.501312,0.745138,0.324757,0.351820,0.000000,389.000000,353.000000,36.000000,39.000000,0.000000,0.000000,0.000000,0.000000,0.000000,0.501312,0.745138,0.324757,0.351820,0.000000,389.000000,353.000000,36.000000,39.000000,0.000000,0.000000,0.000000,0.000000,0.000000;
#CREDIT:Pandemonium X;
#NOTES:
// measure 0
0000
0000
0000
0000
,  // measure 1
0000
0000
0000
0000
,  // measure 2
0000
0000
0000
0000
,  // measure 3
0000
0000
0000
0000
,  // measure 4
0001
0000
0000
0100
0000
0000
1020
0000
,  // measure 5
0000
0000
0000
0000
,  // measure 6
1030
0000
0000
1000
0000
0000
0011
0000
,  // measure 7
0000
0201
0000
0000
,  // measure 8
0310
0000
0000
0100
0000
0000
0012
0000
,  // measure 9
0000
0000
0000
0000
,  // measure 10
1003
1000
0100
0100
,  // measure 11
0010
0010
0100
0100
,  // measure 12
2002
0000
0000
3003
,  // measure 13
0001
1000
0001
0000
1000
0001
0000
0000
,  // measure 14
0002
0000
0000
0103
0000
0000
0010
0000
,  // measure 15
2000
0000
0000
3100
0000
0000
0000
0000
,  // measure 16
0020
0000
0000
0130
0000
0000
1000
0000
,  // measure 17
0020
0000
0000
0130
0000
0000
0001
0000
,  // measure 18
2000
0000
0000
3001
,  // measure 19
0100
0010
1000
0100
,  // measure 20
0010
0100
1000
0001
,  // measure 21
1001
0000
0000
1001
0000
0000
0000
0000
,  // measure 22
1000
0000
0000
0010
0000
0000
1000
0000
,  // measure 23
0001
0000
0000
0010
0000
0000
0000
0000
,  // measure 24
0100
0000
0000
0010
0000
0000
0001
0000
,  // measure 25
0100
0000
0000
0010
0000
0000
0100
0000
,  // measure 26
0001
0000
0000
1000
,  // measure 27
0100
1000
0010
0100
,  // measure 28
0001
0010
0100
1000
,  // measure 29
0001
1000
0001
1000
0001
0100
0000
0000
,  // measure 30
0010
0000
0010
0000
0010
0100
0000
2002
,  // measure 31
0000
3003
1000
0001
,  // measure 32
0011
0000
0000
0101
0000
0000
1000
0000
,  // measure 33
1010
0000
0000
1100
0000
0000
0000
0000
,  // measure 34
0100
0000
0100
0000
0100
0010
0000
2002
,  // measure 35
0000
0000
0000
0000
3003
0000
0001
0100
,  // measure 36
0001
0000
0100
0010
0100
0000
0010
1000
,  // measure 37
0010
0000
1000
0001
1000
0000
0000
0000
,  // measure 38
1001
0000
1001
0000
0010
0100
0000
0220
,  // measure 39
0000
0330
1000
0001
,  // measure 40
0011
0000
0000
0101
0000
0000
1000
0000
,  // measure 41
1010
0000
0000
1100
0000
0000
0010
0000
,  // measure 42
0100
0000
0100
0000
0100
0010
0000
2002
,  // measure 43
0000
0000
0000
0000
3003
0000
0001
0100
,  // measure 44
0001
0000
1000
0100
1000
0000
0001
0100
,  // measure 45
0010
0100
0001
0010
0100
0010
1001
0000
,  // measure 46
0000
0000
0000
0101
,  // measure 47
0000
1100
0000
1001
,  // measure 48
0000
0001
0100
0010
,  // measure 49
1000
0000
0001
0000
1000
0000
0001
1000
,  // measure 50
0001
1000
0001
1000
0001
0000
1000
0000
,  // measure 51
0001
0000
1000
0001
1000
0001
1000
0001
,  // measure 52
1000
0000
0001
0000
1000
0000
0001
1000
,  // measure 53
0001
1000
0001
1000
0001
0000
1000
0000
,  // measure 54
0001
0000
1000
0001
1000
0001
1000
0010
,  // measure 55
0200
0000
0302
0000
,  // measure 56
0023
0000
0230
0000
,  // measure 57
0320
0000
0032
0000
,  // measure 58
2003
0000
3020
0000
,  // measure 59
0130
0010
1000
0010
,  // measure 60
0100
0001
0010
0100
,  // measure 61
0010
0001
0100
0010
,  // measure 62
1000
0001
0010
0100
,  // measure 63
1100
0000
0000
0010
,  // measure 64
0010
0100
1000
0001
,  // measure 65
1001
0000
0000
1001
0000
0000
0010
0000
,  // measure 66
0110
0000
0000
0110
0000
0000
0100
0000
,  // measure 67
0102
0000
0000
0003
,  // measure 68
1000
0000
0010
1000
0010
0000
0100
0001
,  // measure 69
0100
0000
0001
0010
0001
0000
0010
0100
,  // measure 70
1000
0100
1000
0100
0000
0000
0000
0000
,  // measure 71
1000
0000
0000
1000
0000
0000
2000
0000
,  // measure 72
0001
0000
0000
0001
0000
0000
3001
0000
,  // measure 73
0100
0000
0000
0020
0000
0000
1000
0000
,  // measure 74
2000
0000
0000
3030
,  // measure 75
0001
0000
0000
0001
0000
0000
0002
0000
,  // measure 76
1000
0000
0000
1000
0000
0000
2003
0000
,  // measure 77
0200
0000
0000
3000
,  // measure 78
0020
0000
0000
0330
,  // measure 79
1000
0001
0000
0000
1000
0001
0000
0000
,  // measure 80
1000
0001
0100
0000
0010
0000
1000
0000
,  // measure 81
0001
1000
0000
0000
0001
1000
0000
0000
,  // measure 82
0001
1000
0001
0020
0000
0000
0030
0000
,  // measure 83
0100
0010
0000
0000
0100
0010
0000
0000
,  // measure 84
0100
0010
0001
1000
,  // measure 85
0010
0000
0010
0100
0010
0000
0100
0010
,  // measure 86
0200
0000
0000
0300
,  // measure 87
1001
0001
1000
0010
,  // measure 88
1000
0001
0010
0100
,  // measure 89
0010
0001
0100
0010
,  // measure 90
1000
0001
1000
0010
0000
0000
0000
0000
,  // measure 91
1010
1010
1010
1010
,  // measure 92
0010
1000
0001
0010
,  // measure 93
0200
0000
0000
0000
,  // measure 94
0020
0000
0000
0330
,  // measure 95
1000
0100
1000
0000
0001
0100
0001
0000
,  // measure 96
1000
0100
1000
0000
0001
0100
0001
0000
,  // measure 97
1000
0100
1000
0000
0001
0100
0001
0000
,  // measure 98
1000
0100
1000
0100
0010
0000
0000
0000
,  // measure 99
0001
0010
0001
0000
1000
0010
1000
0000
,  // measure 100
0001
0010
0001
0000
1000
0010
1000
0000
,  // measure 101
0001
0010
0001
0000
1000
0010
1000
0000
,  // measure 102
0001
0100
0010
1000
0200
0000
0000
0000
,  // measure 103
0000
0300
0000
0000
;

//---------------dance-single - ----------------
#NOTEDATA:;
#CHARTNAME:;
#STEPSTYPE:dance-single;
#DESCRIPTION:;
#CHARTSTYLE:;
#DIFFICULTY:Hard;
#METER:15;
#RADARVALUES:0.717817,0.838280,0.315736,0.387905,0.054126,557.000000,522.000000,35.000000,43.000000,0.000000,0.000000,0.000000,0.000000,0.000000,0.717817,0.838280,0.315736,0.387905,0.054126,557.000000,522.000000,35.000000,43.000000,0.000000,0.000000,0.000000,0.000000,0.000000;
#CREDIT:Pandemonium X;
#NOTES:
// measure 0
0000
0000
0000
0000
,  // measure 1
0000
0000
0000
0000
,  // measure 2
0000
0000
0000
0000
,  // measure 3
0000
0000
0000
0000
,  // measure 4
0001
0000
1000
0010
0000
0001
0020
0000
,  // measure 5
0000
0000
0000
0000
,  // measure 6
0130
0000
1000
0100
0000
0001
0200
0000
,  // measure 7
0000
0002
0000
0303
,  // measure 8
1000
0000
0001
0010
0000
1000
0020
0000
,  // measure 9
0000
0000
0000
0000
,  // measure 10
1030
0010
1000
0010
0100
0010
0100
0010
,  // measure 11
0100
0001
0100
0001
0100
0010
1000
0001
,  // measure 12
0020
0000
0000
0000
,  // measure 13
0130
0010
0100
0000
0100
0010
0000
0000
,  // measure 14
0001
0000
0100
0000
0010
1000
0010
0000
,  // measure 15
1000
0000
0100
0000
0010
0100
0010
0000
,  // measure 16
0100
0000
1000
0000
0001
0010
0001
0000
,  // measure 17
1000
0000
0010
0000
0100
0001
0100
0000
,  // measure 18
1020
0000
0000
0000
0130
0010
1000
0001
,  // measure 19
0010
0001
1000
0100
0010
0100
1000
0001
,  // measure 20
0100
0010
0100
0001
0100
0010
0100
0001
,  // measure 21
0101
0000
0000
1200
0000
0000
0000
0000
,  // measure 22
0310
0000
0001
0000
1000
0001
1000
0000
,  // measure 23
0001
0000
0100
0000
0010
0100
0010
0000
,  // measure 24
1000
0000
0001
0000
1000
0100
1000
0000
,  // measure 25
0100
0000
0010
0000
0001
0010
0001
0000
,  // measure 26
0201
0000
0000
0000
0300
0010
1000
0100
,  // measure 27
1000
0010
0100
0001
0100
0010
1000
0001
,  // measure 28
0010
0100
1000
0010
0100
0010
1000
0100
,  // measure 29
0010
0100
0010
0100
0010
0100
0000
0000
,  // measure 30
1001
0000
1010
0000
1000
1001
0000
0202
,  // measure 31
0000
0303
0001
0100
,  // measure 32
0120
0000
0000
2030
0000
0000
3100
0000
,  // measure 33
0021
0000
0000
0230
0000
0000
0300
0000
,  // measure 34
1100
0000
0011
0000
0001
0101
0000
2020
,  // measure 35
0000
0000
3030
0000
0000
1000
0010
0100
,  // measure 36
0001
0010
0100
0010
0001
0100
0010
1000
,  // measure 37
0001
0010
0100
1000
0100
0010
0100
1000
,  // measure 38
1001
0000
0101
0000
0001
0011
0000
0220
,  // measure 39
0000
0330
0100
1000
,  // measure 40
2100
0000
0000
3002
0000
0000
1003
0000
,  // measure 41
0102
0000
0000
2003
0000
0000
3000
0000
,  // measure 42
1100
0000
0101
0000
0001
0011
0000
2002
,  // measure 43
0000
0000
0000
0000
3003
1000
0010
0100
,  // measure 44
0001
0010
0001
0100
0010
1000
0010
0100
,  // measure 45
0001
0010
0100
0010
0001
1000
0220
0000
,  // measure 46
0000
0000
0000
0000
0000
0000
0330
0000
0000
0010
0000
0010
,  // measure 47
0000
0010
0000
1000
0000
1000
0000
0001
0000
1001
0000
0000
,  // measure 48
0000
0000
1000
0100
1000
0001
0100
0001
,  // measure 49
0010
0001
1000
0010
0100
0001
0010
0100
,  // measure 50
1000
0100
0010
0001
1000
0010
0100
0010
,  // measure 51
1000
0001
1000
0100
0010
0001
0010
0100
,  // measure 52
0010
0001
0100
0010
0100
0001
1000
0100
,  // measure 53
0010
0001
0010
0100
1000
0100
1000
0010
,  // measure 54
0100
0001
1000
0100
0010
0001
0010
0200
,  // measure 55
0310
0000
0001
0000
0100
0010
1000
0000
,  // measure 56
0001
0000
0100
0000
0010
1000
0100
0000
,  // measure 57
0010
0000
0001
0000
1000
0100
0010
0000
,  // measure 58
0001
0000
0010
0000
0100
1000
0001
1000
,  // measure 59
0010
0100
0010
0100
0001
0100
0001
0100
,  // measure 60
0010
1000
0010
1000
0100
1000
0100
1000
,  // measure 61
0100
0010
0100
0010
0001
0010
0001
0010
,  // measure 62
0001
0100
0001
0100
0010
1000
0010
1000
,  // measure 63
0200
0000
0000
0000
0000
0000
0310
0100
,  // measure 64
1000
0100
0010
0001
0100
0010
1000
0001
,  // measure 65
0020
0000
0000
0130
0000
0000
1100
0000
,  // measure 66
1020
0000
0000
0130
0000
0000
0101
0000
,  // measure 67
2002
0000
0000
3003
,  // measure 68
0001
0000
0000
1000
0010
1000
0100
0000
0000
0010
0001
0010
,  // measure 69
0100
0000
0000
0010
0100
0010
0001
0000
0000
1000
0001
1000
,  // measure 70
0010
0100
0010
0100
0000
0000
0000
0000
,  // measure 71
0001
0000
1000
0100
0000
0001
0100
0000
,  // measure 72
0010
0000
1000
0010
0000
0001
0010
0000
,  // measure 73
0100
0000
1000
0100
0000
0010
0001
0000
,  // measure 74
0200
0000
0000
0300
,  // measure 75
0010
0000
1000
0010
0000
0100
0001
0000
,  // measure 76
0010
0000
0001
0010
0000
0100
1000
0000
,  // measure 77
0100
0000
0100
0010
0000
0010
0100
1000
,  // measure 78
0020
0000
0000
0000
,  // measure 79
0130
0100
0000
0000
0010
0010
0000
0000
,  // measure 80
1000
0001
1000
0001
0010
0100
0010
0100
,  // measure 81
0010
0010
0000
0000
0001
0001
0000
0000
,  // measure 82
1000
0100
1000
0002
0000
0000
0000
0000
,  // measure 83
1003
1000
0000
0000
0010
0010
0000
0000
,  // measure 84
0100
0010
1000
0010
1000
0001
0010
0100
,  // measure 85
2000
0000
0000
0000
,  // measure 86
0002
0000
0000
3003
,  // measure 87
1000
0010
1000
0100
1000
0010
1000
0100
,  // measure 88
1000
0001
1000
0001
0100
0010
0100
0010
,  // measure 89
1000
0010
0100
0010
1000
0010
0100
0010
,  // measure 90
1000
0001
0010
0200
0000
0000
0300
0000
,  // measure 91
0011
1100
0011
1100
,  // measure 92
1000
0010
0100
0001
1000
0010
0100
0001
,  // measure 93
0010
0000
0100
1000
0000
1000
0100
0010
,  // measure 94
0002
0000
0000
0000
,  // measure 95
1003
0001
1000
0001
0100
0010
0100
0001
,  // measure 96
0100
0010
0100
0010
1000
0010
0100
0001
,  // measure 97
0100
0001
0010
0100
0010
0100
1000
0100
,  // measure 98
1000
0010
1000
0010
0220
0000
0330
0000
,  // measure 99
0001
0100
0001
0100
0010
1000
0100
0010
,  // measure 100
0100
0010
0001
0100
0010
0100
0010
1000
,  // measure 101
0010
1000
0010
0100
0001
0010
0100
1000
,  // measure 102
0100
0010
0001
2000
0020
0000
0000
0000
,  // measure 103
0000
3030
0000
0000
;
