#TITLE:Revontulet;
#SUBTITLE:;
#ARTIST:Sonata Arctica;
#TITLETRANSLIT:;
#SUBTITLETRANSLIT:;
#ARTISTTRANSLIT:;
#GENRE:FOXFIRE;
#CREDIT:;
#BANNER:Revontulet.png;
#BACKGROUND:Revontulet-bg.png;
#LYRICSPATH:;
#CDTITLE:;
#MUSIC:Revontulet.ogg;
#OFFSET:-0.088331;
#SAMPLESTART:23.559975;
#SAMPLELENGTH:14.039999;
#SELECTABLE:YES;
#DISPLAYBPM:134.000000:177.000000;
#BPMS:0.000000=177.899994
,8.000000=175.800003
,16.000000=176.699997
,24.000000=178.000000
,40.000000=176.899994
,56.000000=176.399994
,64.000000=132.600006
,67.000000=142.300003
,68.000000=133.199997
,80.000000=132.600006
,83.000000=135.000000
,93.500000=133.000000
,99.000000=135.699997
,104.500000=132.000000
,106.000000=125.900002
,106.500000=133.800003
,110.500000=133.000000
,114.500000=135.399994
,118.500000=133.699997
,121.500000=140.000000
,122.000000=130.000000
,124.000000=133.639999
,126.000000=134.800003
,134.000000=134.100006
,138.000000=133.800003
,142.000000=135.000000
,145.000000=117.831001
,145.500000=135.000000
,149.500000=134.000000
,160.500000=148.300003
,161.000000=122.399994
,162.000000=126.999992
,162.500000=121.900009
,163.500000=136.009995
,171.500000=175.600006
,179.500000=174.500000
,183.500000=179.800003
,187.500000=178.199997
,195.500000=175.300003
,203.500000=179.199997
,211.500000=175.600006
;
#STOPS:
;
#BGCHANGES:;
#KEYSOUNDS:;
#ATTACKS:;

//---------------dance-single - ----------------
#NOTES:
     dance-single:
     :
     Hard:
     16:
     0.772544,1.042756,0.433960,0.267052,0.951374,486.000000,447.000000,39.000000,24.000000,67.000000,0.000000,0.772544,1.042756,0.433960,0.267052,0.951374,486.000000,447.000000,39.000000,24.000000,67.000000,0.000000:
// measure 0
0000
0000
0000
0000
,  // measure 1
0000
0000
0000
0000
,  // measure 2
0000
0000
0000
0000
,  // measure 3
0000
0000
0000
1010
,  // measure 4
0101
0001
1000
0000
,  // measure 5
0100
0010
0001
0011
,  // measure 6
1100
1000
0001
0000
,  // measure 7
1010
0101
0011
1100
,  // measure 8
1000
0010
0100
0000
0010
0100
0001
0000
0100
0001
1000
0000
0001
0000
0000
0000
,  // measure 9
1000
0100
0010
0000
0100
0010
0001
0000
0010
0001
1000
0000
0002
0000
0000
0000
,  // measure 10
1003
0001
0100
0000
0001
0100
0010
0000
0100
0010
1000
0000
0001
0000
0000
0000
,  // measure 11
1000
0001
0010
0000
0001
0010
0100
0000
0010
0100
1000
0000
0002
0000
0000
0000
,  // measure 12
1003
0010
0100
0000
0100
0001
1000
0000
1000
0100
0010
0000
0001
0000
0000
0000
,  // measure 13
1000
0100
0010
0000
0010
0001
1000
0000
1000
0010
0100
0000
0002
0000
0000
0000
,  // measure 14
1003
0001
0010
0000
0010
0100
1000
0000
1000
0001
0100
0000
0010
0000
0000
0000
,  // measure 15
1000
0001
0100
0000
0100
0010
1000
0000
1000
0001
0010
0000
0200
0000
0000
0000
,  // measure 16
0020
0000
0000
0000
0000
0330
2001
0000
,  // measure 17
3001
0100
0010
0100
0001
0010
0100
0010
0M00
0010
1000
0001
0100
0010
1000
0001
,  // measure 18
1000
0000
0000
1000
0000
0000
0001
0000
0000
0001
0000
0000
0040
0400
0000
0000
0000
0330
2000
0000
0000
3001
0000
0000
,  // measure 19
1000
0100
0010
0100
1000
0010
0100
0010
0M00
0010
0001
1000
0100
0010
0001
1000
,  // measure 20
0001
0000
0000
0000
0000
0000
0001
0000
0000
0000
0000
0000
1000
0000
0000
0000
0000
0000
1000
0000
0000
0000
0000
0000
0040
0000
0400
0000
0000
0000
0000
0000
0000
0000
0330
0000
0002
0000
0000
0000
0000
0000
1003
0000
0000
0100
0000
0000
,  // measure 21
0010
0001
0010
0100
1000
0100
M000
0100
0001
1000
0100
0010
0001
1000
0010
0000
,  // measure 22
0010
0000
0000
0000
0000
0000
0100
0000
0000
0000
0000
0000
0100
0000
0000
0000
0000
0000
0004
0000
4000
0000
0000
0000
0000
0000
0000
0000
3003
0000
0010
0000
0000
0000
0000
0000
0100
0000
0000
0000
0000
0000
0001
0000
0000
0010
0000
0000
,  // measure 23
0100
1000
0100
0010
0001
0010
000M
0010
1000
0001
0010
0100
1000
0001
0100
0000
,  // measure 24
0100
0000
0000
0000
0000
0000
0010
0000
0000
0000
0000
0000
0010
0000
0000
0000
0000
0000
4000
0000
0004
0000
0000
0000
0000
0000
0000
0000
3003
0000
0100
0000
0000
0000
0000
0000
1010
0000
0000
0000
0000
0000
MMMM
0000
0000
0101
0000
0000
,  // measure 25
0000
MMMM
0011
0000
MMMM
1100
0000
MMMM
1001
0000
MMMM
0000
0011
0000
MMMM
1100
,  // measure 26
0000
MMMM
1010
0000
0101
0000
1001
0000
MMMM
0000
0101
0000
MMMM
1010
0000
MMMM
,  // measure 27
1100
0000
MMMM
0011
0000
MMMM
1001
0000
MMMM
0000
1020
0000
0000
0032
0000
0000
,  // measure 28
2003
0000
0000
3200
0000
0000
0302
0000
0000
0000
1003
0000
0100
0010
0000
0010
,  // measure 29
0100
0000
1000
0001
0000
0001
0100
0000
0010
1000
0001
0000
0001
0010
0000
0010
,  // measure 30
0100
0000
1000
0000
0001
0100
000M
0100
1000
0000
0010
0100
0000
0100
0010
0000
,  // measure 31
1000
0001
0000
0001
0010
0000
0100
1000
0001
0000
0100
0010
0000
0100
1000
0000
,  // measure 32
0100
0010
0000
0100
0002
0000
0000
0000
1003
0100
0010
0001
1000
0001
0100
0010
,  // measure 33
0M00
0010
0001
1000
0100
0010
0001
1000
0010
0000
1001
0000
0100
0000
1001
0000
,  // measure 34
4000
0000
0004
0000
0000
0000
0000
0000
0000
0000
3003
0000
0200
0000
0000
0000
0000
0000
0310
0000
0000
0000
0000
0000
1000
0000
0000
0100
0000
0000
0010
0000
0000
0001
0000
0000
1000
0000
0000
0001
0000
0000
0100
0000
0000
0010
0000
0000
,  // measure 35
0M00
0010
0001
1000
0100
0010
0001
1000
0010
0000
1001
0000
0100
0000
1001
0000
,  // measure 36
4000
0000
0004
0000
0000
0000
0000
0000
0000
0000
3003
0000
0200
0000
0000
0000
0000
0000
0310
0000
0000
1000
0000
0000
0001
0000
0000
1000
0000
0000
0100
0000
0000
1000
0000
0000
0001
0000
0000
0100
0000
0000
000M
0000
0000
0100
0000
0000
,  // measure 37
1000
0000
0000
0001
0000
0000
1000
0000
0000
0010
0000
0000
1000
0000
0000
0001
0000
0000
0100
0000
0000
0000
0000
0000
1001
0000
0000
0000
0000
0000
0010
0000
0000
0000
0000
0000
1001
0000
0000
0000
0000
0000
4000
0000
0004
0000
0000
0000
,  // measure 38
0000
0000
0000
0000
3003
0000
0100
0000
0000
0000
0000
0000
1002
0000
0000
0000
0000
0000
0103
0000
0000
0001
0000
0000
1000
0000
0000
0001
0000
0000
0010
0000
0000
0001
0000
0000
1000
0000
0000
0010
0000
0000
M000
0000
0000
0010
0000
0000
,  // measure 39
0001
0000
0000
1000
0000
0000
0001
0000
0000
0100
0000
0000
0001
0000
0000
1000
0000
0000
0010
0000
0000
0000
0000
0000
1001
0000
0000
0000
0000
0000
0100
0000
0000
0000
0000
0000
1001
0000
0000
0000
0000
0000
1000
0000
0010
0000
1000
0000
,  // measure 40
0010
1000
0010
0100
0000
0000
0001
0010
0001
0010
0001
0010
0100
0000
0000
1000
0001
1000
0001
1000
0001
0200
0000
0000
,  // measure 41
0000
0000
0000
0000
,  // measure 42
0000
0000
0000
0000
0010
0010
0310
1001
,  // measure 43
0000
1000
0000
0001
0000
0000
0000
0100
,  // measure 44
0000
0001
0000
1000
0000
1010
0000
0101
,  // measure 45
0000
0001
0000
0010
0000
0000
0000
0100
,  // measure 46
0000
0000
1000
0000
0000
0000
0001
0000
0000
0000
1002
0000
0000
0000
0013
0001
,  // measure 47
0100
000M
0100
1000
0010
M000
0010
0001
0100
0000
0010
0000
0000
0000
1000
0001
,  // measure 48
0100
000M
0100
1000
0001
0000
0100
0010
1000
0000
2001
0000
0000
0000
3010
1000
,  // measure 49
0100
M000
0100
0001
0010
000M
0010
1000
0100
0000
0010
0000
0000
0000
0001
1000
,  // measure 50
0100
M000
0100
0001
1000
0000
0100
0010
0001
0000
2000
0000
0000
0000
0020
0000
,  // measure 51
0000
0000
0000
0000
,  // measure 52
0000
0000
0000
0000
0030
0000
0002
0000
0000
0000
0000
0000
3003
0000
1000
0010
,  // measure 53
0100
0001
0100
0010
1000
0001
1000
0100
0010
0001
0010
0100
1000
0001
1000
0010
,  // measure 54
0100
0001
1000
0001
0010
0100
1000
0001
0100
0010
1000
0001
0010
0100
2000
0000
,  // measure 55
0000
3000
0000
0000
0000
0000
0000
0000
;

//---------------dance-single - ----------------
#NOTES:
     dance-single:
     :
     Medium:
     13:
     0.562718,0.705394,0.344943,0.166908,0.255925,354.000000,323.000000,31.000000,15.000000,0.000000,0.000000,0.562718,0.705394,0.344943,0.166908,0.255925,354.000000,323.000000,31.000000,15.000000,0.000000,0.000000:
0000
0000
0000
0000
,
0000
0000
0000
0000
,
0000
0000
0000
0000
,
0000
0000
0000
1010
,
0101
0000
0000
0000
,
0000
0000
0000
1100
,
0011
0000
0000
0000
,
0101
1010
0011
1100
,
1000
0010
0100
0001
0100
0010
1000
0000
,
0001
0010
0100
1000
0100
0010
0002
0000
,
1003
0010
0100
0001
1000
0001
0010
0000
,
0100
1000
0001
1000
0010
0100
0002
0000
,
1003
0100
0001
0100
1000
0001
1000
0000
,
0001
0100
0010
0001
0010
1000
0002
0000
,
1003
0010
0001
0010
1000
0001
1000
0000
,
0001
0100
0010
0001
0010
1000
0002
0000
,
2000
0000
0000
0000
0000
3003
2001
0000
,
3001
0000
0100
0000
0010
0000
0100
0001
0000
0001
1000
0000
0100
0000
0010
0000
,
0100
0100
1000
1000
0001
0100
0010
1010
,
1000
0000
0010
0000
0100
0000
0010
1000
0000
1000
0001
0000
0010
0000
0100
0000
,
0010
0000
0010
0000
0001
0000
0001
0000
1000
0001
1000
0001
2000
0000
3001
0000
,
0100
0000
1000
0000
0100
0010
0000
0010
0100
0000
0001
0000
1000
0000
0100
0000
,
0100
0010
0010
0001
1000
0001
0101
0001
,
0010
0000
1000
0000
0010
0100
0000
0100
0010
0000
0001
0000
1000
0000
0010
0000
,
0010
0000
0100
0000
0100
0000
0001
1000
0001
1000
0001
0000
0101
0000
0000
1010
,
0000
0000
0011
0000
0000
1100
0000
0000
1001
0000
0000
0000
1010
0000
0000
0101
,
0000
0000
1000
0000
0001
0000
1001
0000
0000
0000
0011
0000
0000
1100
0000
0000
,
1010
0000
0000
0101
0000
0000
1001
0000
0000
0000
0001
0000
0000
0010
0000
0000
,
1000
0000
0000
0100
0000
0000
0001
0000
0000
0000
1000
0000
0000
0100
0000
0000
,
0001
0000
0000
0100
0000
0000
1000
0000
0001
0100
0001
0000
0000
0100
0000
0000
,
1000
0000
0100
0000
0010
1000
0000
1000
0001
0000
0000
0010
0000
0000
1000
0000
,
0000
0010
0000
0000
0001
0000
0100
0010
1000
0000
0000
0100
0000
0000
0001
0000
,
0000
0010
0000
0000
2000
0000
0000
0000
3001
0000
0100
0000
1000
0000
0100
0010
,
0000
0010
1000
0000
0001
0000
0100
0000
0010
0000
0010
0000
1000
0000
1000
0000
,
0001
0000
0010
0000
0100
0000
1100
0000
1000
0000
0010
0000
0001
0000
0010
0100
,
0000
0100
0001
0000
1000
0000
0010
0000
0100
0000
0100
0000
0001
0000
0001
0000
,
1000
0100
0010
0001
1000
0000
0001
0000
0100
0000
1000
0000
0100
0001
0000
1000
,
0001
0010
0100
1000
1000
0001
0001
0010
,
1000
0000
0001
0000
0101
0000
0100
0000
1000
0000
0001
0000
0100
1000
0000
0100
,
0001
0000
0010
0000
0100
0000
1000
0000
1000
0000
0001
0000
0001
0000
0100
0010
,
0100
0010
1000
0000
0100
0010
0100
0010
0001
0000
0100
0010
1000
0001
0020
0000
,
0000
0000
0000
0000
,
0000
0000
0000
0000
0000
0000
0030
1001
,
0000
0001
0000
0100
0000
0000
0000
0010
,
0000
1000
0000
0001
0000
1001
0000
0110
,
0000
0010
0000
1000
0000
0000
0000
0100
,
0000
0010
0000
0001
0000
1001
0000
0001
,
0100
1000
0100
0001
1000
0001
0000
1000
,
0100
0001
0100
0010
0100
2000
0000
3001
,
0010
1000
0010
0001
1000
0001
0000
1000
,
0010
0100
0010
0001
0010
2000
0000
0002
,
0000
0000
0000
0000
,
0000
0000
3000
0200
0000
0303
0000
0001
,
0010
1000
0001
0100
1000
0001
0100
1000
,
0001
0010
1000
0001
0010
0100
1000
2002
,
0000
3003
0000
0000
0000
0000
0000
0000
;

//---------------dance-single - ----------------
#NOTES:
     dance-single:
     :
     Easy:
     10:
     0.383093,0.552047,0.211416,0.133526,0.083454,241.000000,222.000000,19.000000,12.000000,0.000000,0.000000,0.383093,0.552047,0.211416,0.133526,0.083454,241.000000,222.000000,19.000000,12.000000,0.000000,0.000000:
0000
0000
0000
0000
,
0000
0000
0000
0000
,
0000
0000
0000
0000
,
0000
0000
0000
1010
,
0101
0000
0000
0000
,
0000
0000
0000
0011
,
1100
0000
0000
0000
,
1020
0230
0302
1003
,
0001
0010
0100
0100
,
0010
0001
1000
1001
,
1000
0010
0100
0100
,
0010
1000
0001
1001
,
1000
0100
0001
0001
,
0100
1000
0001
1001
,
0001
0100
1000
1000
,
0100
0010
1000
1001
,
2002
0000
0000
3003
,
0001
0100
0001
0000
1000
0100
1000
0000
,
0010
0000
0100
0000
0001
1000
0001
1000
,
0001
0010
0100
0000
1000
0100
0010
0000
,
0001
0000
1000
0000
0010
0100
0001
1000
,
0100
0010
0000
0001
0010
0100
0000
1000
,
0000
0001
0000
0100
0010
1000
0001
1000
,
0100
0010
0000
0100
1000
0001
0000
0100
,
0000
0000
0010
0000
0000
0000
1000
0000
0001
0000
1000
0000
0001
0000
0000
0010
,
0000
0000
0100
0000
0000
1000
0000
0000
0001
0000
0000
0000
1000
0000
0000
0010
,
0000
0000
0100
0000
0001
0000
1000
0000
0000
0000
0001
0000
0000
0010
0000
0000
,
0100
0000
0000
1000
0000
0000
0001
0000
0000
0000
1000
0000
0000
0010
0000
0000
,
0001
0000
0000
0010
0000
0000
2000
0000
0000
0000
3001
0000
0000
0010
0000
0000
,
0100
0000
0000
1000
0000
0000
0001
0000
1000
0000
0001
0000
0000
0100
0000
0000
,
0010
0000
1000
0000
0000
0001
0000
0000
1000
0000
0000
0100
0000
0000
0010
0000
,
0000
0001
0000
0000
0010
0000
0100
0000
1000
0000
0000
0001
0000
0000
0100
0000
,
0000
0010
0000
0000
2000
0000
0000
0000
3001
0000
0010
0000
0100
0000
0000
0000
,
1000
0100
0010
0001
1000
1000
0001
0001
,
0100
0010
0100
0000
0001
0100
0010
0000
,
1000
0100
0010
0001
1000
1000
0001
0001
,
0100
0010
1001
0001
0100
1000
0000
0100
,
0010
1000
0001
0010
0010
0100
0100
1000
,
0001
1000
1001
1000
0010
0001
0000
0010
,
0100
0001
1000
0100
0100
0010
0010
0001
,
0001
0001
1000
1000
1000
0010
0010
0020
,
0000
0000
0000
0000
,
0000
0000
0000
0000
0000
0000
0000
0130
,
0000
0000
0000
0000
,
0000
0000
0000
0000
0000
1001
0000
1001
,
0000
0000
0000
0000
,
0000
0000
0000
0000
0000
0110
0000
0010
,
1000
0100
0000
0010
0001
0100
0000
0010
,
1000
0001
0000
0100
0000
1001
0000
0001
,
0010
0100
0000
1000
0100
0010
0000
0001
,
0100
0010
0000
1000
0000
1001
0000
0002
,
0000
0000
0000
0000
,
0000
0000
0000
2000
0000
0000
3003
1001
,
0000
0000
0000
0000
,
0000
0000
0000
0000
0000
0000
0000
2002
,
0000
3003
0000
0000
0000
0000
0000
0000
;

//---------------dance-single - ----------------
#NOTES:
     dance-single:
     :
     Beginner:
     4:
     0.201879,0.245354,0.033382,0.044509,0.000000,127.000000,124.000000,3.000000,4.000000,0.000000,0.000000,0.201879,0.245354,0.033382,0.044509,0.000000,127.000000,124.000000,3.000000,4.000000,0.000000,0.000000:
0000
0000
0000
0000
,
0000
0000
0000
0000
,
0000
0000
0000
0000
,
0000
0000
0000
0000
,
1001
0000
0000
0000
,
0000
0000
0000
0000
,
1001
0000
0000
0000
,
1000
1000
1000
1000
,
1000
0000
0010
0000
,
0100
0100
0100
0100
,
0100
0000
0001
0000
,
1000
1000
1000
1000
,
1000
0000
0100
0000
,
0010
0010
0010
0010
,
0010
0000
0001
0000
,
1000
1000
1000
1000
,
1000
0000
0000
0001
,
0001
0000
0100
0000
,
0010
0010
0010
0010
,
0010
0000
1000
0000
,
0001
0000
0001
0000
0001
0000
0001
0001
,
0000
0000
0000
0010
0000
0000
0000
0100
,
0000
0100
0000
0100
0000
0100
0000
1000
,
0000
0000
0000
0001
0000
0000
0000
0100
,
0000
0100
0000
0100
0000
0100
0100
0000
,
0000
0010
0000
0000
1000
0000
1000
0000
,
0000
0001
0000
0001
0000
0001
0000
0000
,
0010
0000
0000
0100
0000
0100
0000
0000
,
1000
0000
0000
0001
0000
0001
0000
0001
,
0000
0001
0000
0000
0000
0100
0000
0100
,
0000
0100
0000
0100
0100
0000
0100
0000
,
0100
0000
0010
0010
,
0010
0010
0010
0000
,
1000
0000
0001
0001
,
0001
0001
0001
0000
,
0010
0000
0100
0100
,
0100
0000
0100
0100
0000
0000
0000
1000
,
0000
0000
0000
0001
0000
0001
0000
0001
,
0000
0001
0000
0001
0000
0000
0000
0100
,
0000
0000
0000
0010
0000
0010
0000
0010
,
0000
0000
1000
0000
0000
0001
0000
0002
,
0000
0000
0000
0000
,
0000
0000
0000
0000
0000
0000
0000
0003
,
0000
0000
0000
0000
,
0000
0000
0000
0000
,
0000
0000
0000
0000
,
0000
0000
0000
0000
0000
0000
0000
1000
,
0000
1000
0000
1000
0000
0000
0000
0001
,
0000
0001
0000
0001
0000
0001
0000
0001
,
0000
0001
0000
0001
0000
0000
0000
0100
,
0000
0100
0000
0100
0000
0100
0000
0200
,
0000
0000
0000
0000
,
0000
0000
0000
0000
0000
0000
0000
0300
,
0000
0000
0000
0000
,
0000
0000
0000
0000
0000
0000
0000
2002
,
0000
3003
0000
0000
0000
0000
0000
0000
;
