#TITLE:Replay The Night;
#SUBTITLE:;
#ARTIST:Gammer & Staysick ft. Nytrix;
#TITLETRANSLIT:;
#SUBTITLETRANSLIT:;
#ARTISTTRANSLIT:;
#GENRE:Brostep X Hardstyle;
#CREDIT:darkanine;
#BANNER:Replay The Night.png;
#BACKGROUND:Replay The Night-bg.png;
#LYRICSPATH:;
#CDTITLE:;
#MUSIC:Replay The Night.ogg;
#OFFSET:0.000000;
#SAMPLESTART:14.409034;
#SAMPLELENGTH:25.599998;
#SELECTABLE:YES;
#BPMS:0.000000=75.000000,9.000000=150.000000,26.000000=75.000000,65.000000=150.000000,98.000000=75.000000,104.000000=150.000000,112.000000=75.000000,134.000000=150.000000,180.000000=75.000000;
#STOPS:9.000000=0.400000,65.000000=0.400000,174.000000=0.400000,175.000000=0.400000;
#BGCHANGES:;
#KEYSOUNDS:;
#ATTACKS:;

//---------------dance-single - ----------------
#NOTES:
     dance-single:
     :
     Challenge:
     14:
     0.536378,0.752788,0.399628,0.176580,0.590149,404.000000,361.000000,43.000000,19.000000,0.000000,0.000000,0.536378,0.752788,0.399628,0.176580,0.590149,404.000000,361.000000,43.000000,19.000000,0.000000,0.000000:
// measure 0
0000
0000
0000
0000
,  // measure 1
0000
0000
0000
0000
,  // measure 2
0000
0000
0000
0000
0000
0000
1000
0100
1000
0001
0100
0001
,  // measure 3
1000
0010
1000
0001
0010
0001
0100
0010
0100
0001
1000
0001
,  // measure 4
1000
0100
0001
0100
1000
0001
0100
0000
0000
0000
0000
0000
,  // measure 5
0000
0000
0000
0000
,  // measure 6
0000
0000
0000
0000
0000
0000
0000
0000
0000
0000
0000
0000
0000
0000
0000
0000
0000
0000
0011
0000
0000
0010
0100
0010
,  // measure 7
0001
1000
0010
0100
0010
0000
1010
0000
0000
0001
0010
0100
1000
0100
0010
0001
0100
0000
0110
0000
0000
0010
1000
0100
,  // measure 8
0010
0001
0100
0010
0000
0000
2000
0000
0000
3100
0010
0001
1000
0000
0000
0000
0000
0000
0101
0000
0000
0100
0001
0010
,  // measure 9
0100
1000
0010
0100
0001
0000
1001
0000
0000
1000
0100
0010
1000
0010
0001
1000
0000
0000
0110
0000
0000
0001
0100
0010
,  // measure 10
2000
0000
0000
0000
0000
0000
0000
0000
0000
3002
0000
0000
0000
0000
0000
0000
0000
0000
0003
0000
0000
0000
0000
0000
0100
0000
0000
0000
0000
0000
0000
0000
0000
0000
0000
0000
1001
0000
0000
0000
0000
0000
1000
0000
0000
0000
1000
0000
,  // measure 11
0001
0100
0000
0100
0000
0000
1100
0000
0000
0001
0000
0001
0010
0100
0000
0100
0000
0000
0101
0000
0000
1000
0100
1000
,  // measure 12
0010
0100
0000
0002
0000
0000
0000
0000
0000
0013
0100
1000
0001
0000
0000
0000
0000
0000
0110
0000
0000
1000
0100
1000
,  // measure 13
0010
0100
0001
0010
0000
0000
0110
0000
0000
0001
0100
0001
0010
0100
1000
0010
0000
0000
0101
0000
0000
1100
0000
0000
,  // measure 14
0020
0000
0000
0000
0000
0000
0130
0010
0100
0010
0100
0010
0100
0000
0000
0100
0000
0000
1010
0000
0000
1000
0000
0000
,  // measure 15
0100
0100
0011
0001
0100
0100
1001
0010
,  // measure 16
1000
0000
0000
1000
0000
0000
0101
0000
0000
0000
0000
0000
0001
0000
0010
0000
0001
0000
0100
0000
0001
0000
0100
0000
,  // measure 17
0010
1000
0010
1000
0100
1000
0001
1000
0001
0100
0010
0100
,  // measure 18
0001
0000
1000
0000
0001
0000
0010
0000
0100
0000
0010
0000
0001
0000
0000
0001
0000
0000
1000
0000
0000
1000
0000
0000
,  // measure 19
0100
0000
0100
0000
0010
0100
0010
0100
0010
0000
0000
0000
0000
0000
0000
0000
,  // measure 20
0000
0000
0110
0000
,  // measure 21
2000
0000
3001
0100
1000
0100
0001
1000
,  // measure 22
0200
0001
1300
0000
0001
0000
0100
0010
,  // measure 23
1000
0001
1000
0000
0100
0000
0010
0000
0001
0100
0010
1000
0010
0100
0001
1000
,  // measure 24
0100
0000
0000
0000
0100
0000
0000
0000
0010
0000
0000
0000
0000
0000
0000
0000
0110
0000
0000
0000
0000
0000
0000
0000
1000
0000
0010
0000
0100
0010
0100
0000
,  // measure 25
0001
0000
0000
0001
0010
0000
0100
0000
1000
0000
0001
0000
0001
0100
0001
0000
2000
0000
0000
0000
3000
0000
0000
0000
0101
0000
0001
0000
1000
0000
0100
0000
,  // measure 26
2100
0000
0000
0000
0000
0000
0000
0000
3010
1000
0010
0100
0010
0100
0001
1000
,  // measure 27
0200
0000
0000
0000
0301
0100
0100
1000
,  // measure 28
0001
0000
0000
0010
0000
0000
1000
0000
0220
0000
0000
0000
0330
0000
0000
0000
1010
0000
0000
0000
0001
0000
0001
0000
0100
0010
0100
0000
1000
0000
1000
0000
,  // measure 29
0100
0010
0100
0000
0001
0000
0001
0000
2000
0000
0000
0000
0000
0000
0000
0000
3100
0000
0000
0000
0000
0000
0000
0000
0011
0000
0001
0000
1000
0001
1000
0000
,  // measure 30
0010
0000
0000
0010
1000
0000
0001
0000
0010
0000
0100
0000
0100
1000
0100
0000
0020
0000
0000
0000
0030
0000
0000
0000
1100
0000
0001
0000
0001
0000
0001
0000
,  // measure 31
1000
0000
0000
0010
0000
0000
0200
0000
0301
0000
0000
0000
0000
0000
0000
0000
1000
0000
0000
0000
0000
0000
0000
0000
1000
0000
0000
0000
0000
0000
0000
0000
,  // measure 32
0001
0001
0010
0010
,  // measure 33
0100
0000
0100
0000
1000
0100
1000
0010
,  // measure 34
0100
0001
0010
0001
0100
0010
1000
0100
,  // measure 35
0010
0001
0100
0010
2000
0000
3002
0000
,  // measure 36
1003
0000
0001
0000
1000
0001
1000
0001
0100
0000
0000
0000
0000
0000
0000
0000
,  // measure 37
0000
0000
1010
1010
,  // measure 38
1001
0000
1001
0000
0101
0001
0010
0100
,  // measure 39
0010
0000
0100
0000
0010
0000
0100
1000
0010
0000
0000
0000
0110
0000
0000
0000
,  // measure 40
1001
0000
0000
0000
1001
0000
0001
0100
0010
0000
1000
0000
0100
0000
0002
0000
,  // measure 41
0000
0103
1000
0001
0101
0000
0110
0000
,  // measure 42
1010
0000
1100
0000
1001
0001
0100
0010
,  // measure 43
1000
0010
0001
0010
0110
0000
1001
0000
,  // measure 44
0011
0000
1010
0102
0000
0000
0000
0000
,  // measure 45
1003
0000
0000
0000
;
