#VERSION:0.83;
#TITLE:Rent;
#SUBTITLE:;
#ARTIST:Big Freedia;
#TITLETRANSLIT:;
#SUBTITLETRANSLIT:;
#ARTISTTRANSLIT:;
#GENRE:;
#CREDIT:Kikoia;
#MUSIC:Rent.ogg;
#BANNER:Rent-banner.png;
#BACKGROUND:Rent-bg.png;
#LYRICSPATH:Rent.lrc;
#CDTITLE:;
#SAMPLESTART:41.845;
#SAMPLELENGTH:9.796;
#SELECTABLE:YES;
#OFFSET:-0.212;
#BPMS:0.000=196.000;
#STOPS:;
#BGCHANGES:-0.693=Rent.avi=1.000=1=0=0=StretchNoLoop==CrossFade==;
#FGCHANGES:;

//--------------- dance-single - ----------------
#NOTEDATA:;
#STEPSTYPE:dance-single;
#DESCRIPTION:;
#DIFFICULTY:Beginner;
#METER:2;
#RADARVALUES:0,0,0,0,0;
#CREDIT:Kikoia;
#NOTES:
0000
0000
0000
0000
,
0000
0000
0000
0000
,
0000
0000
0000
0000
,
0000
0000
0000
0000
,
0000
0000
0000
0000
,
0000
0000
0000
0000
,
0000
0000
0000
0000
,
0000
0000
0000
0000
,
0000
0000
0000
0000
,
0000
0000
0000
0000
,
1000
0000
0000
0000
,
0000
0000
0000
0000
,
1000
0000
0000
0000
,
0000
0000
0000
0000
,
0001
0000
0000
0000
,
0000
0000
0000
0000
,
0001
0000
0000
0000
,
0000
0000
0000
0000
,
1000
0000
0000
0000
,
0000
0000
0000
0000
,
0010
0000
0000
0000
,
0000
0000
0000
0000
,
0100
0000
0000
0000
,
0000
0000
0000
0000
,
0001
0000
0000
0000
,
0000
0000
0000
0000
,
0001
0000
0000
0000
,
0001
0000
0000
0000
,
1000
0000
0000
0000
,
1000
0000
0000
0000
,
0010
0000
0000
0000
,
0000
0000
0000
0000
,
0100
0000
0000
0000
,
0000
0000
0000
0000
,
0001
0000
0000
0000
,
0000
0000
0000
0000
,
0001
0000
0000
0000
,
0000
0000
0000
0000
,
1000
0000
0000
0000
,
1000
0000
0000
0000
,
1000
0000
0000
0000
,
0000
0000
0000
0000
,
0100
0000
0000
0000
,
0100
0000
0000
0000
,
0010
0000
0000
0000
,
0010
0000
0000
0000
,
1000
0000
0000
0000
,
1000
0000
0000
0000
,
0001
0000
0000
0000
,
0001
0000
0000
0000
,
1000
0000
0000
0000
,
0000
0000
0000
0000
,
0001
0000
0000
0000
,
0000
0000
0000
0000
,
1000
0000
0000
0000
,
0000
0000
0000
0000
,
0001
0000
0000
0000
,
0000
0000
0000
0000
,
0001
0000
0000
0000
,
0000
0000
0000
0000
,
0100
0000
0000
0000
,
0000
0000
0000
0000
,
0010
0000
0010
0000
,
0000
0000
0000
0000
,
1000
0000
1000
0000
,
0000
0000
0000
0000
,
1000
0000
0000
0000
,
1000
0000
0000
0000
,
0001
0000
0000
0000
,
0001
0000
0000
0000
,
0100
0000
0000
0000
,
0000
0000
0000
0000
,
0010
0000
0000
0000
,
0000
0000
0000
0000
,
1000
0000
0000
0000
,
0000
0000
0000
0000
,
1000
0000
0000
0000
,
0000
0000
0000
0000
,
0001
0000
0000
0000
,
0001
0000
0000
0000
,
0001
0000
0000
0000
,
0000
0000
0000
0000
,
0010
0000
0000
0000
,
0010
0000
0000
0000
,
0100
0000
0000
0000
,
0100
0000
0000
0000
,
0001
0000
0000
0000
,
0001
0000
0000
0000
,
1000
0000
0000
0000
,
1000
0000
0000
0000
,
0001
0000
0000
0000
,
0000
0000
0000
0000
,
1000
0000
0000
0000
,
0000
0000
0000
0000
,
0001
0000
0000
0000
,
0000
0000
0000
0000
,
0010
0000
0000
0000
,
0100
0000
0000
0000
,
0220
0000
0330
0000
;

//--------------- dance-single - ----------------
#NOTEDATA:;
#STEPSTYPE:dance-single;
#DESCRIPTION:;
#DIFFICULTY:Easy;
#METER:4;
#RADARVALUES:0,0,0,0,0;
#CREDIT:Kikoia;
#NOTES:
0000
0000
0000
0000
,
0000
0000
0000
0000
,
0000
0000
0000
0000
,
0000
0000
0000
0000
,
0000
0000
0000
0000
,
0000
0000
0000
0000
,
0000
0000
0000
0000
,
0000
0000
0000
0000
,
0000
0000
0000
0000
,
0000
0000
0000
0000
,
0000
1000
1000
0000
,
1000
1000
0000
0000
,
0000
0001
0001
0000
,
0001
0001
0000
0000
,
0000
1000
0001
0000
,
0001
1000
0000
0000
,
0110
0000
0000
0000
,
0100
0100
0100
0000
,
1001
0000
0000
0000
,
0001
0000
0000
0000
,
0100
0000
0000
0000
,
0001
0000
0000
0000
,
1000
0000
0000
0000
,
0100
0000
0000
0000
,
0010
0000
0010
0000
,
0010
0010
0010
0000
,
0001
0000
0000
0000
,
0001
0000
0000
0000
,
1000
0000
0000
0000
,
1000
0000
0000
0000
,
0010
0000
0000
0000
,
0010
0000
0000
0000
,
0100
0000
0000
0000
,
0000
0000
0000
0000
,
1001
0000
1000
0000
,
0000
0000
0000
0000
,
1001
0000
0001
0000
,
0000
0000
0000
0000
,
0100
0000
0100
0000
,
0010
0000
0010
0000
,
0010
0000
0100
0000
,
0000
0000
0000
0000
,
1001
0000
0000
0000
,
1000
0000
0100
0000
,
1000
0000
0000
0000
,
0001
0000
0100
0000
,
0001
0000
0000
0000
,
1000
0000
0001
0000
,
1000
0000
0000
0000
,
1000
0000
1000
0000
,
1000
0000
0010
0000
,
0010
0000
0000
0000
,
0001
0000
0010
0000
,
0010
0000
0000
0000
,
0100
0000
0100
0000
,
1000
0000
0000
0000
,
0001
0000
0100
0000
,
0001
0001
0001
0000
,
1001
0000
0000
0000
,
1000
0000
0000
0000
,
0010
0000
0000
0000
,
1000
0000
0000
0000
,
0001
0000
0010
0000
,
0001
0001
0001
0000
,
0100
0000
0100
0000
,
0010
0010
0010
0000
,
1001
0000
0000
0000
,
1000
0001
1000
0000
,
1001
0000
0000
0000
,
0001
1000
0001
0000
,
0100
0000
0010
0000
,
0000
0000
0000
0000
,
0000
0000
0000
0000
,
0000
0000
0000
0000
,
1001
0000
0001
0000
,
0000
0000
0000
0000
,
1001
0000
1000
0000
,
0000
0000
0000
0000
,
0100
0000
0100
0000
,
0010
0000
0010
0000
,
0010
0000
0100
0000
,
0000
0000
0000
0000
,
1001
0000
0000
0000
,
0001
0000
0100
0000
,
0001
0000
0000
0000
,
1000
0000
0100
0000
,
1000
0000
0000
0000
,
0001
0000
1000
0000
,
0001
0000
0000
0000
,
0010
0000
0001
0000
,
1001
0000
0010
0000
,
0010
0000
0000
0000
,
1001
0000
0100
0000
,
0100
0000
0000
0000
,
0100
0000
0100
0000
,
0001
0000
0000
0000
,
1000
0000
0100
0000
,
1000
0001
1000
0000
,
0110
0000
0000
0000
;

//--------------- dance-single - ----------------
#NOTEDATA:;
#STEPSTYPE:dance-single;
#DESCRIPTION:;
#DIFFICULTY:Medium;
#METER:7;
#RADARVALUES:0,0,0,0,0;
#CREDIT:Kikoia;
#NOTES:
0000
0000
0000
0000
,
0000
0000
0000
0000
,
0000
0000
0000
0000
,
0000
0000
0000
0000
,
0000
0000
0000
0000
,
0000
0000
0000
0000
,
1000
0000
0000
0000
,
0100
0000
0000
0000
,
1000
0000
1000
0000
,
0001
0001
0001
0000
,
2002
0000
0000
3003
,
1000
0100
0010
0000
,
0202
0000
0000
0303
,
0001
0100
0010
0000
,
0220
0000
0000
0330
,
0100
0010
1000
0000
,
2002
0000
0000
3003
,
0100
0100
0100
0000
,
1001
1000
0001
0000
,
1000
0001
0010
0000
,
0010
0001
1000
0000
,
0100
0010
0001
0000
,
2000
0000
3010
0000
,
0002
0000
0103
0000
,
1001
0000
0110
0000
,
1001
0001
0001
0000
,
1000
0100
0001
0000
,
0001
0100
1000
0000
,
1000
0010
0001
0000
,
0001
0010
1000
0000
,
1000
0010
0100
0000
,
0001
0010
0100
0000
,
2000
0000
0000
0000
,
3000
0000
0000
0000
,
1000
1000
1000
0000
,
0001
0001
0001
0000
,
0100
0100
0100
0000
,
0010
0100
0010
0000
,
1000
0000
1001
0000
,
0001
0000
1001
0000
,
1000
0000
0100
0000
,
0010
0010
0010
0000
,
1002
0000
0103
0000
,
0100
0000
0010
0000
,
2010
0000
3100
0000
,
0010
0000
0001
0000
,
0000
0000
1000
0000
0000
0001
0000
0000
,
1000
0000
0000
0100
0000
0000
0100
0000
,
0000
0000
0001
0000
0000
0001
0000
0000
,
1000
1000
1000
0000
,
0001
0000
0200
0000
0000
0320
0000
0000
,
2030
0000
0000
3002
0000
0000
1003
0000
,
0000
0000
0002
0000
0000
2003
0000
0000
,
3200
0000
0000
0320
0000
0000
0031
0000
,
1000
0100
1000
0000
,
1000
0001
1000
0000
,
0001
0100
0001
0000
,
0100
0100
0100
0100
,
0010
0000
0110
0000
,
1000
0001
1000
0000
,
0100
0000
0110
0000
,
0010
0001
0010
0000
,
0002
0000
1000
0000
,
0100
0100
0103
0000
,
1000
0000
1100
0000
,
0100
0010
0100
0000
,
1000
0001
1000
0000
,
0000
0000
0000
0000
,
0001
1000
0010
0000
,
0000
0000
0000
0000
,
0100
0001
0010
0000
,
0000
0000
0000
0100
,
1000
0001
1001
0000
,
0000
0000
0000
0000
,
0001
0001
0001
0000
,
1000
1000
1000
0000
,
0010
0010
0010
0000
,
0100
0010
0100
0000
,
0001
0000
1001
0000
,
1000
0000
1001
0000
,
0001
0000
0010
0000
,
0100
0100
0100
0000
,
2001
0000
3010
0000
,
0010
0000
0100
0000
,
0102
0000
0013
0000
,
0100
0000
1000
0000
,
0000
0000
0001
0000
0000
1000
0000
0000
,
0001
0000
0000
0010
0000
0000
0010
0000
,
0000
0000
0001
0000
0000
1000
0000
0000
,
0001
0001
0001
0000
,
1000
0000
0020
0000
0000
0230
0000
0000
,
0302
0000
0000
2003
0000
0000
3001
0000
,
0000
0000
2000
0000
0000
3002
0000
0000
,
0023
0000
0000
0230
0000
0000
1300
0000
,
0001
0010
0001
0000
,
0001
1000
0001
0000
,
1000
0010
1000
0000
,
0010
0100
0010
0100
,
0110
0000
0000
0000
;

//--------------- dance-single - ----------------
#NOTEDATA:;
#STEPSTYPE:dance-single;
#DESCRIPTION:;
#DIFFICULTY:Hard;
#METER:12;
#RADARVALUES:0,0,0,0,0;
#CREDIT:Kikoia;
#NOTES:
0000
0000
0000
0000
,
0000
0000
0000
0000
,
0000
0000
0000
0000
,
0000
0000
0000
0000
,
0000
0000
0000
0000
,
0000
0000
0000
0000
,
1000
0100
1000
0100
0010
0000
0010
0001
,
0100
0010
0100
0010
1000
0000
1000
0100
,
0010
0100
0010
0100
1000
0001
1000
0001
,
1001
0110
1001
0002
,
0103
0000
0001
0100
1000
0100
0000
0000
,
0001
0100
1000
0100
0000
0000
0001
0000
,
1001
0000
1000
0100
0001
0100
0000
0000
,
1000
0100
0001
0100
0000
0000
1000
0000
,
1001
0000
1000
0010
0100
0200
0000
0000
,
0301
0010
0100
0200
0000
0300
0110
0000
,
1001
0000
1000
0100
0010
0002
0000
0000
,
0103
0010
0100
0010
1000
0001
1000
0000
,
0001
1000
0001
0020
0000
0000
0130
0000
,
1000
0010
1000
0020
0000
0000
0130
0000
,
0001
1000
0001
2000
0000
0000
3010
0000
,
1000
0100
1000
0100
0000
0000
0110
0000
,
1001
0000
1000
0100
0010
0000
0002
0000
,
0100
0100
1003
0000
,
0202
0303
2020
3030
,
2000
0001
0010
3001
,
1000
0100
1000
0000
0001
0000
0010
0000
,
0001
0100
0001
0000
1000
0000
0010
0000
,
0100
0010
0100
0000
0010
0000
1000
0000
,
1010
1100
2002
3003
,
2000
0000
3200
0000
0302
0003
0001
0100
,
0000
0100
0010
0000
2002
0000
0000
0000
,
3003
0000
0000
0000
,
0000
0000
0000
0000
,
0101
0000
0101
0000
0101
0000
0001
0100
,
0010
0000
0110
0000
0110
0000
0010
1000
,
0001
1000
0001
1000
0001
0000
1000
0100
,
0010
0001
0010
0001
0010
0000
0001
1000
,
0020
0030
0020
0030
0020
0030
0010
1000
,
0002
0003
0002
0003
0002
0003
0001
1000
,
0100
0000
0100
1000
0001
0000
0001
0100
,
0010
1000
0010
1000
0010
1000
0010
1000
,
0100
1001
2001
0100
,
3002
0100
2003
3100
,
0110
0012
2003
0010
,
3002
0000
0010
0000
1003
0000
1000
0100
,
0010
0002
2003
3020
,
0032
2003
3200
0302
,
1003
0000
0001
0100
0002
0000
2003
0000
,
3100
1000
0100
1000
0100
0001
0100
1000
,
0001
0000
0001
0100
0010
0000
1000
0000
,
0001
0010
0001
0010
0100
0000
1000
0000
,
1010
0000
1000
0010
0100
0000
0001
0000
,
1000
0100
1000
0100
0010
0000
0001
0000
,
1001
0000
0001
1000
0010
1000
0002
0000
,
0023
0230
2300
3020
,
0130
0000
0100
0010
1000
0000
0001
0000
,
1000
0001
1000
0001
0010
0100
0010
0100
,
1000
0100
0010
0002
0000
0000
1003
0000
,
0010
0100
0010
0200
0000
0000
0301
0000
,
1000
0010
1000
0200
0000
0000
1300
0000
,
0001
0010
0001
0200
0000
0000
0301
0000
,
0010
0000
0011
0000
1001
0000
0001
0100
,
0000
0100
0010
0000
2000
0000
0000
0000
,
3001
0000
1001
0000
,
1000
0100
1000
0100
1000
0000
0000
0000
,
0001
1000
0001
1000
0020
0000
0100
0000
,
1000
0100
1030
1001
,
1000
0100
1000
0100
0020
0000
0100
0000
,
0001
0100
0031
1000
,
0001
1000
0001
1000
0020
0000
0000
0000
,
0000
0030
0000
0000
,
0000
0000
0000
0000
,
0000
0000
0000
0000
,
1001
0000
1001
0000
1001
0000
1000
0100
,
0010
0110
0110
0020
,
0031
1000
0001
1000
0001
0000
0001
1000
,
0010
0100
0010
0100
0010
0000
0010
1000
,
0002
0003
0002
0003
0002
0000
0103
0010
,
2000
3000
2000
3000
2000
3000
1000
0001
,
0100
0000
0100
0001
1000
0000
1000
0001
,
0010
0100
0010
0100
0010
0100
0010
0001
,
1000
1001
2001
3200
,
0010
2300
3001
0110
,
1001
1002
0203
0010
,
0302
0000
1003
0000
1001
0000
0001
0100
,
0010
2000
3002
0023
,
2030
3002
0203
2300
,
3001
0000
1000
0100
2000
0000
3002
0000
,
0103
0001
0100
0001
0100
1000
0100
0001
,
1000
0000
1000
0010
0100
0000
0001
0000
,
1000
0100
1000
0100
0010
0000
0001
0000
,
0011
0000
0001
0100
0010
0000
0100
0000
,
0001
0100
0001
0100
0010
0000
1000
0000
,
1001
0000
0001
0010
0001
0000
1000
0010
,
0100
0001
0100
0001
1000
0000
0010
0000
,
1001
0000
1000
0001
1000
0000
0001
1000
,
0001
0000
1000
0100
0010
0001
1000
0010
,
0100
0000
0000
0000
;

//--------------- dance-single - ----------------
#NOTEDATA:;
#STEPSTYPE:dance-single;
#DESCRIPTION:;
#DIFFICULTY:Challenge;
#METER:14;
#RADARVALUES:0,0,0,0,0;
#CREDIT:Kikoia;
#NOTES:
0000
0000
0000
0000
,
0000
0000
0000
0000
,
0000
0000
0000
0000
,
0000
0000
0000
0000
,
0000
0000
0000
0000
,
0000
0000
0000
0000
,
1001
0000
0000
0000
,
0101
0000
0000
0000
,
1100
0000
0012
0000
,
0103
0000
0100
0000
0100
0010
0100
0010
,
1000
0000
1000
0001
1000
0002
0000
0003
,
1000
0100
0010
0002
0000
0003
1100
0000
,
0101
0000
0010
1000
0010
2000
0000
3000
,
0001
0100
0010
2000
0000
3000
1010
0000
,
1001
0000
1000
0100
0010
0100
1000
0000
,
0001
0100
0010
0100
0001
0000
0101
0000
,
1001
0000
1000
0010
0100
0001
1000
0000
,
1000
0100
1000
0100
1000
0100
0010
0001
,
1000
0001
1000
0010
0000
0010
0100
0001
,
1000
0100
0010
0001
0000
0001
1000
0100
,
1000
0001
0100
0010
0000
0010
0100
0001
,
0010
0100
1000
0001
0000
1000
0000
0001
,
0000
0011
0000
0001
1000
0000
0010
0000
,
1000
0001
0100
0000
0001
1000
0010
0000
,
1010
0000
1001
0000
,
0110
0000
0110
0000
1001
0001
1000
0001
,
0010
0100
0010
0100
0000
0100
1000
0010
,
0100
0001
0100
0001
0000
0001
1000
0100
,
1000
0010
1000
0001
0000
0001
0010
0100
,
1000
0000
2010
0000
3100
0000
0001
0010
,
0000
0011
0000
0001
2000
0000
3001
0100
,
0000
0001
0100
0000
0010
0000
1000
0000
,
0200
0000
0000
0000
,
0300
0000
0000
0000
,
1000
0001
0010
0100
1000
0010
1000
0100
,
1000
0001
0100
0001
0010
0001
1000
0001
,
1000
0100
1000
0100
0001
0100
0001
0100
,
1000
0010
1000
0010
0001
0010
0001
0010
,
1000
0001
1000
0010
0100
0100
0001
0010
,
0100
0100
1000
1000
0001
0001
1000
0001
,
1000
0010
1000
0010
0100
0001
0100
0001
,
0010
0100
1000
0001
0100
0010
1000
0001
,
1000
0000
1001
0000
1000
0100
0010
0000
,
0012
0000
1000
0000
0103
0000
0100
0010
,
1010
0000
0001
0000
0100
0010
1000
0000
,
2010
0000
0001
0000
3100
0000
0001
0010
,
0011
0000
1000
0000
0100
0010
0100
0000
,
2000
3020
0230
0301
,
0101
0000
2001
0000
3100
0010
0001
0000
,
0001
0100
0001
0100
0010
1000
0010
1000
,
0001
0000
1001
0000
1000
0001
0010
0100
,
1000
0001
0100
0020
2030
3020
2030
3001
,
0010
0000
0100
0000
1000
0001
0100
0010
,
1000
0000
0001
0000
0100
0000
0001
0000
0010
0000
0100
0000
1000
0000
0001
0100
,
0001
0000
1000
0000
0010
1000
0001
1000
,
0100
0001
0100
2000
3020
2030
3020
0130
,
0001
0000
1000
0000
0001
0100
0010
0000
,
1000
0001
1000
0001
0010
0100
1000
0010
,
0100
0001
0100
0001
0000
0001
0010
0100
,
1000
0100
1000
0100
0000
0100
1000
0001
,
0100
1000
0100
0001
0000
0001
1000
0100
,
0001
0100
1000
0001
0000
1000
0100
0010
,
0000
0011
0000
0001
1000
0000
0010
0100
,
0000
0010
0100
0000
0002
0000
2003
0000
,
3001
0000
0001
1000
0100
0000
1000
0001
,
0100
0010
0100
0010
2000
0000
3100
0010
,
0001
0100
0010
0100
0001
0000
1000
0010
,
0000
1000
0010
0000
1000
0000
0001
1000
,
0100
0010
0100
1000
0001
0000
1000
0100
,
0010
0000
0100
0010
0001
0000
1000
0001
,
1000
0010
0000
0010
0200
0000
0000
0000
,
0000
0300
0000
0000
,
0002
0000
0203
0000
0302
0000
2003
0000
3200
0000
2300
0000
,
3001
1000
0001
1000
0010
0100
0001
0000
,
1000
0100
1000
0001
0100
0001
1000
0010
,
0100
0001
1000
0100
0010
0001
0100
0010
,
1000
0010
0100
0010
0001
0010
0100
0010
,
1000
0100
0010
0100
0001
0100
0010
0100
,
1000
0001
1000
0010
0100
0100
0001
1000
,
0100
0100
0010
0010
0001
0001
1000
0001
,
0100
0010
0100
0010
1000
0010
1000
0010
,
1000
0001
0010
0100
1000
0010
0100
0001
,
1000
0000
1001
0000
1000
0100
0010
0000
,
0002
0000
0203
0000
2300
0000
3100
0001
,
0101
0000
2000
0000
3100
0010
0001
0000
,
2000
0000
3020
0000
0032
0000
0013
1000
,
1010
0000
2000
0000
3001
0010
0100
0000
,
1000
0010
1000
0010
0100
0000
0001
0000
,
0011
0000
1001
0000
0001
1000
0010
0000
,
1000
0100
1000
0100
1000
0100
0010
0001
,
1000
0000
1000
0001
0010
0100
1000
0001
,
0100
0010
1000
0002
0203
0302
0203
0301
,
0010
0000
0100
1000
0001
0100
0010
1000
,
0100
0000
1000
0000
0010
0000
1000
0000
0100
0000
0010
0000
0001
0000
1000
0100
,
1000
0000
0010
0000
1000
0001
0100
1000
,
0100
0001
0010
0200
2300
3200
2300
3001
,
0100
0000
0001
1000
0100
0010
0001
0100
,
0010
0100
0001
0010
0100
1000
0010
0100
,
0002
0003
0000
0000
;
