#TITLE:リカーシブ・ファンクション;
#SUBTITLE:;
#ARTIST:OSTER project;
#TITLETRANSLIT:Recursive function;
#SUBTITLETRANSLIT:;
#ARTISTTRANSLIT:;
#GENRE:;
#CREDIT:;
#MUSIC:Recursive function.ogg;
#BANNER:Recursive function.png;
#BACKGROUND:Recursive function-bg.png;
#CDTITLE:;
#SAMPLESTART:53.175;
#SAMPLELENGTH:15.000;
#SELECTABLE:YES;
#OFFSET:1.446;
#BPMS:0.000=145.000;
#STOPS:194.000=0.414;
#BGCHANGES:;
#FGCHANGES:;

//--------------- dance-single - chrononical ----------------
#NOTES:
     dance-single:
     chrononical:
     Beginner:
     3:
     0,0,0,0,0:
0000
0000
0000
0000
,
0000
0000
0000
0000
,
0000
0000
0000
0000
,
0000
0000
0000
0000
,
0000
0000
0000
0000
,
1000
0000
1000
0001
,
0000
0001
0000
1000
,
1000
2000
3000
0000
,
0001
0010
0001
0000
,
1000
1000
1000
0000
,
0001
0100
0001
0000
,
1000
1000
1000
0001
,
1000
0000
0100
0010
,
0100
0000
0010
0010
,
0010
0000
0001
1000
,
0001
0000
0100
0000
,
0010
0000
1000
0000
,
2002
0000
0000
3003
,
0001
0000
0010
0000
,
0100
0000
1000
0000
,
0001
0001
0000
0100
,
0000
0010
0000
0010
,
1000
0000
0001
0000
,
1000
1000
0100
1000
,
0000
0001
0000
0100
,
0100
0100
0002
0003
,
1000
0000
0100
0000
,
0010
0002
0003
0100
,
0000
0010
0000
1000
,
0001
0000
1000
0100
,
0000
0010
0001
1000
,
1001
0000
0001
0000
,
1000
0001
1000
0000
,
0001
0000
0010
0100
,
0010
0000
0010
0000
,
0001
0000
1000
0001
,
1000
0000
0010
0000
,
0010
0000
1000
0001
,
1000
0000
0100
0000
,
0100
0000
0010
0000
,
1001
0000
0000
0000
,
1001
0000
0000
0110
,
0000
0000
1001
1000
,
0100
0010
0000
0010
,
0100
1000
0002
0003
,
0200
0300
0020
0030
,
2000
3000
2002
0000
,
0000
3003
0001
0000
,
0010
0000
0100
1001
,
0000
0000
0001
0100
,
0000
0010
0000
1000
,
0000
0100
0010
0100
,
0000
1000
0000
0001
,
0000
0100
0000
0010
,
0000
1000
0001
1000
,
0000
0100
0010
1001
,
0000
0001
0000
0100
,
0000
0010
1000
0010
,
0000
1000
0000
0100
,
0000
0010
0100
0010
,
0000
0001
0000
1000
,
0000
0010
0100
0010
,
0000
1000
0000
0001
,
0000
0000
1000
2002
,
0000
3003
0000
0000
;

//--------------- dance-single - chrononical ----------------
#NOTES:
     dance-single:
     chrononical:
     Easy:
     8:
     0,0,0,0,0:
0000
0000
0000
0000
,
0000
0000
0000
0000
,
0000
0000
0000
0000
,
0000
0000
0000
0000
,
0000
0000
0000
0000
0000
0000
0000
1000
,
0000
0100
0000
0000
0000
0010
0000
0000
0000
0001
0000
0000
0100
0000
0000
0010
,
0000
0000
0000
0001
0000
0000
0000
0010
0000
0000
1000
0000
0000
0100
0000
0000
,
0000
0000
0000
0010
0000
0000
0000
0000
0000
0000
0000
0000
0000
0000
0000
0100
0000
0000
0000
0000
0000
0000
0000
0000
0000
0000
0000
0000
1000
0000
0000
0000
0000
0000
0000
0000
0002
0000
0000
0000
0000
0000
0000
0000
0000
0000
0000
0000
,
1003
0001
1000
0010
,
0100
0001
0010
0100
,
0001
0100
1000
0010
,
0001
0010
1000
0100
,
0010
0100
1000
0100
,
0010
0001
0100
0010
,
0001
0010
1000
0100
,
0001
0000
0100
0000
2000
0000
3000
0002
,
0000
0003
0100
0000
0000
0010
0000
0000
,
2002
0000
0000
3003
,
1000
0000
0000
0001
0000
0000
1000
0000
0100
0000
0000
0000
0000
0000
0000
0000
,
0100
0000
0010
0000
,
0001
1000
0000
0010
,
0000
0100
0100
0001
,
1001
0001
0010
0000
,
0100
0000
0000
0100
0000
0000
1000
0000
0000
0000
1000
0000
0001
0000
1000
0000
,
0001
0100
0100
0010
,
0001
0010
2000
3000
,
0200
0001
1300
0001
,
0010
0100
2000
0000
3000
0000
0020
0000
,
0001
1030
0001
0010
,
0001
0000
1000
0000
0001
0000
0000
1000
0000
0000
0000
0000
0100
0000
0000
0000
,
0010
0010
0100
0100
,
1001
0000
0001
0000
0100
0010
0100
0000
,
0001
0000
1000
0000
0000
0001
0000
1000
0000
0000
1001
0000
0000
0000
0000
0000
,
0001
0000
0010
0000
0010
0100
1000
0000
,
1000
0000
0000
0000
0010
0000
0000
0100
0000
0001
0000
1000
0000
0000
1000
0000
,
0001
0000
0000
0000
0100
0000
0000
0000
0010
0000
0000
0010
0000
0000
0010
0000
,
1000
0100
0001
0010
,
1000
0000
0010
0000
0100
0001
1000
0000
,
1000
0000
0000
0000
0100
0000
0000
0010
0000
0100
0000
0010
0000
0000
0001
0000
,
0000
1000
0000
0010
0000
2002
0000
0000
,
3003
0000
0000
0000
0000
0000
0000
1100
,
0000
0000
0000
0000
0000
0000
0000
0000
0000
0000
0000
0000
0100
0000
0000
0100
,
0000
0000
1000
0000
0000
1000
0000
0000
0001
0000
1000
0000
0001
0000
0000
0100
,
0000
0000
0000
0020
0000
0000
0000
0000
0000
0000
1030
0000
0000
0100
0000
0000
,
0000
0020
0000
0000
0000
0000
0000
0000
0032
0000
0000
0000
0003
0000
0000
0000
,
2000
3000
0200
0300
,
0020
0030
2002
0000
,
0000
0000
0000
0000
3003
0000
0000
0000
1000
0000
0001
0000
0000
1000
0000
0001
,
0000
2000
0000
0000
0000
0000
0000
0000
3000
0000
0000
0000
1100
0000
0000
0000
,
0000
0000
0000
0000
0000
0000
0100
0000
0000
0100
0000
0000
1000
0000
0000
0001
,
0000
0000
0000
0100
0000
0010
0000
0100
0000
0000
0001
0000
1000
0000
0000
0000
,
0100
0000
0000
0000
0010
0000
0000
0010
0000
0000
0010
0000
0001
0000
0000
0000
,
0010
1000
0100
0001
,
0100
0000
0010
0000
1000
0001
1000
0000
,
0010
0000
0000
0100
0000
0001
0000
0100
0000
0000
0001
0000
0000
0000
1000
0000
,
0000
0100
0000
1001
0000
0000
0001
0000
,
0010
1000
0010
0001
,
0100
1000
0100
0001
,
1000
0000
0000
0000
0100
0000
0000
0100
0000
0000
0100
0000
1000
0000
0000
0000
,
0010
0001
0100
1000
,
0010
0001
1000
0100
,
0010
0000
0000
1000
0000
0001
0000
1000
0000
0000
0001
0000
0000
0000
0010
0000
,
0000
0100
0000
1001
0000
0000
1000
0010
,
0100
0000
0000
0100
0000
0000
0000
0000
0010
0000
0000
2002
0000
0000
0000
0000
,
0000
3003
0000
0000
;

//--------------- dance-single - chrononical ----------------
#NOTES:
     dance-single:
     chrononical:
     Medium:
     12:
     0,0,0,0,0:
0000
0000
0000
0000
,
0000
0000
0000
0000
,
0000
0000
0000
0000
,
0000
0000
0000
0000
,
0000
0000
0000
0000
0000
0000
0000
0001
,
0100
0010
0000
1000
0000
0001
0000
1000
0000
0100
0010
0000
0001
0000
0100
0010
,
0000
1000
0000
0010
0000
0001
0000
0010
0100
0000
0001
0000
0010
0100
0000
1000
,
0000
0000
0000
0002
0000
0000
0000
0000
0000
0100
0000
0000
0003
0000
0000
0100
0000
0000
0000
0000
0000
0010
0000
0000
0000
0000
0000
0000
1000
0000
0000
0000
0001
0000
0000
0000
2000
0000
0000
0000
0000
0000
0000
0000
0000
0000
0000
0000
,
3001
0000
0010
0000
1000
0000
0010
0000
0001
0000
0100
0010
0000
0100
0000
0001
,
0000
1000
0000
0001
0010
0000
0100
0000
1000
0000
0010
0100
0000
0010
0000
0001
,
0000
0010
0000
0100
0010
0000
1000
0000
0001
0000
0010
0100
0000
0010
0000
1000
,
0000
0010
0000
0100
0010
0000
0001
0000
1000
0000
0000
0010
0000
0100
0000
0001
,
0000
1000
0100
0000
0001
0000
0100
0000
1000
0000
0001
0100
0000
0010
0000
0100
,
0000
0001
0000
1000
0100
0000
0010
0000
0001
0000
0100
0010
0000
0100
0000
1000
,
0000
0100
0000
0010
1000
0000
0001
0000
1000
0000
0100
0010
0000
0100
0000
0001
,
0000
0100
0000
0010
0001
0000
1000
0000
0001
0000
0000
0101
0000
0000
0100
0000
,
0000
0110
0000
0000
0010
0000
0000
0100
0000
0000
0001
0000
0000
1000
0000
0000
,
0200
0000
0001
0010
,
1300
0000
0000
1000
0000
0000
0001
0000
1000
0000
0000
0000
0100
0000
0000
0000
,
0010
0010
0001
0100
,
0010
1000
0001
0000
0010
0000
0100
0000
,
0100
1000
0010
0001
,
0010
1000
0100
0100
,
0010
0000
0000
0010
0000
0000
0001
0000
1000
0000
0010
0000
1000
0000
0100
0000
,
0010
0000
0000
0001
0000
1000
0001
0000
0100
0000
0010
0000
1000
0000
0100
0010
,
0000
0100
1000
0000
0001
0000
1000
0000
0002
0000
0000
0013
0000
0000
0001
0000
,
2000
0000
0000
0010
0000
0000
0010
0000
3001
0000
0000
0010
0000
0000
0100
0000
,
0010
0000
0100
0000
2000
0000
0000
3010
0000
0000
1000
0000
0002
0000
0000
0010
,
0000
0010
1003
0010
0100
0001
1000
0001
,
1000
0000
0100
0000
0010
0100
0000
0010
0000
0001
1000
0000
0001
0000
0100
0000
,
0100
0010
1000
1000
0001
0000
0101
0000
,
2001
0001
0010
3100
,
0100
0000
0100
0000
0000
1000
0000
1000
0000
0000
2001
0000
0000
0000
0000
0000
,
3001
0000
0100
0010
0000
1000
0000
0001
0000
0010
0100
0000
0100
0000
1000
0000
,
1000
0000
0010
0100
0000
0010
0000
0001
0000
0010
0000
1000
0000
0001
0010
0000
,
0001
0000
0010
0100
0000
0010
0100
0000
1000
0000
0000
0010
0000
0000
0100
0000
,
0001
0000
0100
0010
0000
0010
0000
0002
0000
0000
0013
0000
1000
0000
0001
0000
,
1000
0000
0100
0010
0000
0001
0000
1000
0000
0010
0100
0000
0100
0000
0001
0000
,
0001
0000
0010
0100
0000
0010
0000
1000
0000
0010
0000
0001
0000
1000
0010
0000
,
0000
1000
0100
0010
0000
0010
0100
1000
0000
0000
0020
0000
0200
0000
0030
0000
,
0301
0000
0000
0000
0000
0000
0000
1001
,
0000
0000
0000
0000
0000
0000
0000
0000
0000
0000
0000
0000
0011
0000
0000
0010
,
0000
0000
0110
0000
0000
0100
0000
0000
1000
0000
0001
0000
1000
0000
0010
0100
,
0000
0010
0000
0100
0000
0100
0000
0001
1000
0000
0001
0000
0010
0100
0000
0010
,
0000
0100
0000
0100
0000
1000
0001
0000
0200
0000
0000
0000
1300
0000
0000
0000
,
0200
0301
0020
1030
,
0020
0031
2002
0000
,
0000
0000
0000
0000
3003
0000
0000
0000
1000
0000
0100
0010
0000
0001
0000
1000
,
0000
0001
0000
0100
0000
1000
0000
0100
0000
0000
0000
0000
0110
0000
0000
0000
,
0000
0000
0000
0000
0000
0000
0110
0000
0000
1001
0000
0000
0001
0000
0010
0100
,
0000
0010
0000
1000
0000
0010
0000
0001
0000
1000
0001
0000
1000
0000
0010
0100
,
0000
0010
0100
0000
0001
0000
0000
0100
0000
0000
0010
0000
1000
0000
0100
0010
,
0000
1000
0000
2000
0000
0000
3010
0000
0001
0000
1000
0000
0001
0000
0100
0010
,
0000
1000
0000
0001
0000
0010
0100
0000
0100
0000
1000
0000
1000
0000
0010
0100
,
0000
0010
0000
0001
0000
0010
0000
0100
0000
0001
1000
0000
0000
0001
0010
0100
,
0000
0100
0010
0001
0000
0000
0200
0000
0020
0000
0300
0000
1030
0000
0100
0010
,
0000
1000
0000
0010
0000
0100
1000
0000
0001
0000
1000
0000
0001
0000
0100
0010
,
0000
0001
0000
0010
0000
0100
0000
0001
0000
1000
0001
0000
1000
0000
0100
0010
,
0000
0010
0001
0000
1000
0000
0000
0010
0000
0000
0100
0000
0001
0000
0100
0010
,
0000
0001
0000
0002
0000
0000
0013
0000
1000
0000
0001
0000
1000
0000
0100
0010
,
0000
0100
0000
0001
0000
0100
1000
0000
0001
0000
1000
0000
0001
0000
0100
0010
,
0000
0100
0000
1000
0000
0100
0000
0010
0000
1000
0001
0000
0000
1000
0010
0100
,
0000
0100
0010
1000
0000
0000
0200
0000
0020
0000
0300
0000
0031
1000
0001
0000
,
0100
0000
0010
0100
0010
0000
0000
0000
0110
0000
0000
2002
0000
0000
0000
0000
,
0000
3003
0000
0000
;

//--------------- dance-single - chrononical ----------------
#NOTES:
     dance-single:
     chrononical:
     Hard:
     15:
     0,0,0,0,0:
0000
0000
0000
0000
,
0000
0000
0000
0000
,
0000
0000
0000
0000
,
0000
0000
0000
0000
,
0000
0000
0000
0000
0000
0000
0000
1001
,
0001
0100
0000
0100
0000
0010
0000
0010
0000
0010
1000
0001
1000
0000
1000
0100
,
0000
0100
0000
0010
0000
0010
0100
0010
0001
1000
0001
0000
0001
0100
0000
0100
,
0000
0000
0000
2000
0000
0000
0000
0000
0000
0100
0000
0000
3000
0000
0000
0100
0000
0000
0010
0000
0000
1000
0000
0000
0000
0000
0000
0000
1000
0000
0000
0000
0100
0000
0000
0000
0020
0000
0000
0000
0000
0000
0000
0000
0000
0000
0000
0000
,
0031
0100
0010
0100
0001
0010
0100
0010
0001
0000
1000
0010
0000
0010
0000
0100
,
0000
0010
0000
0010
1000
0001
1000
0100
1000
0000
0100
0010
0000
0010
0000
1000
,
0000
0010
0100
0010
0001
1000
0001
0100
0010
0000
0100
0010
0000
0010
0000
0001
,
0000
0010
0100
0001
1000
0100
0010
0100
0010
0001
0000
0100
0000
0010
0000
0110
,
0000
0100
0001
1000
0000
0010
1000
0001
0010
0000
0001
0010
0000
0010
0000
0100
,
0000
0010
0000
0010
0001
1000
0001
0100
0001
0000
0100
0010
0000
0010
0000
0001
,
0000
0010
0100
0010
1000
0001
1000
0100
0010
0000
0100
0010
0000
0010
0000
1000
,
0000
0010
0100
0010
0001
1000
0001
0100
0010
0000
0000
1001
0000
0000
0010
0000
,
0000
1001
0000
0000
1000
0100
0010
0100
1000
0100
0010
0001
1000
0001
1000
0010
,
0200
0000
1000
0010
,
0301
0000
0000
0011
0000
0000
0110
0000
1001
0000
0000
0000
1000
0000
0010
0000
,
0100
0000
0000
0100
0000
0000
0010
0000
0100
0000
0000
0000
0001
0000
0010
0000
,
0100
0000
0010
0000
0001
0000
0000
0000
1000
0000
0100
0000
0010
0000
0000
0010
,
0000
0100
0010
0001
1000
0010
0000
0010
,
1001
0000
0000
0000
0001
0000
0100
0000
0010
0000
0000
0010
0000
0000
0100
0000
,
0101
0000
0000
1001
0000
0000
1000
0000
0100
0000
0010
0000
1001
0000
0001
0000
,
0010
0000
0000
0100
0000
0001
0100
0000
1000
0000
0010
0100
0010
0000
0100
1000
,
0000
0100
0001
0000
1000
0100
0010
0001
2000
0000
0000
3001
0000
0000
0001
0010
,
0200
0000
0000
0001
0000
0000
0010
0000
1300
0000
0010
0000
0100
0000
0000
0100
,
0000
0100
0010
1000
0002
0000
0000
1003
0000
0000
1000
0100
0020
0000
0000
1000
,
0000
0000
0100
0000
0031
0000
0100
0000
0010
0000
0000
0010
0000
0010
0100
0001
,
1000
0000
0100
0010
0100
1000
0000
1100
0000
1000
0010
0100
0001
0100
0010
1000
,
0001
0100
1000
0100
0010
0100
0001
1000
0100
0000
0000
0000
0110
0000
0000
0000
,
1001
0000
0001
0010
0100
0010
0000
0001
1000
0001
1000
0010
0100
0010
1000
0000
,
0100
0010
0001
0010
0000
0011
0000
0101
0000
0001
2000
0000
0000
0000
0000
0000
,
3001
0000
0010
0100
0000
0100
0000
0010
0000
0010
0001
1000
0010
0100
0001
1000
,
0001
0000
0100
0010
0000
0010
0000
0001
0000
0010
0000
0010
0000
0100
0001
1000
,
0100
0000
0010
0100
0000
0100
1000
0001
1000
0000
0000
0100
0000
0000
0010
0000
,
0001
0000
0100
1000
0000
0100
0000
1200
0000
0000
1300
0000
0100
0000
0001
0000
,
1000
0000
0100
0010
0000
0010
0000
0100
0000
0100
0010
0001
1000
0010
0100
0001
,
1000
0000
0010
0100
0000
0100
0000
1000
0000
0100
0000
0100
0000
0010
1000
0001
,
0000
0001
0010
1000
0000
0001
0100
1000
0000
0000
1200
0000
0001
0000
0000
0000
,
1300
0000
0000
0001
0000
0001
0000
0200
0000
0310
1000
0000
0001
0000
0001
1000
,
0000
0100
0000
0100
0000
0020
0000
0031
1000
0000
1000
0000
0011
0000
0000
1000
,
0000
0000
0101
0000
0000
1000
0000
0000
0011
0000
1001
0000
0001
0010
0100
0010
,
0000
0100
0000
0200
0000
0301
0100
1000
0001
1000
0001
0100
0010
0100
0000
0010
,
0000
0000
0000
0020
0000
0000
0000
0000
0000
0031
0000
0000
0010
0000
0000
1000
0000
0000
0001
0000
0000
1000
0000
0000
0200
0000
0000
0000
0000
0000
0000
0000
0000
0000
0000
0000
0310
0000
0000
0000
0001
0000
0000
0000
0100
0000
0000
0000
,
0020
0000
0000
1030
0100
0010
2000
0000
0000
3010
0100
1000
,
0002
0000
0000
0103
0001
1000
2002
0000
0000
0000
0000
0000
,
0000
0000
0000
0000
3003
0000
0000
0000
0001
0010
0100
1000
0000
1100
0000
1010
,
0000
0010
0100
0001
1000
0100
0010
0001
0000
0000
0000
0000
1001
0000
0000
0000
,
0000
0000
0000
0000
0000
0000
0101
0000
0000
0101
0000
0000
0001
0000
0010
0100
,
0000
0100
0000
1100
0000
1100
0000
1000
0010
0100
0001
0000
1001
0000
1000
0010
,
0000
0010
0100
0001
1000
0000
0000
0100
0000
0000
0010
0000
0001
0000
0100
0010
,
0000
0001
0000
0021
0000
0000
0031
0000
0010
0000
1000
0000
0001
0000
0010
0100
,
0000
0100
0000
0001
0000
0001
0100
0010
0100
1000
0001
1000
0001
0000
0100
0010
,
0000
0010
0000
0001
0000
0001
0000
1000
0000
1000
0100
0001
0000
0001
0010
1000
,
0000
0001
0100
1000
0000
0000
2100
0000
0001
0000
0000
0000
3001
0000
0010
1000
,
0000
0001
0000
1000
0000
0010
0001
1000
0010
0100
0001
1000
0001
0000
0100
1000
,
0000
0001
0000
1000
0000
0100
0000
0001
0000
1000
0100
0010
0100
0000
0001
0100
,
0000
0010
0100
1000
0001
0000
0000
0101
0000
0000
1001
0000
1010
0000
0010
0100
,
0000
1000
0000
1200
0000
0000
1300
0000
0100
0000
0001
0000
1000
0000
0100
0001
,
0000
1000
0000
0010
0000
0001
1000
0010
0100
0010
1000
0001
1000
0000
0010
0001
,
0000
1000
0000
0100
0000
0001
0000
1000
0000
0001
0010
0100
0000
1000
0100
0001
,
0000
1000
0010
0100
0000
0000
0210
0000
0001
0000
0000
0000
1300
0010
0100
0010
,
0100
1000
0100
0010
0100
0000
0000
0000
0110
0000
0000
2002
0000
0000
0000
0000
,
0000
3003
0000
0000
;

//--------------- dance-double - chrononical ----------------
#NOTES:
     dance-double:
     chrononical:
     Easy:
     8:
     0,0,0,0,0:
00000000
00000000
00000000
00000000
,
00000000
00000000
00000000
00000000
,
00000000
00000000
00000000
00000000
,
00000000
00000000
00000000
00000000
,
00000000
00000000
00000000
00000000
00000000
00000000
00000000
10000000
,
00000000
00100000
00000000
00000000
00000000
01000000
00000000
00000000
00000000
00010000
00000000
00000000
00100000
00000000
00000000
01000000
,
00000000
00000000
00000000
00100000
00000000
00000000
00000000
00001000
00000000
00000000
00010000
00000000
00000000
00000100
00000000
00000000
,
00000000
00000000
00000000
00000010
00000000
00000000
00000000
00000000
00000000
00000000
00000000
00000000
00000000
00000000
00000000
00000001
00000000
00000000
00000000
00000000
00000000
00000000
00000000
00000000
00000000
00000000
00000000
00000000
00001000
00000000
00000000
00000000
00000000
00000000
00000000
00000000
00000001
00000000
00000000
00000000
00000000
00000000
00000000
00000000
00000000
00000000
00000000
00000000
,
00001000
00000001
00001000
00000100
,
00000010
00000001
00000100
00000010
,
00001000
00010000
01000000
00100000
,
00010000
00100000
10000000
01000000
,
00010000
00100000
10000000
01000000
,
00100000
00010000
10000000
01000000
,
00010000
00001000
00000010
00000001
,
00000001
00000000
00001000
00000000
00002000
00000000
00003000
00000020
,
00000000
00000030
00000100
00000000
00000000
00000010
00000000
00000000
,
00002002
00000000
00000000
00003003
,
00000001
00000000
00000000
00001000
00000000
00000000
00000001
00000000
00000010
00000000
00000000
00000000
00000000
00000000
00000000
00000000
,
00000100
00000000
00001000
00000000
,
00010000
01000000
00000000
00010000
,
00000000
10000000
01000000
01000000
,
10010000
00010000
00100000
00010000
,
10000000
00000000
00000000
10000000
00000000
00000000
00010000
00000000
00000000
00000000
00010000
00000000
10000000
00000000
00010000
00000000
,
10000000
01000000
00100000
00001000
,
00010000
00000100
00002000
00003000
,
00000200
00000001
00001300
00000010
,
00000100
00000002
00000003
00000020
,
00001000
00000031
00000010
00000001
,
00001000
00000000
00000001
00000000
00001000
00000000
00000000
00000100
00000000
00000000
00000000
00000000
00010000
00000000
00000000
00000000
,
00010000
00001000
00010000
01000000
,
11000000
00000000
10000000
00000000
00010000
00100000
00010000
00000000
,
10000000
00000000
00010000
00000000
00000000
10000000
00000000
00010000
00000000
00000000
10010000
00000000
00000000
00000000
00000000
00000000
,
10000000
00000000
01000000
00000000
00100000
00010000
10000000
00000000
,
00100000
00000000
00000000
00000000
01000000
00000000
00000000
00010000
00000000
10000000
00000000
01000000
00000000
00000000
00100000
00000000
,
01000000
00000000
00000000
00000000
10000000
00000000
00000000
00000000
00010000
00000000
00000000
00010000
00000000
00000000
00010000
00000000
,
00100000
00010000
00001000
00000100
,
00000010
00000000
00000001
00000000
00000100
00000001
00001000
00000000
,
00000100
00000000
00000000
00000000
00000010
00000000
00000000
00000001
00000000
00001000
00000000
00000001
00000000
00000000
00000100
00000000
,
00000000
00000010
00000000
00001000
00000000
00002002
00000000
00000000
,
00003003
00000000
00000000
00000000
00000000
00000000
00000000
00001100
,
00000000
00000000
00000000
00011000
,
00000000
00000000
01010000
00000000
00000000
00000000
00000000
00000000
10010000
00000000
00000000
00000000
10000000
00000000
00000000
01000000
,
00000000
00000000
00000000
00200000
00000000
00000000
00000000
00000000
00000000
00000000
00310000
00000000
00000000
01000000
00000000
00000000
,
00000000
00200000
00000000
00000000
00000000
00000000
00000000
00000000
20300000
00000000
00000000
00000000
30000000
00000000
00000000
00000000
,
00020000
00030000
02000000
03000000
,
00002000
00003000
00022000
00000000
,
00000000
00000000
00000000
00000000
00033000
00000000
00000000
00000000
00001000
00000000
00010000
00000000
00000000
00000100
00000000
00001000
,
00000000
00000002
00000000
00000000
00000000
00000000
00000000
00000000
00000003
00000000
00000000
00000000
00000011
00000000
00000000
00000000
,
00000000
00000000
00000000
00000000
00000000
00000000
00000010
00000000
00000000
00000010
00000000
00000000
00000001
00000000
00000000
00000100
,
00000000
00000000
00000000
00000010
00000000
00000100
00000000
00000010
00000000
00000000
00001000
00000000
00000001
00000000
00000000
00000000
,
00000010
00000000
00000000
00000000
00000100
00000000
00000000
00000100
00000000
00000000
00000100
00000000
00001000
00000000
00000000
00000000
,
00000100
00010000
00001000
01000000
,
00100000
00000000
10000000
01000000
00100000
00000000
00010000
00000000
,
01000000
00000000
00000000
00100000
00000000
10000000
00000000
00010000
00000000
00000000
00100000
00000000
00000000
00000000
00001000
00000000
,
00000000
00010000
00000000
00011000
00000000
00000000
00010000
00000000
,
00001000
00000100
00001000
00010000
,
00010000
01000000
00010000
00001000
,
00000010
00000000
00000000
00000000
00000001
00000000
00000000
00000001
00000000
00000000
00000001
00000000
00001000
00000000
00000000
00000000
,
00000100
00010000
00001000
00010000
,
01000000
10000000
00010000
01000000
,
00100000
00000000
00000000
10000000
00000000
00010000
00000000
10000000
00000000
00000000
01000000
00000000
00000000
00000000
00100000
00000000
,
00000000
00010000
00000000
00110000
00000000
00000000
00100000
00001000
,
00010000
00000000
00000000
00001000
00000000
00000000
00000000
00000000
00010000
00000000
00000000
00022000
00000000
00000000
00000000
00000000
,
00000000
00033000
00000000
00000000
;

//--------------- dance-double - chrononical ----------------
#NOTES:
     dance-double:
     chrononical:
     Medium:
     13:
     0,0,0,0,0:
00000000
00000000
00000000
00000000
,
00000000
00000000
00000000
00000000
,
00000000
00000000
00000000
00000000
,
00000000
00000000
00000000
00000000
,
00000000
00000000
00000000
00000000
00000000
00000000
00000000
10000000
,
00010000
00100000
00000000
00010000
00000000
10000000
00000000
01000000
00000000
00100000
00001000
00000000
00010000
00000000
00000100
00000010
,
00000000
00000001
00000000
00000100
00000000
00001000
00000000
00000100
00000010
00000000
00001000
00000000
00000100
00001000
00000000
00010000
,
00000000
00000000
00000000
00200000
00000000
00000000
00000000
00000000
00000000
00010000
00000000
00000000
00300000
00000000
00000000
00010000
00000000
00000000
00000000
00000000
00000000
10000000
00000000
00000000
00000000
00000000
00000000
00000000
10000000
00000000
00000000
00000000
00010000
00000000
00000000
00000000
20000000
00000000
00000000
00000000
00000000
00000000
00000000
00000000
00000000
00000000
00000000
00000000
,
31000000
00000000
00100000
00000000
00010000
00000000
00001000
00000000
00000100
00000000
00000010
00000001
00000000
00001000
00000000
00000010
,
00000000
00000100
00000000
00000001
00001000
00000000
00010000
00000000
01000000
00000000
00100000
10000000
00000000
00010000
00000000
01000000
,
00000000
10000000
00000000
01000000
00010000
00000000
00001000
00000000
00000100
00000000
00000010
00000001
00000000
00001000
00000000
00000010
,
00000000
00000001
00000000
00000010
00001000
00000000
00000100
00000000
00010000
00000000
00000000
00001000
00000000
01000000
00000000
00100000
,
00000000
10000000
00100000
00000000
00010000
00000000
00100000
00000000
10000000
00000000
01000000
00100000
00000000
00001000
00000000
00010000
,
00000000
00000100
00000000
00000010
00000001
00000000
00001000
00000000
00000001
00000000
00000010
00000100
00000000
00001000
00000000
00000100
,
00000000
00000001
00000000
00000100
00001000
00000000
00010000
00000000
10000000
00000000
00100000
01000000
00000000
00010000
00000000
01000000
,
00000000
10000000
00000000
01000000
00010000
00000000
00001000
00000000
00000001
00000000
00000000
00000011
00000000
00000000
00000010
00000000
,
00000000
00000110
00000000
00000000
00000100
00000000
00000000
00001000
00000000
00000000
00010000
00000000
00000000
10000000
00000000
00000000
,
02000000
00000000
00010000
00100000
,
13000000
00000000
00000000
10000000
00000000
00000000
00010000
00000000
10000000
00000000
00000000
00000000
00100000
00000000
00000000
00000000
,
01000000
00010000
10000000
01000000
,
00100000
00010000
00001000
00000000
00000010
00000000
00000100
00000000
,
00000001
00000010
00000100
00001000
,
00010000
10000000
00100000
01000000
,
00010000
00000000
00000000
00010000
00000000
00000000
00100000
00000000
00010000
00000000
00001000
00000000
00000010
00000000
00000100
00000000
,
00000001
00000000
00000000
00000010
00000000
00000100
00001000
00000000
00000100
00000000
00000010
00000000
00000001
00000000
00001000
00000100
,
00000000
00010000
00001000
00000000
01000000
00000000
00100000
00000000
20000000
00000000
00000000
31000000
00000000
00000000
10000000
00000000
,
00020000
00000000
00000000
01000000
00000000
00000000
01000000
00000000
10030000
00000000
01000000
00000000
00100000
00000000
00001000
00000000
,
00010000
00000000
00000100
00000000
00002000
00000000
00000000
00003010
00000000
00000000
00001000
00000000
00000002
00000000
00000000
00000010
,
00000000
00000010
00001003
00000001
00000100
00000010
00001000
00000001
,
00001000
00000000
00000100
00000000
00010000
00001000
00000000
01000000
00000000
00100000
10000000
00000000
00010000
00000000
01000000
00000000
,
00010000
00100000
00010000
10000000
01000000
00000000
01100000
00000000
,
10020000
10000000
01000000
00130000
,
00100000
00000000
00100000
00000000
00000000
00001000
00000000
00001000
00000000
00000000
00021000
00000000
00000000
00000000
00000000
00000000
,
00031000
00000000
00010000
00000100
00000000
00001000
00000000
00000001
00000000
00000010
00000100
00000000
00000100
00000000
00001000
00000000
,
00001000
00000000
00000010
00000100
00000000
00001000
00000000
00010000
00000000
01000000
00000000
10000000
00000000
00010000
10000000
00000000
,
00010000
00000000
01000000
00100000
00000000
01000000
00100000
00000000
10000000
00000000
00000000
01000000
00000000
00000000
00100000
00000000
,
00010000
00000000
10000000
00100000
00000000
00010000
00000000
00002000
00000000
00000000
00013000
00000000
00000100
00000000
00000010
00000000
,
00000001
00000000
00000100
00000010
00000000
00001000
00000000
00000001
00000000
00000010
00000100
00000000
00001000
00000000
00000001
00000000
,
00001000
00000000
00000001
00000010
00000000
00001000
00000000
00010000
00000000
01000000
00000000
10000000
00000000
00010000
10000000
00000000
,
00000000
10000000
01000000
00100000
00000000
00100000
01000000
10000000
00000000
00000000
00200000
00000000
02000000
00000000
00300000
00000000
,
03010000
00000000
00000000
00000000
00000000
00000000
00000000
10010000
,
00000000
00000000
00000000
00000000
00000000
00000000
00000000
00000000
00000000
00000000
00000000
00000000
00011000
00000000
00000000
00010000
,
00000000
00000000
00010100
00000000
00000000
00000100
00000000
00000000
00001000
00000000
00000001
00000000
00001000
00000000
00000100
00000010
,
00000000
00000100
00000000
00000010
00000000
00000010
00000000
00000001
00001000
00000000
00000100
00000000
00010000
00001000
00000000
00100000
,
00000000
00010000
00000000
00010000
00000000
01000000
00100000
00000000
02000000
00000000
00000000
00000000
13000000
00000000
00000000
00000000
,
02000000
03010000
00200000
10300000
,
00200000
00310000
02020000
00000000
,
00000000
00000000
00000000
00000000
03030000
00000000
00000000
00000000
01000000
00000000
00001000
00010000
00000000
00000010
00000000
00001000
,
00000000
00000100
00000000
00000001
00000000
00000100
00000000
00000010
00000000
00000000
00000000
00000000
00000110
00000000
00000000
00000000
,
00000000
00000000
00000000
00000000
00000000
00000000
00000110
00000000
00000000
00001001
00000000
00000000
00000001
00000000
00000100
00000010
,
00000000
00001000
00000000
00010000
00000000
00100000
00000000
01000000
00000000
10000000
00010000
00000000
10000000
00000000
01000000
00100000
,
00000000
00100000
01000000
00000000
10000000
00000000
00000000
00100000
00000000
00000000
01000000
00000000
00010000
00000000
10000000
01000000
,
00000000
00010000
00000000
00002000
00000000
00000000
00003010
00000000
00000001
00000000
00001000
00000000
00000001
00000000
00000100
00000010
,
00000000
00001000
00000000
00000001
00000000
00000010
00000100
00000000
00000100
00000000
00001000
00000000
00001000
00000000
00000001
00000100
,
00000000
00000010
00000000
00010000
00000000
00001000
00000000
01000000
00000000
00100000
10000000
00000000
00000000
00010000
00100000
01000000
,
00000000
01000000
00100000
00010000
00000000
00000000
00002000
00000000
00020000
00000000
00003000
00000000
00030100
00000000
00001000
00000100
,
00000000
00000001
00000000
00000100
00000000
00000010
00000000
00000100
00001000
00000000
00000001
00000000
00000100
00000000
00000010
00000001
,
00000000
00000010
00000000
00001000
00000000
00010000
00000000
00100000
00000000
00010000
10000000
00000000
00010000
00000000
01000000
00100000
,
00000000
10000000
00010000
00000000
10000000
00000000
00000000
01000000
00000000
00000000
00100000
00000000
00010000
00000000
10000000
00100000
,
00000000
00010000
00000000
00002000
00000000
00000000
00013000
00000000
00000100
00000000
00000010
00000000
00000100
00000000
00001000
00000001
,
00000000
00000100
00000000
00001000
00000000
00000100
00000010
00000000
00001000
00000000
00000001
00000000
00000010
00000000
00000001
00001000
,
00000000
00000010
00000000
00001000
00000000
00010000
00000000
10000000
00000000
00100000
10000000
00000000
00000000
00010000
01000000
00100000
,
00000000
00100000
01000000
00010000
00000000
00000000
00200000
00000000
00002000
00000000
00300000
00000000
00013000
00000000
00001000
00000000
,
00000010
00000000
00000001
00000000
00000100
00000000
00000000
00000000
00000110
00000000
00000000
00002002
00000000
00000000
00000000
00000000
,
00000000
00003003
00000000
00000000
;

//--------------- dance-double - chrononical ----------------
#NOTES:
     dance-double:
     chrononical:
     Hard:
     16:
     0,0,0,0,0:
00000000
00000000
00000000
00000000
,
00000000
00000000
00000000
00000000
,
00000000
00000000
00000000
00000000
,
00000000
00000000
00000000
00000000
,
00000000
00000000
00000000
00000000
00000000
00000000
00000000
10000000
,
01000000
00100000
00000000
00100000
00000000
00001000
00000000
00001000
00000000
00010000
00001000
00000100
00000001
00000000
00000100
00000010
,
00000000
00000010
00000000
00010000
00000000
00010000
00000000
00001000
00010000
01000000
10000000
00000000
00100000
01000000
00000000
01000000
,
00000000
00000000
00000000
00020000
00000000
00000000
00000000
00000000
00000000
00100000
00000000
00000000
00030000
00000000
00000000
00100000
00000000
00000000
00001000
00000000
00000000
00010000
00000000
00000000
00000000
00000000
00000000
00000000
00001000
00000000
00000000
00000000
00000100
00000000
00000000
00000000
00000002
00000000
00000000
00000000
00000000
00000000
00000000
00000000
00000000
00000000
00000000
00000000
,
00001003
00000010
00010000
00001000
00100000
00010000
10000000
00010000
10000000
00000000
00100000
01000000
00000000
01000000
00000000
00010000
,
00000000
00010000
00000000
00100000
00001000
00010000
00000100
00001000
00000001
00000000
00000010
00000100
00000000
00000100
00000000
00000001
,
00000000
00000100
00010000
00001000
01000000
00010000
01000000
00100000
10000000
00000000
00100000
01000000
00000000
01000000
00000000
10000000
,
00000000
01000000
00001000
00010000
00000100
00001000
00000100
00000010
00000001
00001000
00000000
00000100
00000000
00010000
00000000
00011000
,
00000000
00001000
00100000
00010000
00000000
01000000
00100000
10000000
00010000
00000000
01000000
00100000
00000000
00100000
00000000
01000000
,
00000000
01000000
00000000
00001000
00010000
00000100
00000010
00000001
00001000
00000000
00000010
00000100
00000000
00000100
00000000
00001000
,
00000000
00000100
00000010
00010000
00001000
00100000
00010000
10000000
00010000
00000000
01000000
00100000
00000000
00100000
00000000
00010000
,
00000000
00100000
01000000
00001000
00010000
00000100
00001000
00000001
00000100
00000000
00000000
00001001
00000000
00000000
00000100
00000000
,
00000000
00001001
00000000
00000000
00001000
00000100
00010000
00001000
00100000
00010000
00100000
00010000
10000000
00010000
10000000
00100000
,
02000000
00000000
10000000
00100000
,
03010000
00000000
00000000
00110000
00000000
00000000
00101000
00000000
00011000
00000000
00000000
00000000
00010000
00000000
00000100
00000000
,
00001000
00000000
00000000
00001000
00000000
00000000
00001000
00000000
00000010
00000000
00000000
00000000
00000100
00000000
00000001
00000000
,
00001000
00000000
00000100
00000000
00010000
00000000
00000000
00000000
00001000
00000000
00100000
00000000
00010000
00000000
00000000
00010000
,
00000000
00010000
00100000
01000000
10000000
00100000
00000000
00100000
,
10000000
00000000
00000000
00000000
00010000
00000000
00100000
00000000
00001000
00000000
00000000
00001000
00000000
00000000
00010000
00000000
,
00000100
00000000
00000000
00000010
00000000
00000000
00000001
00000000
00000100
00000000
00000010
00000000
00001001
00000000
00001000
00000000
,
00000100
00000000
00010000
01000000
00000000
01000000
00100000
00000000
00001000
00000000
00001000
00000000
00010000
00000000
00001000
01000000
,
00000000
00001000
00010000
00000000
00000100
00000010
00000001
00001000
00000002
00000000
00000000
00001003
00000000
00000000
00000001
00001000
,
00000200
00000000
00000000
00000001
00000000
00000000
00000010
00000000
00010300
00000000
00001000
00000000
01000000
00000000
00100000
00000000
,
10000000
00000000
00010000
00000000
20000000
00000000
00000000
30010000
00000000
00000000
10000000
00010000
02000000
00000000
00000000
10000000
,
00000000
00100000
03001000
00010000
00000100
00000010
00000001
00001000
,
00000010
00000000
00001000
00000100
00010000
00001000
00000000
00011000
00000000
00010000
01000000
10000000
00010000
01000000
00100000
10000000
,
00010000
01000000
00001000
00010000
00000100
00010000
00000010
00001000
00000010
00000000
00000000
00000000
00000110
00000000
00000000
00000000
,
00001001
00000000
00000001
00000010
00000100
00001000
00000000
00000100
00010000
00001000
01000000
00100000
10000000
00010000
10000000
00000000
,
00100000
01000000
00001000
00010000
00000000
00011000
00000000
00001100
00000000
00001000
00000002
00000000
00000000
00000000
00000000
00000000
,
00001003
00000000
00000100
00010000
00000000
00001000
00000000
00100000
00000000
00010000
01000000
00100000
10000000
00100000
01000000
00010000
,
10000000
00000000
00010000
00100000
00000000
00010000
00000000
01000000
00000000
10000000
00000000
01000000
00000000
00010000
00100000
00001000
,
00010000
00000000
00001000
00000010
00000000
00000010
00000001
00001000
00000100
00000000
00000000
00010000
00000000
00000000
01000000
00000000
,
10000000
00000000
00100000
01000000
00000000
10000000
00000000
12000000
00000000
00000000
13000000
00000000
01000000
00000000
00001000
00000000
,
00010000
00000000
00001000
00000010
00000000
00000001
00000000
00001000
00000000
00000100
00010000
00001000
01000000
00010000
10000000
00010000
,
10000000
00000000
00100000
01000000
00000000
00010000
00000000
00001000
00000000
00000100
00000000
00000010
00000000
00000001
00001000
00000001
,
00000000
00000001
00000010
00001000
00000000
00001000
00100000
01000000
00000000
00000000
21000000
00000000
00000000
00000000
00000000
00000000
,
30010000
00000000
00000000
01000000
00000000
01000000
00000000
00020000
00000000
00130000
00001000
00000000
00000010
00000000
00000001
00001000
,
00000000
00000100
00000000
00000100
00000000
00002000
00000000
00003100
00010000
00000000
00001000
00000000
00100000
00000000
00000000
11000000
,
00000000
00000000
00100000
00000000
00000000
00011000
00000000
00000000
00011000
00000000
00010100
00000000
00000100
00001000
00000001
00000100
,
00000000
00000010
00000000
00000020
00000000
00000031
00000010
00001000
00000001
00001000
00000100
00010000
00001000
01000000
00000000
00100000
,
00000000
00000000
00000000
00200000
00000000
00000000
00000000
00000000
00000000
00310000
00000000
00000000
00100000
00000000
00000000
10000000
00000000
00000000
00010000
00000000
00000000
10000000
00000000
00000000
02000000
00000000
00000000
00000000
00000000
00000000
00000000
00000000
00000000
00000000
00000000
00000000
03100000
00000000
00000000
00000000
00010000
00000000
00000000
00000000
00001000
00000000
00000000
00000000
,
00000020
00000000
00000000
00000130
00001000
00100000
00020000
00000000
00000000
00031000
00000010
00010000
,
00002000
00000000
00000000
00103000
00001000
00010000
00022000
00000000
00000000
00000000
00000000
00000000
,
00000000
00000000
00000000
00000000
00033000
00000000
00000000
00000000
00010000
00000010
00001000
00000001
00000000
00000011
00000000
00001001
,
00000000
00001000
00000010
00010000
00001000
01000000
00010000
10000000
00000000
00000000
00000000
00000000
10010000
00000000
00000000
00000000
,
00000000
00000000
00000000
00000000
00000000
00000000
00101000
00000000
00000000
00011000
00000000
00000000
00010100
00000000
00000100
00001000
,
00000000
00001000
00000000
00000001
00000000
00000001
00000000
00000010
00000000
00000010
00000001
00001000
00000001
00000000
00001000
00000100
,
00000000
00010000
00001000
01000000
00010000
00000000
00000000
01000000
00000000
00000000
00100000
00000000
10000000
00000000
01000000
00100000
,
00000000
10000000
00000000
10200000
00000000
00000000
10300000
00000000
00100000
00000000
00001000
00000000
00010000
00000000
00000100
00001000
,
00000000
00000010
00000000
00000100
00000000
00000010
00001000
00000001
00000010
00000100
00001000
00000100
00010000
00000000
00001000
00100000
,
00000000
00010000
00000000
00001000
00000000
00010000
00000000
00100000
00000000
01000000
10000000
00010000
00000000
10000000
00100000
00010000
,
00000000
00010000
00000010
00000100
00000000
00000000
00000102
00000000
00000000
00000000
00000000
00000000
00000103
00000000
00010000
00100000
,
00000000
10000000
00000000
00010000
00000000
10000000
00100000
01000000
10000000
00010000
01000000
00010000
10000000
00000000
00010000
01000000
,
00000000
10000000
00000000
00010000
00000000
10000000
00000000
01000000
00000000
01000000
00001000
00010000
00001000
00000000
00000010
00000001
,
00000000
00001000
00000010
00000100
00000010
00000000
00000000
00001010
00000000
00000000
00001001
00000000
00001010
00000000
00000010
00000001
,
00000000
00000010
00000000
00000021
00000000
00000000
00000031
00000000
00000010
00000000
00010000
00000000
00001000
00000000
00010000
01000000
,
00000000
10000000
00000000
00010000
00000000
00100000
10000000
00100000
01000000
10000000
00010000
10000000
00010000
00000000
00010000
01000000
,
00000000
10000000
00000000
00010000
00000000
00100000
00000000
10000000
00000000
01000000
00010000
00001000
00000000
00010000
00001000
00000010
,
00000000
00000010
00000001
00001000
00000000
00000000
00001002
00000000
00000000
00000000
00000000
00000000
00001003
00000010
00000100
00000001
,
00000100
00000010
00010000
00001000
00100000
00000000
00000000
00000000
00101000
00000000
00000000
00022000
00000000
00000000
00000000
00000000
,
00000000
00033000
00000000
00000000
;
