#VERSION:0.83;
#TITLE:Receive You The Hyperactive;
#SUBTITLE:;
#ARTIST:SEGA, 83key, Shoji Hidenori;
#TITLETRANSLIT:;
#SUBTITLETRANSLIT:;
#ARTISTTRANSLIT:;
#GENRE:;
#CREDIT:;
#MUSIC:Receive You The Hyperactive.ogg;
#BANNER:Receive You The Hyperactive.png;
#BACKGROUND:Receive You The Hyperactive-bg.png;
#CDTITLE:;
#SAMPLESTART:35.187;
#SAMPLELENGTH:11.724;
#SELECTABLE:YES;
#OFFSET:-0.015;
#BPMS:0.000=174.000;
#STOPS:;
#SPEEDS:0.000=1.000=0.000=0;
#SCROLLS:0.000=1.000;
#JACKET:Receive You The Hyperactive-jacket.png;
#BGCHANGES:;
#FGCHANGES:;

//--------------- dance-single - DS+ XO JU ----------------
#NOTEDATA:;
#STEPSTYPE:dance-single;
#DESCRIPTION:DS+ XO JU;
#DIFFICULTY:Challenge;
#METER:15;
#RADARVALUES:0,0,0,0,0;
#NOTES:
0000
0000
0000
0000
,
0000
0000
0000
0000
,
2000
0000
0000
3020
0000
0000
0100
0000
,
0000
0100
0000
1030
0100
0000
0100
1000
,
0002
0000
0000
0023
0000
0000
0100
0000
,
0000
0100
0000
0031
0100
0000
0100
0001
,
2000
0000
0000
3200
0000
0000
0010
0000
,
0000
1300
0000
0000
0010
0000
0010
1000
,
0002
0000
0000
0203
0000
0000
0010
0000
,
0000
0310
1000
0001
0010
0100
0000
0010
,
1001
1000
0010
1000
0010
1000
0001
0010
,
0100
1000
0001
0100
0010
1000
0010
1000
,
0100
0010
0100
0010
0001
1000
0010
0100
,
0001
1000
0100
0010
0001
0010
1000
0010
,
0001
1000
0100
1000
0100
1000
0001
0100
,
0010
1000
0001
0010
0100
1000
0100
1000
,
0010
0100
0010
0100
0001
1000
0100
0010
,
0001
1000
0010
0100
0001
0100
1000
0100
,
0101
0000
0001
0000
0100
0000
0001
1000
0100
0000
1000
0000
0001
0010
0100
0000
,
1000
0001
0100
0000
0001
0000
0100
0010
1000
0000
0001
0000
0010
0000
0001
0000
,
0100
0010
1000
0000
0100
0000
0010
0001
1000
0000
0001
0000
0100
0010
1000
0000
,
0001
0010
0100
0000
1000
0000
0010
1000
0001
0000
0010
0000
1000
0010
0100
0000
,
1000
0001
0100
0000
0001
1000
0100
0000
1000
0001
0100
0000
0001
1000
0100
0000
,
1000
0001
0010
0000
0001
1000
0010
0000
1000
0001
0010
0000
0001
1000
0010
0000
,
0100
0001
0010
0000
0100
1000
0010
0000
0100
0001
0010
0000
0100
1000
0010
0000
,
0200
0000
0000
0301
1000
0100
0001
0100
,
1100
0000
1001
1000
0001
0100
0110
0010
,
1000
0001
0011
0010
0100
1000
1010
0010
,
0100
0001
1001
1000
0001
0010
0110
0100
,
1000
0001
0101
0100
0010
0001
0011
0010
,
1010
0000
1001
0001
1000
0100
0110
0010
,
0001
1000
1010
0010
0100
0001
0011
0010
,
0100
1000
1001
0001
1000
0010
0110
0100
,
0001
1000
1100
0100
0010
1000
1010
0010
,
0011
0000
1001
0001
0100
0001
0011
0010
,
0100
1000
1001
0001
0010
0001
0101
0100
,
0010
1000
1010
0010
0100
0001
0011
1000
,
0100
0010
0110
0100
0001
0100
1100
1000
,
1010
0000
1001
0001
0010
0001
0101
0100
,
0010
1000
1001
0001
0100
0001
0011
0010
,
0100
0000
1000
0000
0010
0000
0100
0010
1000
0000
0100
1000
0000
0001
0100
0000
,
0010
1000
0000
0001
0010
0000
0100
1000
0000
0001
0010
0000
0100
0000
0000
0000
,
1100
0000
0101
0100
0010
1000
1100
1000
,
0001
0100
0110
1000
0100
0010
0011
0001
,
2000
0100
3001
0200
0010
0301
1001
1000
,
0002
0100
1003
0200
0010
0301
0101
0100
,
1100
0000
0101
0100
0010
1000
1100
1000
,
0001
0100
0110
1000
0100
0010
0011
0001
,
2000
0010
3001
0020
0100
0031
2000
0100
,
3001
0200
0010
0301
0020
1000
0130
1000
,
1001
0002
0100
1003
0002
0010
0103
0002
,
1000
0103
0002
0010
1003
0010
1010
0000
,
0002
0100
1003
0002
0010
1003
0020
0100
,
1030
0200
0010
1300
0020
0001
0130
0001
,
0102
0100
1003
0200
0010
1300
0020
0100
,
1030
0002
0010
0103
0020
0001
1030
0000
,
2001
0001
3010
0210
0010
0301
0021
0001
,
0130
0000
2000
0000
0010
0000
3100
0000
0010
0000
1000
0010
0001
0000
0000
0000
,
1001
0000
0000
0110
0000
0000
1001
0000
0000
0000
1000
0000
1010
0000
0010
0100
,
0010
0000
1000
0000
0100
0000
0010
0001
0010
0000
0001
0000
0100
0000
0000
0000
,
0110
0000
0000
1001
0000
0000
0110
0000
0000
0000
0001
0000
0011
0000
0010
0100
,
0010
0000
0001
0000
0100
0000
0010
1000
0010
0000
1000
0000
0100
0000
0010
0000
,
0011
0000
0000
1001
0000
0000
1010
0000
0000
0000
1000
0000
1100
0000
0100
0010
,
0100
0000
1000
0000
0010
0000
0100
0001
0100
0000
0001
0000
0010
0000
0000
0000
,
0110
0000
0000
1100
0000
0000
1001
0000
0000
0000
0001
0000
0101
0000
0100
0010
,
0100
0000
0001
0000
0010
0000
0100
1000
0100
0000
0010
0000
1000
0000
0010
0000
,
0011
0000
0000
0101
0000
0000
1001
0000
0000
0000
0001
0000
0101
0000
0100
0010
,
1000
0000
0001
0000
0100
0000
0001
1000
0100
0000
1000
0000
0010
0000
0100
0000
,
0110
0000
0000
0101
0000
0000
0011
0000
0000
0000
1000
0000
1010
0000
0010
1000
,
0001
0000
1000
0000
0010
0000
0100
0001
0100
0000
0001
0000
0010
0000
0100
0000
,
1100
0000
0000
0101
0000
0000
0011
0000
0000
0000
0001
0000
1001
0000
1000
0010
,
0100
0000
0001
0000
0010
0000
0001
0010
0100
0000
1000
0000
0010
0000
0100
0000
,
0110
0000
0000
0101
0000
0000
1001
0000
0000
1100
0000
0000
0110
0000
0011
0000
,
1001
0000
0000
1010
0000
0000
0110
0000
0000
0101
0000
0000
1001
0000
0110
0000
,
2001
0000
0000
0000
,
0000
0000
0000
0000
,
3001
0010
0100
1000
0001
0000
0100
0010
,
1000
0001
0010
0000
0001
0100
0001
0000
,
1000
0010
0100
0001
0010
0000
0100
0010
,
0100
1000
0010
0000
1000
0100
1000
0000
,
0001
0100
0010
1000
0100
0000
0010
0100
,
1000
0001
0100
0000
0001
0010
0001
0000
,
1001
0001
0010
0001
0010
0001
1000
0010
,
0100
0001
1000
0100
0010
0001
0010
0001
,
0100
0010
0100
0010
1000
0001
0010
0100
,
1000
0001
0100
0010
1000
0010
0001
0010
,
1000
0001
0100
0001
0100
0001
1000
0100
,
0010
0001
1000
0010
0100
0001
0100
0001
,
0010
0100
0010
0100
1000
0001
0100
0010
,
1000
0001
0010
0100
1000
0100
0001
0100
,
1100
0000
1000
0000
0100
0000
1000
0001
0100
0000
0001
0000
1000
0010
0100
0000
,
0001
1000
0100
0000
1000
0000
0100
0010
0001
0000
1000
0000
0010
0000
1000
0000
,
0100
0010
0001
0000
0100
0000
0010
1000
0001
0000
1000
0000
0100
0010
0001
0000
,
1000
0010
0100
0000
0001
0000
0010
0001
1000
0000
0010
0000
0001
0010
0100
0000
,
0001
1000
0100
0000
1000
0001
0100
0000
0001
1000
0100
0000
1000
0001
0100
0000
,
0001
1000
0010
0000
1000
0001
0010
0000
0001
1000
0010
0000
1000
0001
0010
0000
,
0100
1000
0010
0000
0100
0001
0010
0000
0100
1000
0010
0000
0100
0001
0010
0000
,
0200
0000
0000
1300
0001
0100
1000
0100
,
0102
0000
0003
0000
;
