#VERSION:0.83;
#TITLE:Reach Out To The Truth;
#SUBTITLE:(Dancing on PERSONA STAGE);
#ARTIST:Shihoko Hirata;
#TITLETRANSLIT:;
#SUBTITLETRANSLIT:;
#ARTISTTRANSLIT:;
#GENRE:;
#CREDIT:;
#MUSIC:Reach Out To The Truth.ogg;
#BANNER:Reach Out To The Truth.png;
#BACKGROUND:Reach Out To The Truth-bg.png;
#CDTITLE:;
#SAMPLESTART:52.443;
#SAMPLELENGTH:13.412;
#SELECTABLE:YES;
#OFFSET:-1.619;
#BPMS:0.000=170.000;
#STOPS:;
#JACKET:Reach Out To The Truth-jacket.png;
#BGCHANGES:-4.661=Reach Out To The Truth.avi=1.000=1=0=0=StretchNoLoop==CrossFade==;
#FGCHANGES:;

//--------------- dance-single - ----------------
#NOTEDATA:;
#STEPSTYPE:dance-single;
#DESCRIPTION:;
#DIFFICULTY:Beginner;
#METER:2;
#RADARVALUES:0,0,0,0,0;
#CREDIT:Kikoia;
#NOTES:
0000
0000
0000
0000
,
0000
0000
0000
0000
,
0000
0000
0000
0000
,
0000
0000
0000
0000
,
0000
0000
0000
0000
,
0000
0000
0000
0000
,
0000
0000
0000
0000
,
0000
0000
0000
0000
,
1001
0000
0000
0000
,
0000
0000
0000
0000
,
0110
0000
0000
0000
,
0000
0000
0000
0000
,
1001
0000
0000
0000
,
0000
0000
0000
0000
,
1000
0000
0000
0000
,
1000
0000
0000
0000
,
0001
0000
0000
0000
,
0001
0000
0000
0000
,
1000
0000
0000
0000
,
1000
0000
0000
0000
,
0001
0000
0000
0000
,
0110
0000
0000
0000
,
1001
0000
0000
0000
,
0000
0000
0000
0000
,
0100
0000
0000
0000
,
0000
0000
0000
0000
,
0010
0000
0000
0000
,
0000
0000
0000
0000
,
0100
0000
0000
0000
,
0000
0000
0000
0000
,
1001
0000
0000
0000
,
1000
0000
0000
0000
,
1001
0000
0000
0000
,
0001
0000
0000
0000
,
1000
0000
1000
0000
,
1000
0000
0000
0000
,
0001
0000
0001
0000
,
0001
0000
0000
0000
,
1001
0000
0000
0000
,
0001
0000
0000
0000
,
0100
0000
0000
0000
,
0100
0000
0000
0000
,
0001
0000
0000
0000
,
1000
0000
0000
0000
,
1001
0000
0000
0000
,
0000
0000
0000
0000
,
1000
0000
0000
0000
,
1000
0000
0000
0000
,
0100
0000
0000
0000
,
0100
0000
0000
0000
,
1000
0000
0000
0000
,
0001
0000
0000
0000
,
1001
0000
0000
0000
,
0000
0000
0000
0000
,
1000
0000
0000
0000
,
0000
0000
0000
0000
,
0100
0000
0000
0000
,
0000
0000
0000
0000
,
0010
0000
0000
0000
,
0000
0000
0000
0000
,
0001
0000
0000
0000
,
0000
0000
0000
0000
,
1001
0000
0000
0000
,
0000
0000
0000
0000
,
0110
0000
0000
0000
,
0000
0000
0000
0000
,
1001
0000
0000
0000
,
0000
0000
0000
0000
,
0100
0000
0100
0000
,
0100
0000
0000
0000
,
1001
0000
0000
0000
,
0001
0000
0000
0000
,
0001
0000
0000
0000
,
0100
0000
0000
0000
,
0001
0000
0000
0000
,
1000
0000
0000
0000
,
0001
0000
0000
0000
,
1001
0000
0000
0000
,
1000
0000
0000
0000
,
1000
0000
0000
0000
,
0100
0000
0000
0000
,
0100
0000
0000
0000
,
1000
0000
0000
0000
,
0010
0000
0000
0000
,
0110
0000
0000
0000
,
0000
0000
0000
0000
,
1001
0000
0000
0000
;

//--------------- dance-single - ----------------
#NOTEDATA:;
#STEPSTYPE:dance-single;
#DESCRIPTION:;
#DIFFICULTY:Easy;
#METER:5;
#RADARVALUES:0,0,0,0,0;
#CREDIT:Kikoia;
#NOTES:
0000
0000
0000
0000
,
0000
0000
0000
0000
,
0000
0000
0000
0000
,
0000
0000
0000
0000
,
0000
0000
0000
0000
,
0000
0000
0000
0000
,
0000
0000
0000
0000
,
0000
0000
0000
0000
,
2002
0000
3003
0000
,
0220
0000
0000
0330
0000
0000
0000
0000
,
2002
0000
0000
0000
,
3003
0000
0000
0000
,
1000
1000
1000
0000
,
0001
0001
0002
0103
,
0101
0000
1000
0100
,
1100
0000
0001
0010
,
0011
0000
1000
0020
,
0100
0100
0200
0330
,
0110
0000
0000
0000
,
1001
0000
0000
0000
,
0110
0000
0000
0000
,
0010
0010
0020
0030
,
1001
0000
1000
0001
,
0000
0000
0001
0100
,
0000
0000
0010
1000
,
0000
1000
0001
0001
,
0000
0000
0001
0010
,
0000
0000
0100
1000
,
0000
0000
0001
2000
,
0001
0001
0002
3003
,
1001
0000
0000
0000
,
1100
0000
0000
0000
,
0101
0000
0000
0000
,
0110
0000
0000
0000
,
1010
0000
0000
0000
,
0011
0000
0000
0000
,
1001
0000
0000
0000
,
0100
0100
0200
0300
,
0220
0000
0330
0000
,
2002
0000
3003
0000
,
2000
0000
3020
0000
,
0230
0000
0302
0000
,
1003
0001
1000
0000
,
0001
1000
0001
0000
,
0010
0010
0100
0100
,
0020
0030
0220
0330
,
1001
0001
1000
0000
,
1001
1000
0001
0000
,
0002
0000
0023
0000
,
0230
0000
2300
0000
,
3001
1000
0001
0000
,
1000
0001
1000
0010
,
0220
0000
0000
0000
,
0330
0000
0000
0000
,
2000
0000
0100
0000
,
0000
0000
3100
0000
,
0002
0000
0100
0000
,
0000
0000
0103
0000
,
2000
0000
0010
0000
,
0000
0000
3010
0000
,
0002
0000
0010
0000
,
0000
0000
0013
0000
,
1000
0001
1000
0000
,
0001
1000
0001
0000
,
1000
0100
1000
0000
,
0100
1000
0100
0000
,
2000
0000
3200
0000
,
0320
0000
0032
0000
,
2000
0000
0000
0000
,
3003
0000
0000
0000
,
1001
0001
1000
0000
,
1000
0001
1000
0000
,
0002
0000
0203
0000
,
0320
0000
2030
0000
,
3100
0010
0100
0000
,
0010
0100
0010
0000
,
0001
0001
1000
1000
,
2002
0000
3003
0000
,
1001
1000
0001
0000
,
1001
0001
1000
0000
,
2000
0000
3020
0000
,
0230
0000
0302
0000
,
0013
0100
0010
0000
,
0100
0010
0100
2000
,
0002
0000
0000
0000
,
3003
0000
0000
0000
,
1000
0100
1000
0000
,
0001
0000
0100
0000
0001
0000
0000
1001
;

//--------------- dance-single - ----------------
#NOTEDATA:;
#STEPSTYPE:dance-single;
#DESCRIPTION:;
#DIFFICULTY:Medium;
#METER:8;
#RADARVALUES:0,0,0,0,0;
#CREDIT:Kikoia;
#NOTES:
0000
0000
0000
0000
,
0000
0000
0000
0000
,
0000
0000
0000
0000
,
0000
0000
0000
0000
,
0000
0000
0000
0000
,
0000
0000
0000
0000
,
0000
0000
0000
0000
,
0000
0000
0000
0000
,
2001
0000
0000
3100
,
1002
0000
0000
0103
,
1000
0100
0000
0100
0000
0100
0000
0020
,
0000
0031
1000
0001
,
1000
0100
1000
0000
0010
0000
0100
0000
,
0001
0010
0001
0000
1000
0000
0010
2000
,
0000
0000
3001
0000
1000
0000
0100
0020
,
0000
0000
0130
0000
1000
0000
0001
0200
,
0000
0000
0310
0000
0100
0000
0001
1000
,
0000
0110
0000
2002
0000
0000
0000
0000
,
3003
0000
0001
0000
1000
0000
0100
0020
,
0000
0000
0031
0000
1000
0000
0010
0200
,
0000
0000
0301
0000
1000
0000
0100
0010
,
0000
0110
0000
0022
0000
0000
0033
0000
,
1000
1000
0010
0100
,
0001
0001
0010
0100
,
1000
0100
0002
0003
,
0001
0100
2000
3000
,
0001
0100
0010
1000
,
0100
0010
0001
1000
,
0001
0100
2000
3000
,
1000
0000
0100
0000
0002
0000
1003
1100
,
0000
0000
1000
0000
0001
0000
0100
0101
,
0000
0000
0001
0000
1000
0000
0100
0110
,
0000
0000
0100
0000
1000
0000
0010
0110
,
0000
0100
0000
2002
0000
0000
3003
0000
,
1000
0100
0001
0100
,
1000
0010
0001
0010
,
1000
1000
0001
0001
,
2002
0000
3003
0100
,
0120
0000
0000
0130
0000
0000
0001
0000
,
1002
0000
0000
1003
0000
0000
1000
0000
,
0100
0010
0000
0100
0000
1000
0000
0002
,
0000
0000
0000
1000
,
1003
0001
1000
0000
0100
0000
0010
0000
,
0001
0100
0001
0000
1000
0000
0010
0000
,
2000
3100
0200
0310
,
0020
0031
2002
3003
,
1000
0000
0100
0010
0100
0000
1000
0000
,
0001
0000
0100
0010
0100
0000
0001
0000
,
0010
0000
0010
0100
0000
0100
0000
0220
,
0000
0000
0330
1001
,
0001
0000
1000
0010
1000
0000
0010
0000
,
0100
0000
0100
0000
0001
1000
0000
1001
,
0000
0000
0000
0000
,
0000
0000
0000
0000
,
1000
0100
0010
0100
,
1000
0010
0100
0010
,
1000
1000
0100
0100
,
0010
0010
0001
0001
,
0100
0010
0100
0001
,
0010
0100
0010
0001
,
1000
1000
0010
0010
,
0100
0100
0002
0003
,
1000
0010
2020
3030
,
0001
0010
0022
0033
,
1000
0000
0100
0001
0000
0001
0000
0200
,
0000
1300
0001
0100
,
0010
1000
0010
0000
0100
0000
0001
0000
,
0010
0001
0010
0000
0100
0000
1000
0000
,
0002
0000
0003
2002
0000
3003
2000
0000
,
3000
2002
0000
3003
0001
0100
0001
0000
,
2001
0100
0200
3300
,
1002
0100
0200
0303
,
1000
1000
0000
0100
0000
0010
0000
0022
,
0000
0000
0000
0033
,
0001
1000
0001
0000
0100
0000
0010
0000
,
1000
0100
1000
0000
0001
0010
0001
0000
,
0002
0103
0200
0310
,
0020
1030
2002
3003
,
0001
0000
0010
0100
0010
0000
0001
0000
,
1000
0000
0010
0100
0010
0000
1000
0000
,
0100
0000
0100
0010
0000
0001
0000
2002
,
0000
0000
3003
1001
,
1000
0000
0001
0010
0001
0000
0010
0000
,
0100
0000
0100
0000
1000
0001
0000
2002
,
0000
0000
0000
0000
,
3003
0000
0000
0000
,
2000
3100
0002
0103
,
2000
0000
0010
0000
3001
1000
0001
1001
;

//--------------- dance-single - ----------------
#NOTEDATA:;
#STEPSTYPE:dance-single;
#DESCRIPTION:;
#DIFFICULTY:Hard;
#METER:11;
#RADARVALUES:0,0,0,0,0;
#CREDIT:Kikoia;
#NOTES:
0000
0000
0000
0000
,
0000
0000
0000
0000
,
0000
0000
0000
0000
,
0000
0000
0000
0000
,
0000
0000
0000
0000
,
0000
0000
0000
0000
,
0000
0000
0000
0000
,
0000
0000
0000
0000
,
2020
0000
3030
0000
,
0022
0000
0033
0000
,
2001
0000
0000
0100
0000
0100
0000
0002
,
0000
0000
0000
3003
,
1000
0100
1000
0100
0010
0000
0001
0100
,
0020
0000
2030
0000
3001
1000
0001
1001
,
0000
1000
0010
0100
0001
0010
0001
2000
,
0000
3001
0100
0100
0010
0010
1000
0002
,
0000
0013
0100
0010
0100
1000
0001
2000
,
0000
3010
0000
0220
0000
0000
0330
1001
,
0000
0001
0010
0100
1000
0010
1000
0002
,
0000
1003
0100
0100
0010
0010
0001
2000
,
0000
3001
0100
0001
1000
0010
0000
0110
,
0000
1001
0000
2002
0000
0000
3003
0000
,
2000
0000
3002
0000
0103
1000
0200
0000
,
0302
0000
2003
0000
3100
0001
0200
0000
,
1300
0100
1000
0100
0010
0001
0010
0001
,
1000
0010
0100
0000
0110
0000
1001
0000
,
0002
0000
0203
0000
0310
1000
0200
0000
,
0320
0000
0032
0000
0103
0001
0020
0000
,
0130
1000
0100
1000
0001
0100
0001
0100
,
0010
0000
0010
1000
0000
1000
0001
0000
,
1000
0100
1000
0100
0010
0001
1000
0020
,
0000
0130
0001
0100
0001
1000
0001
0020
,
0000
0130
1000
0010
1000
0100
1000
0001
,
0000
0110
0000
2001
0000
3001
0010
0200
,
0000
1300
0010
0100
0000
0110
0000
1001
,
0000
1000
0001
0100
0001
1000
0100
0020
,
0000
0031
0010
0001
1000
0010
0100
0001
,
1000
1000
0001
0001
1000
0001
1001
0000
,
2200
0000
3300
0000
,
0202
0000
0303
0000
,
0120
0000
0000
0100
0000
0130
0000
2002
,
0000
0000
0000
3003
,
0001
0010
0001
0010
0200
0000
1300
0010
,
0100
0001
2001
0000
0010
0000
3100
0000
,
2000
3100
0200
0301
,
0002
0000
0013
0000
0020
0000
1030
0001
,
1000
0100
0010
0001
2000
0000
3001
1000
,
0001
0100
0010
1000
0002
0000
1003
0100
,
0010
0100
0010
0001
0000
0110
0000
2001
,
0000
3010
0100
0001
0010
0100
2000
0000
,
3001
0100
0001
1000
0020
0000
0130
0001
,
0020
0000
0230
0000
1300
0001
1000
2002
,
0000
0000
0000
0000
,
3003
0000
0000
0000
,
1000
0100
1000
0100
0001
0100
2000
0000
,
3010
0100
0010
0100
0001
0010
0200
0000
,
2300
0010
3002
0010
,
2003
0100
3002
0100
,
1003
0100
0010
0000
0001
1000
0010
0000
,
0100
0001
0010
0000
0100
1000
0001
0000
,
2000
0100
3010
1010
,
0002
0100
0013
0011
,
2000
0000
0001
0001
0000
0000
0100
0000
,
3002
0000
1000
1000
0000
0000
0100
0000
,
1003
0001
1000
1001
0000
0110
0000
2001
,
0000
3020
0230
0302
,
1003
0100
1000
0020
0000
0130
0001
1000
,
0200
0000
0320
0000
0031
1000
0010
0100
,
1001
0000
1000
1100
0000
0001
0101
0000
,
1000
1010
0000
0001
0011
0010
0200
0000
,
1300
0001
1000
0020
0000
0130
0001
0010
,
0100
1000
0100
0020
0000
0031
0100
0010
,
1000
0100
1000
0010
0000
0110
0000
1002
,
0000
2003
3020
0230
,
0301
1000
0100
1000
0020
0000
0130
0001
,
1000
0001
0020
0000
0230
0000
2300
0000
,
3002
0103
0200
1300
,
2000
0000
3010
0000
0020
0000
0031
1000
,
0001
0100
0010
1000
0002
0000
1003
0001
,
1000
0100
0010
0001
2000
0000
3001
0100
,
0010
0100
0010
1000
0000
0110
0000
1002
,
0000
0013
0100
1000
0010
0100
0002
0000
,
1003
0100
1000
0001
0020
0000
0130
1000
,
0020
0000
0230
0000
0301
1000
0001
2002
,
0000
0000
0000
0000
,
3003
0000
0000
0000
0001
0100
0010
2010
,
0000
3001
0100
0001
1000
0100
1000
0001
,
0010
0001
1000
0010
0100
0001
0010
0110
;

//--------------- dance-single - ----------------
#NOTEDATA:;
#STEPSTYPE:dance-single;
#DESCRIPTION:;
#DIFFICULTY:Challenge;
#METER:13;
#RADARVALUES:0,0,0,0,0;
#CREDIT:Kikoia;
#NOTES:
0000
0000
0000
0000
,
0000
0000
0000
0000
,
0000
0000
0000
0000
,
0000
0000
0000
0000
,
0000
0000
0000
0000
,
0000
0000
0000
0000
,
0000
0000
0000
0000
,
0000
0000
0000
0000
,
2001
0000
0000
0010
0000
0000
3100
0000
,
0102
0000
0000
0010
0000
0000
1003
0000
,
2100
0100
0000
3002
0000
0103
0000
0220
,
0000
0000
0330
2001
,
3100
1000
0100
0010
0001
1000
0010
1000
,
1010
0000
0101
0000
1001
0001
1000
2100
,
0000
3001
0010
0100
1000
0010
0100
0201
,
0000
0301
1000
1000
0100
0100
0010
1002
,
0000
1003
0010
0100
0001
0010
0100
0110
,
0000
1100
0000
0101
0000
0010
0100
2001
,
0000
3010
0100
0001
1000
0010
0001
0020
,
0000
1030
0100
0001
0100
1000
0010
0200
,
0000
0301
0010
0100
1000
0010
0100
0101
,
0000
1100
0000
2002
0000
0000
0000
3003
,
1000
0100
0010
0001
1000
0010
0100
0010
,
1000
0001
0010
0100
1000
0001
1000
0100
,
0001
0100
0010
0001
1000
0010
0100
0110
,
0000
0101
0000
1001
0000
0001
0010
0001
,
1000
0100
0010
0001
0100
0010
0100
0001
,
1000
0010
0100
0001
1000
0100
0010
0001
,
1000
0010
0001
0010
0100
0001
0010
0100
,
0000
0000
0110
0000
0000
0000
1001
0000
0000
0000
0001
1000
0001
0000
1002
0000
,
0000
1003
0010
1000
0100
0010
0001
0021
,
0000
0000
0031
0000
0100
0000
0010
0000
1000
0000
0100
0010
0100
0000
1002
0000
,
0000
0013
0100
1000
0010
0100
0001
0101
,
0000
0000
1100
0000
0000
0000
1001
0000
0000
0000
1000
0001
0010
0000
0011
0000
,
0000
0001
0010
1000
0001
0100
1000
0002
,
0000
1003
0100
0001
1000
0010
0001
2000
,
0000
3010
0100
0001
1000
0010
1000
0100
,
0010
0010
0001
0001
1000
0010
0100
0001
,
2001
0000
0000
0010
0000
0000
3100
0000
,
1002
0000
0000
0010
0000
0000
0103
0000
,
2010
0010
0000
3100
0000
1001
0000
0012
,
0000
0010
1000
1003
,
1000
0100
1000
0001
0100
0001
1000
0010
,
1010
1100
0101
0011
,
1001
MMMM
0110
MMMM
,
2001
0000
0000
0000
0010
0000
0000
0000
3100
0000
0000
0000
1000
0001
1000
0001
,
0020
0000
0130
1000
0010
0100
0001
0010
,
0200
0000
1300
0001
0010
0001
1000
0001
,
0100
1000
0100
0010
1000
0001
0010
0021
,
0000
0230
2300
3002
,
0103
0010
1000
0001
1000
0100
0010
0001
,
0011
0000
0102
0000
1000
1003
0000
1001
,
0000
2000
0100
0100
3002
0100
0100
1003
,
0100
0010
0001
1000
0010
0100
1001
0000
,
1200
0001
1300
1100
,
0201
1000
0301
0101
,
1000
0100
0020
0000
0031
0100
0020
0000
,
1030
0010
0100
0001
0010
0100
1000
0000
,
1002
0100
0010
0100
,
2003
0100
0010
3100
,
0201
0010
1000
0010
,
0301
1000
2002
3003
,
1000
0100
0001
0100
1000
0000
1100
0000
,
0001
0100
1000
0100
0001
0000
0101
0000
,
1000
0010
0001
0010
1000
0100
0010
0012
,
0000
2003
3020
0230
,
0301
0101
1000
1100
,
0001
0000
0011
0000
2010
0000
3010
0100
,
0001
1000
0001
0000
1000
0000
0100
0010
0100
0000
1000
0000
0001
0010
0001
0000
,
1000
0000
0010
0100
0010
0000
1000
0000
0001
0010
0001
0010
0200
0000
0000
0000
,
1300
0001
0010
0012
0000
0013
0100
1000
,
0010
0100
0001
2010
0000
3010
0100
0001
,
1000
0010
0001
0110
0000
1010
0000
2001
,
0000
0100
0100
0010
,
3001
0100
1000
0100
0001
1000
0100
0010
,
0001
1000
0100
0001
0100
0010
0100
1000
,
0001
MMMM
0110
MMMM
,
1002
0000
0000
0000
0010
0000
0000
0000
0103
0000
0000
0000
0001
1000
0001
1000
,
0020
0000
0130
0001
0010
0100
1000
0010
,
0100
0100
0001
0020
0000
0031
0100
0100
,
0001
1000
0100
0001
0100
0010
0001
2001
,
0000
3020
0230
0302
,
1003
0100
1000
0001
0100
0001
1000
0010
,
1010
0000
2100
0000
0001
3001
0000
1002
,
0000
2003
0100
0100
3002
0100
0100
1003
,
0100
0010
0001
1000
0010
0100
0001
0012
,
0000
2003
0010
0010
3002
0010
0010
1003
,
0010
0100
0001
0020
0100
0100
0130
1001
;
