#VERSION:0.83;
#TITLE:落暉 ~rakki~;
#SUBTITLE:;
#ARTIST:HOUJIROU;
#TITLETRANSLIT:rakki;
#SUBTITLETRANSLIT:;
#ARTISTTRANSLIT:;
#GENRE:JP-S hardstyle;
#CREDIT:tikal.;
#MUSIC:rakki.ogg;
#BANNER:Rakki.png;
#BACKGROUND:Rakki-bg.png;
#CDTITLE:cdtitle.png;
#SAMPLESTART:83.810;
#SAMPLELENGTH:24.774;
#SELECTABLE:YES;
#OFFSET:-0.197;
#BPMS:0.000=155.000;
#STOPS:;
#SCROLLS:0.000=1.000,
112.000=0.000,
116.000=0.333,
117.000=0.667,
118.000=1.000,
;
#BGCHANGES:;
#FGCHANGES:;

//--------------- dance-single - tikal. ----------------
#NOTEDATA:;
#STEPSTYPE:dance-single;
#DESCRIPTION:tikal.;
#DIFFICULTY:Hard;
#METER:13;
#RADARVALUES:0,0,0,0,0;
#NOTES:
0000
0000
0000
0000
,
0000
0000
0000
0000
,
0000
0000
0000
0000
,
0000
0000
0000
0000
,
1000
0000
1100
0000
,
0001
0000
0000
0000
0101
1000
0000
1000
,
0100
0000
0110
0000
,
0001
0000
0000
0001
1000
0000
1000
0000
0010
0000
0100
0000
0110
0000
0000
0000
,
0001
0001
0010
0010
,
1000
0000
0000
0000
1000
0000
0000
0000
0010
0000
0000
0000
0100
0000
1000
0001
,
1000
1000
0010
0010
,
0001
0000
0000
0000
0001
0000
0000
0000
0010
0000
0000
0000
0100
0000
0001
1000
,
0001
0010
0M00
0010
1000
0100
00M0
0100
,
0001
0100
M000
0100
1000
0010
000M
0010
,
0001
0001
1000
1000
0010
0010
0100
0100
,
0002
0000
0000
0000
,
1000
M000
1000
M000
1003
0000
MMMM
0000
,
0001
0010
0001
0000
1000
0010
2000
0000
,
0001
000M
0001
000M
3001
0000
MMMM
0000
,
1000
0110
0001
0100
,
1010
1010
0011
0011
,
1000
0100
0001
0100
0010
0100
1000
0100
,
1100
1100
0101
0101
,
0001
1000
0001
0000
0210
0000
0000
0000
,
1300
0000
0010
0000
1000
0000
0100
0000
0010
0000
0000
0010
0000
0000
0010
0000
,
0001
0000
0010
0000
0001
0000
0100
0000
0010
0000
0000
0010
0000
0000
0010
0000
,
1000
1000
0001
0001
0010
0010
0100
0100
,
1000
0010
0100
0001
0010
0100
0100
0000
,
2002
0000
0000
0000
,
0000
0000
0000
3003
,
1000
0000
0000
0000
0000
0000
1000
0001
1000
0000
0000
0000
1000
0000
0000
0000
,
2020
0000
0000
0000
0000
0000
0000
0000
0030
0000
0000
0000
0000
0000
3001
0100
,
0001
0000
0010
0100
,
0020
0000
0000
0030
,
0001
0000
0000
0000
0000
0000
0001
1000
0001
0000
0000
0000
0001
0000
0000
0000
,
0022
0000
0000
0000
0000
0000
0000
0000
0030
0000
0000
0000
0000
0000
1003
0100
,
1000
0000
0010
0100
,
0020
0000
0000
0030
,
2002
0000
0000
3003
0000
0000
1000
0010
1000
0000
0000
0000
1100
0000
0000
0000
,
2200
0000
0000
0000
3300
0000
0000
0000
0000
0000
0000
0000
0000
0000
0001
0200
,
0002
0000
0000
0000
0303
0000
0000
0000
0110
0000
0000
0000
1010
0000
0010
1000
,
0200
0000
0000
0300
,
2002
0000
0000
3003
0000
0000
0001
0010
0001
0000
0000
0000
0101
0000
0000
0000
,
0202
0000
0000
0000
0303
0000
0000
0000
0000
0000
0000
0000
0000
0000
1000
0200
,
2000
0000
0000
0000
3300
0000
0000
0000
1001
0000
0000
0000
0011
0000
0010
0001
,
0200
0000
0000
0300
,
0010
1000
0010
0000
1010
0000
1000
0000
,
0001
0010
0001
0000
0011
0000
0010
0001
,
0100
0000
0001
0000
0100
0000
0000
0000
0101
0000
0000
0000
0001
0000
0000
0001
,
1000
0000
1100
0000
0100
0100
0010
0000
,
0001
0001
0010
0010
0200
0000
0301
0100
,
1000
1000
0010
0010
0200
0000
1300
0100
,
0010
1000
0001
0010
0100
1000
0001
0100
,
0020
0000
0000
0030
,
0200
0000
0000
0300
,
2010
0000
0000
0000
0100
0000
0000
0000
0001
0000
0000
0000
3010
0000
0100
0001
,
0200
1000
0320
2030
,
3020
0000
0000
0000
0001
0000
0000
0000
0100
0000
0000
0000
1030
0000
0001
1000
,
0001
0000
0000
0000
0110
0000
1000
0001
1000
0000
0000
0000
0110
0000
0000
0000
,
0012
0000
0000
0000
0100
0000
0000
0000
1000
0000
0000
0000
0013
0000
0100
1000
,
0200
0001
0320
0032
,
0013
0000
0020
0000
1000
0000
0000
0000
0100
0000
0000
0031
1000
0000
0001
1000
,
0020
0000
0000
0130
,
0101
0101
0011
0011
,
1100
1100
1010
1010
,
0110
0000
0000
0000
0110
0000
0000
0000
1001
0000
1000
0000
0001
1000
0001
0000
,
0010
0000
0000
0000
0110
0000
0100
0010
0100
0000
0000
0000
1000
0001
1000
0000
,
1010
0000
0000
0000
0011
0000
0000
0000
1001
0000
0000
0001
1000
0000
0010
0000
,
0100
0100
0001
0001
1000
1000
0100
0010
,
0001
0010
0001
0000
1000
0010
1000
0000
0100
0010
0100
0000
0010
0000
0001
0000
,
0100
0000
0000
0100
0000
0000
0102
0000
0000
0000
1003
0100
1000
0000
1000
0000
,
0100
0000
0000
0100
0000
0000
1200
0000
0000
0000
1300
0010
1000
0000
0001
0000
,
0010
0000
0000
0010
0000
0000
0012
0000
0000
0000
1003
0010
1000
0000
1000
0000
,
0010
0000
1000
0001
0010
0000
0000
0010
0000
0100
0010
0100
0010
0000
0000
0000
,
0100
0000
0100
0000
1000
0000
1000
0000
0001
0000
0100
0000
0010
1000
0010
0000
,
0100
0000
0100
0000
0001
0000
0001
0000
1000
0000
0100
0000
0010
0001
0010
0000
,
0100
0000
0001
0000
0100
0000
1000
0000
0001
0000
0100
0000
0001
1000
0001
1000
,
0001
0010
1000
0100
0001
0000
MMMM
0000
;

//--------------- dance-single - tikal. ----------------
#NOTEDATA:;
#STEPSTYPE:dance-single;
#DESCRIPTION:tikal.;
#DIFFICULTY:Challenge;
#METER:15;
#RADARVALUES:0,0,0,0,0;
#NOTES:
0000
0000
0000
0000
,
0000
0000
0000
0000
,
0000
0000
0000
0000
,
0000
0000
0000
0000
,
1000
0000
0000
0100
1100
0000
0000
0000
,
0001
0000
0000
0100
0101
0001
0000
2000
,
3100
0000
0000
0010
0120
0000
0000
0000
,
0031
1000
0000
1000
0001
0000
0100
0000
0010
1000
0001
0000
1001
0000
0000
0000
,
1000
0010
0000
0200
1000
0000
0010
0000
,
0301
0000
0010
0000
0000
0000
0200
0000
0001
0000
0000
0000
0310
0000
0001
1000
,
0001
0010
0000
0200
0001
0000
0010
0000
,
1300
0000
0010
0000
0000
0000
0200
0000
1000
0000
0000
0310
1000
0000
0001
1000
,
0001
0010
0010
0100
1000
0010
0010
0100
,
0001
0000
0010
0M00
0010
0000
1000
0000
0001
0000
0100
00M0
0100
0000
1000
0000
,
0010
0000
0010
0000
0100
0000
0100
0000
0001
0010
0001
0000
1000
0010
1000
0000
,
0200
0000
0000
0000
,
0010
00M0
0010
00M0
0310
0000
MMMM
0000
,
0001
0010
0100
0000
1000
0010
0100
0000
,
0001
0100
0000
0000
0100
0010
0000
0000
0010
1000
0100
0000
0110
0000
0000
0000
,
0001
0000
0000
0010
0100
1000
0000
0000
0020
0000
0000
0000
0130
0000
0000
0000
,
0110
1001
0101
1100
,
0001
0000
0010
0000
1000
0000
0010
0000
0001
0000
0010
0000
0100
0000
1000
0001
,
1000
1001
1010
0011
,
0110
0000
0100
0000
0100
0000
0000
0000
1001
0000
0000
0000
1000
0001
1000
0001
,
1000
0000
0100
0000
1000
0000
0010
0000
0100
0000
0000
0010
0100
0000
0100
0000
,
0001
0000
0100
0000
0001
0000
0010
0000
0100
0000
0000
0010
0100
0000
1000
0001
,
1000
1000
0001
0001
0100
0100
0010
0010
,
1000
0100
1000
0000
0001
0100
0001
0000
0010
0000
0100
0000
0100
0000
0000
0000
,
2002
0000
0000
0000
,
0000
0000
0000
3003
,
1000
0000
0000
0000
0000
0000
1000
0001
1000
0000
0000
0000
1000
0000
0000
0000
,
2200
0000
0000
0000
0000
0000
0000
0000
0300
0000
0000
0000
0000
0000
3001
0010
,
0001
0000
0100
0010
,
0200
0000
0000
0300
,
0001
0000
0000
0000
0000
0000
0001
1000
0001
0000
0000
0000
0001
0000
0000
0000
,
0202
0000
0000
0000
0000
0000
0000
0000
0300
0000
0000
0000
0000
0000
1003
0010
,
1000
0000
0100
0010
,
0200
0000
0000
0300
,
2002
0000
0000
3003
0000
0000
1000
0100
1000
0000
0000
0000
1010
0000
0000
0000
,
2020
0000
0000
0000
3030
0000
0000
0000
0000
0000
0000
0000
0000
0000
0001
0020
,
0002
0000
0000
0000
0033
0000
0000
0000
0110
0000
0000
0000
1100
0000
1000
0010
,
0200
1000
0010
0301
,
2002
0000
0000
3003
0000
0000
0001
0100
0001
0000
0000
0000
0011
0000
0000
0000
,
0022
0000
0000
0000
0033
0000
0000
0000
0000
0000
0000
0000
0000
0000
1000
0020
,
2000
0000
0000
0000
3030
0000
0000
0000
1001
0000
0000
0000
0101
0000
0100
0002
,
2000
0000
0000
3003
,
1000
0000
0100
000M
0100
0000
0010
0000
1000
0000
0000
0000
0001
0000
0100
M000
,
0100
0010
0010
0100
1000
0000
0001
1000
,
0001
0000
0100
00M0
0200
0000
0000
0000
1000
0000
0000
0000
0310
0000
0001
0000
,
0100
0000
0000
0000
0100
0000
0001
0000
1000
0000
0010
0M00
0010
0000
0000
0000
,
0001
0010
0001
0000
1000
0010
1000
0000
0100
0000
0000
0100
0010
0000
0100
0000
,
1000
0010
1000
0000
0001
0010
0001
0000
0100
0000
0000
0100
0010
1000
0001
0000
,
1000
0100
0010
0000
0001
0100
0010
0000
1000
0001
1000
0001
0010
0100
0010
0100
,
1000
0010
0001
0100
1000
0000
MMMM
0000
,
2002
0000
0000
3003
,
0101
0101
0011
0011
,
1100
1100
1010
1010
,
0110
0000
0000
0000
0110
0000
0000
0000
1001
0000
0000
0000
1001
0000
0001
1000
,
0001
0000
0000
0000
0110
0000
0100
0010
0100
0000
0000
0000
1001
0000
0000
0000
,
1010
1010
1100
1100
,
0011
0011
0101
0101
,
0110
0000
0010
0000
0110
0000
0000
0000
1001
0000
0000
1000
0001
0000
0010
0100
,
0020
0000
0000
0130
,
1100
0000
0000
0000
1010
0000
0000
0000
0011
0000
0000
0000
0101
0000
0100
0010
,
0100
0000
0000
0000
0101
0000
0000
0000
0011
0000
0000
0000
1010
0000
0010
1000
,
0100
0000
0000
0000
1100
0000
0000
0000
0110
0000
0010
0000
0001
1000
0001
0010
,
0100
0000
0000
0000
0110
0000
0010
0001
1000
0000
0000
0000
0001
1000
0010
0000
,
0110
0000
0000
0000
0101
0000
0000
0000
1100
0000
0000
0100
1000
0010
0100
0001
,
0010
0010
0100
0100
1000
1000
0001
0001
,
1000
0010
1000
0001
1000
0100
0010
0001
0200
0000
0310
1000
0100
00M0
0100
0001
,
1000
0000
0000
1010
0000
0000
2010
0000
0000
3001
0010
0001
0010
0000
0010
0000
,
0100
0000
0000
1100
0000
0000
1200
0000
0000
0310
0001
0010
0001
0000
1000
0000
,
0001
0000
0000
0011
0000
0000
0012
0000
0000
1003
0010
1000
0010
0000
0010
0000
,
0200
0000
0001
1000
0000
0000
1300
0001
0000
0100
0010
0100
0020
0000
0000
0000
,
1030
0000
1000
0100
0010
0000
0010
0001
0100
00M0
0100
1000
0001
1000
0010
1000
,
0001
0000
0001
0010
0100
M000
0100
0001
1000
0001
0010
0100
1000
0001
0100
0000
,
0010
1000
0100
0000
0010
0001
0100
0000
0010
1000
0001
1000
0100
000M
0100
0000
,
0001
0010
1000
0100
0001
0000
MMMM
0000
;
