#VERSION:0.83;
#TITLE:RUSH E;
#SUBTITLE:;
#ARTIST:Sheet Music Boss;
#TITLETRANSLIT:;
#SUBTITLETRANSLIT:;
#ARTISTTRANSLIT:;
#GENRE:;
#ORIGIN:;
#CREDIT:as transcribed by blueq;
#BANNER:;
#BACKGROUND:RUSH E-bg.png;
#PREVIEWVID:;
#JACKET:RUSH E-jacket.png;
#CDIMAGE:artworks-HcptLKX5z245zazC-5RTH3w-t500x500.jpg;
#DISCIMAGE:;
#LYRICSPATH:;
#CDTITLE:;
#MUSIC:RUSH E.ogg;
#OFFSET:1.885000;
#SAMPLESTART:45.115002;
#SAMPLELENGTH:13.500000;
#SELECTABLE:YES;
#BPMS:0.000=55.000,
6.000=65.000,
8.000=75.000,
10.000=85.000,
12.000=95.000,
14.000=110.000,
20.000=30.000,
21.000=32.500,
22.000=35.000,
23.000=40.000,
24.000=45.000,
26.000=50.000,
28.000=55.000,
30.000=62.500,
32.000=70.000,
34.000=77.500,
36.000=81.000,
38.000=85.000,
40.000=90.000,
42.000=95.000,
43.958=100.000,
46.000=107.500,
48.000=112.500,
49.000=117.500,
50.000=122.500,
51.000=127.500,
52.000=135.000,
56.000=160.000,
152.000=35.000,
153.000=40.000,
154.000=45.000,
155.000=50.000,
156.000=60.000,
157.000=70.000,
158.000=80.000,
159.000=90.000,
160.000=100.000,
161.000=110.000,
162.000=120.000,
163.000=130.000,
164.000=140.000,
165.000=150.000,
166.000=155.000,
167.000=160.000,
264.000=180.000,
280.083=190.000,
296.000=200.000;
#STOPS:;
#DELAYS:;
#WARPS:;
#TIMESIGNATURES:0.000=4=4;
#TICKCOUNTS:0.000=4;
#COMBOS:0.000=1;
#SPEEDS:0.000=1.000=0.000=0;
#SCROLLS:0.000=0.063,
6.000=0.125,
8.000=0.250,
11.000=0.500,
14.500=1.000,
18.000=2.000,
20.000=1.000,
39.000=1.500,
39.125=1.250,
39.250=1.000,
39.375=0.500,
39.500=0.250,
39.625=1.250,
39.750=1.500,
39.875=2.000,
40.000=1.000,
55.000=1.500,
55.125=1.250,
55.250=1.000,
55.375=0.500,
55.500=0.250,
55.625=1.250,
55.750=1.500,
55.875=2.000,
56.000=1.000,
71.000=1.500,
71.125=1.250,
71.250=1.000,
71.375=0.500,
71.500=0.250,
71.625=1.250,
71.750=1.500,
71.875=2.000,
72.000=1.000,
87.000=1.500,
87.125=1.250,
87.250=1.000,
87.375=0.500,
87.500=0.250,
87.625=1.250,
87.750=1.500,
87.875=2.000,
88.000=1.000,
100.000=0.000,
100.250=2.000,
100.500=0.000,
100.750=2.000,
101.000=0.000,
101.250=2.000,
101.500=0.000,
101.750=2.000,
102.000=1.000,
114.000=0.000,
114.250=2.000,
114.500=0.000,
114.750=2.000,
115.000=0.000,
115.250=2.000,
115.500=0.000,
115.750=2.000,
116.000=0.000,
117.250=2.000,
117.500=0.000,
117.750=2.000,
118.000=1.000,
119.000=2.000,
119.250=1.000,
119.500=0.500,
119.750=1.500,
119.875=2.000,
120.000=1.000,
135.000=1.500,
135.125=1.250,
135.250=1.000,
135.375=0.500,
135.500=0.250,
135.625=1.250,
135.750=1.500,
135.875=2.000,
136.000=1.000,
183.000=1.500,
183.125=1.250,
183.250=1.000,
183.375=0.500,
183.500=0.250,
183.625=1.250,
183.750=1.500,
183.875=2.000,
184.000=1.000,
199.000=2.000,
199.250=1.000,
199.500=0.500,
199.750=1.500,
199.875=2.000,
200.000=1.000,
228.000=0.000,
229.250=2.000,
229.500=0.000,
229.750=2.000,
230.000=1.000,
247.000=1.500,
247.125=1.250,
247.250=1.000,
247.375=0.500,
247.500=0.250,
247.625=1.250,
247.750=1.500,
247.875=2.000,
248.000=1.000,
303.000=10.000;
#FAKES:;
#LABELS:0.000=Song Start;
#BGCHANGES:;
#KEYSOUNDS:;
#ATTACKS:
;

//---------------dance-single - ----------------
#NOTEDATA:;
#CHARTNAME:;
#STEPSTYPE:dance-single;
#DESCRIPTION:;
#CHARTSTYLE:;
#DIFFICULTY:Beginner;
#METER:8;
#RADARVALUES:0.241437,0.406420,0.174371,0.060359,0.063713,252.000000,226.000000,26.000000,9.000000,42.000000,0.000000,0.000000,0.000000,0.000000,0.241437,0.406420,0.174371,0.060359,0.063713,252.000000,226.000000,26.000000,9.000000,42.000000,0.000000,0.000000,0.000000,0.000000;
#CREDIT:;
#NOTES:
0000
0000
0M00
0000
,
0000
0000
0M00
0000
,
0M00
0000
0M00
0000
0M00
0000
0M00
0M00
,
0M00
0000
0M00
0000
0M00
0000
0M00
0000
0M00
0000
0M00
0M00
0M00
0M00
0M00
0M00
,
0M00
0000
0M00
0000
0M00
0000
0M00
0000
0M00
0000
0M00
0000
0M00
0000
0M00
0000
0M00
0M00
0M00
0M00
0M00
0M00
0M00
0M00
0M00
0M00
0M00
0M00
0M00
0M00
0M00
0M00
,
0000
0000
0000
0000
,
1000
0000
1000
0000
,
1000
0001
1000
1000
,
0010
0000
0100
0000
,
0001
1000
0001
0000
,
0001
0000
0001
0000
,
0001
1000
0001
0001
,
0010
0000
0100
0000
,
1000
0001
1000
0000
,
1000
0000
1000
0000
,
1000
0001
1000
1000
,
0100
0000
0010
0000
,
0001
1000
0001
0000
,
0001
0000
0001
0000
,
0001
1000
0001
0001
,
0100
0000
0010
0000
,
1000
0001
1000
0000
,
0100
0000
0100
0000
,
0010
0010
0010
0000
,
0001
0000
1000
0000
,
0001
1000
1001
0000
,
0001
0000
0001
0000
,
0100
0100
0100
0000
,
0010
0000
1000
0001
,
1001
0000
0110
0000
,
1000
1000
1000
0000
,
1000
1000
0001
1001
,
0001
0001
0100
0000
,
0010
0010
1000
1001
,
0001
0001
0001
0000
,
0001
0001
1000
0001
,
0100
0100
0010
0010
,
1000
0001
1001
0000
,
2000
3000
0000
0000
0002
0003
0000
0000
,
0200
0300
0000
0000
0020
0030
0000
0000
,
2000
3000
0000
0000
0002
0003
0000
0000
,
2000
3000
0000
0000
0200
0300
0000
0000
,
1000
1000
1000
1000
,
1000
0001
1000
0100
,
0010
0010
0100
0100
,
0010
0001
1000
1001
,
0001
0001
0001
0001
,
0001
0100
0010
1000
,
0001
0010
0100
1000
,
0001
1000
1001
0000
,
1000
0010
0100
0000
,
0001
0010
0100
0000
,
1000
0001
1000
0000
,
0010
0100
0110
0000
,
0001
0100
0010
0000
,
1000
0100
0010
0000
,
0001
1000
0010
0100
,
0110
0000
1001
0000
,
1000
1000
1000
1000
,
1000
0000
0100
0000
1000
0100
1000
0000
,
1001
0000
0110
0000
,
1001
1000
0001
1001
,
0001
0001
0001
0001
,
0001
0000
0100
0000
0001
0100
0001
0000
,
1000
1000
0010
0010
,
0100
0010
0100
0000
0110
0000
0000
0000
,
0001
0001
0001
0001
,
0001
0000
0100
0000
0010
0100
0010
0000
,
0110
0000
1001
0000
,
0110
0100
0010
1001
,
1000
1000
1000
1000
,
1000
0000
0100
0000
0010
0100
0010
0000
,
0110
0110
0110
0110
,
0001
1000
0001
0000
1001
0000
0000
0000
,
2000
0000
0000
0000
,
3001
1000
0001
1000
0001
0000
1001
0000
;

//---------------dance-single - FS+ BR+ XO BU XMOD 20ths 24ths----------------
#NOTEDATA:;
#CHARTNAME:SEMI SERIOUS MONSTROSITY PLAY AT YOUR OWN RISK;
#STEPSTYPE:dance-single;
#DESCRIPTION:FS+ BR+ XO BU XMOD 20ths 24ths;
#CHARTSTYLE:;
#DIFFICULTY:Challenge;
#METER:20;
#RADARVALUES:1.059642,1.314492,1.140121,0.449342,1.502277,1106.000000,934.000000,170.000000,67.000000,68.000000,10.000000,0.000000,0.000000,0.000000,1.059642,1.314492,1.140121,0.449342,1.502277,1106.000000,934.000000,170.000000,67.000000,68.000000,10.000000,0.000000,0.000000,0.000000;
#CREDIT:;
#NOTES:
// measure 0
0000
0000
0M00
0000
,  // measure 1
0000
0000
0M00
0000
,  // measure 2
0M00
0000
0M00
0000
0M00
0000
0M00
0M00
,  // measure 3
0M00
0000
0M00
0000
0M00
0000
0M00
0000
0M00
0000
0M00
0M00
0M00
0M00
0M00
0M00
,  // measure 4
0M00
0000
0M00
0000
0M00
0000
0M00
0000
0M00
0000
0M00
0000
0M00
0000
0M00
0000
0M00
0M00
0M00
0M00
0M00
0M00
0M00
0M00
0M00
0M00
0M00
0M00
0M00
0M00
0M00
0M00
,  // measure 5
2000
0000
0000
0000
0000
0000
0000
0000
0000
0000
0000
0000
3000
0000
0000
0000
0000
0000
0000
0000
0000
0000
0000
0000
0101
0000
0000
0000
0000
0000
0000
0000
0000
0000
0000
0000
0000
0000
0000
0000
0000
0000
0000
0000
0000
0000
0000
0000
0010
0000
0000
0000
0000
0000
0000
0000
0000
0000
0000
0000
0000
0000
0000
0000
0000
0000
0000
0000
0000
0000
0000
0000
1001
0000
0000
0000
0000
0000
0000
0000
0000
0000
0000
0000
0000
0000
0000
0000
0000
0000
1000
0000
0100
0000
0010
0000
0002
0000
0000
0000
0000
0000
0000
0000
0000
0000
0000
0000
0003
0000
0000
0000
0000
0000
0000
0000
0000
0000
0000
0000
1100
0000
0000
0000
0000
0000
0000
0000
0000
0000
0000
0000
0000
0000
0000
0000
0000
0000
0000
0000
0000
0000
0000
0000
0010
0000
0000
0000
0000
0000
0000
0000
0000
0000
0000
0000
0000
0000
0000
0000
0000
0000
0000
0000
0000
0000
0000
0000
2001
0000
0000
0000
0000
0000
0000
0000
0000
0000
0000
0000
0000
0000
0000
0000
0000
0000
0000
0000
0000
0000
0000
0000
,  // measure 6
3100
00M0
0100
0000
0100
0000
0100
0000
0100
0000
0100
0000
0100
0000
0100
0000
0100
0000
0100
0000
0100
0000
0100
0000
0100
0000
0100
0000
0100
0000
0100
0000
,  // measure 7
0100
0100
0100
0100
0200
0320
0230
2300
3010
0000
0100
0000
0002
0000
1003
0000
,  // measure 8
0001
0001
0001
0001
0001
0010
0100
1000
0010
0010
0010
0010
0010
0100
0001
0010
,  // measure 9
0100
0000
0000
0100
0000
0000
0100
0000
0000
0100
0000
0000
1000
0000
0000
0000
0000
0000
0001
0000
0000
0000
0000
0000
0110
0000
0000
0000
0000
0000
0000
0000
0000
0000
0000
0000
1002
0000
0000
0000
0000
0000
0003
0000
0000
0000
1000
0010
,  // measure 10
0100
0100
0100
0100
0100
0100
0100
0100
0100
0100
0100
0100
0100
0100
0100
0100
,  // measure 11
0100
0001
0100
0010
0100
0000
0001
0010
0100
0000
1000
0000
0002
0000
1003
0000
,  // measure 12
0001
0010
0100
1000
0001
0100
1000
0100
0010
1000
0001
0010
0100
0001
0100
1000
,  // measure 13
0001
0000
0000
0100
0000
0000
0010
0000
0000
1000
0000
0000
0100
0000
0000
0001
0000
0000
0100
0000
0000
1000
0000
0000
0001
0000
0000
0000
0000
0000
0000
0000
0000
0000
0000
0000
1002
0000
0000
0000
0000
0000
0000
0000
0000
0003
1000
0001
,  // measure 14
0100
0100
0100
0100
0100
0100
0100
0100
0100
0100
0100
0100
0100
0100
0100
0100
,  // measure 15
0100
0100
0100
0100
0200
0320
0230
0302
0013
0000
0100
0000
2000
0000
3001
0000
,  // measure 16
1000
1000
1000
1000
1000
0010
0100
0001
0010
0010
0010
0010
0010
0100
1000
0010
,  // measure 17
0100
0000
0000
0100
0000
0000
0100
0000
0000
0100
0000
0000
0001
0000
0000
0000
0000
0000
1000
0000
0000
0000
0000
0000
0110
0000
0000
0000
0000
0000
0000
0000
0000
0000
0000
0000
2001
0000
0000
0000
0000
0000
3000
0000
0000
0000
0001
0010
,  // measure 18
0100
0100
0100
0100
0100
0100
0100
0100
0100
0100
0100
0100
0100
0100
0100
0100
,  // measure 19
0200
0320
0230
2300
3200
0300
1000
0010
0100
0000
0001
0000
2000
0000
3001
0000
,  // measure 20
1000
0010
0100
0001
1000
0100
0001
0100
0010
0001
1000
0010
0100
1000
0100
0001
,  // measure 21
1000
0000
0000
0000
0000
0000
0000
0000
0000
0000
0000
0000
0100
0000
0000
0000
0000
0000
0000
0000
0000
0000
0000
0000
0010
0000
0000
0000
0000
0000
0000
0000
0000
0000
0000
0000
0001
0000
0000
0000
0000
0000
0000
0000
0000
0000
0000
0000
0100
0000
0000
0000
0000
0000
0000
0000
0000
0000
0000
0000
1000
0000
0000
0000
0000
0000
0000
0000
0000
0000
0000
0000
0100
0000
0000
0000
0000
0000
0000
0000
0000
0000
0000
0000
0001
0000
0000
0000
0000
0000
0000
0000
0000
0000
0000
0000
1000
0000
0000
0000
0000
0000
0000
0000
0000
0000
0000
0000
0000
0000
0000
0000
0000
0000
0000
0000
0000
0000
0000
0000
0000
0000
0000
0000
0000
0000
0000
0000
0000
0000
0000
0000
0000
0000
0000
0000
0000
0000
0000
0000
0000
0000
0000
0000
2001
0000
0000
0000
0000
0000
0000
0000
0000
0000
0000
0000
0000
0000
0000
0000
0000
0000
0000
0000
0000
0000
0000
0000
0000
0000
0000
0000
0000
0000
3000
0000
0000
0000
0000
0000
0000
0000
0000
0000
0001
0000
0000
0000
1000
0000
0000
0000
,  // measure 22
0020
0000
1030
0100
0010
0000
0001
0000
0100
0000
0010
0000
0100
0000
1000
0000
,  // measure 23
0200
0000
0301
0010
0100
0000
0010
0000
0002
0000
0013
0000
0100
0000
1000
0000
,  // measure 24
0002
0000
1003
0001
0100
0000
0010
0000
0001
0000
0010
0000
1000
0000
0001
0000
,  // measure 25
0011
1100
1010
0101
1001
0001
1100
1000
,  // measure 26
0002
0000
1003
0001
0010
0000
0100
0000
0001
0000
0100
0000
0010
0000
0001
0000
,  // measure 27
0200
0000
0310
1000
0100
0000
0010
0000
0002
0000
0010
0000
2003
0000
0100
0000
,  // measure 28
3001
0200
0010
0310
1010
0101
1100
0101
,  // measure 29
1010
0000
0000
0000
0000
0000
0000
0000
0000
0000
0000
0000
0000
0000
0000
0000
0000
0000
0110
0000
0000
0000
0000
0000
1001
0000
0000
0000
0000
0000
0000
0000
0000
0000
0000
0000
2001
0000
0000
0000
0000
0000
0000
0000
3000
0000
0001
1000
,  // measure 30
0100
0100
0100
0100
0100
0100
0100
0100
0100
0100
0100
0100
0100
0100
0100
0100
,  // measure 31
0100
0100
0100
0100
0200
0320
0230
2300
3010
0000
0100
0000
0002
0000
1003
0000
,  // measure 32
0001
0001
0001
0001
0001
0010
0100
1000
0010
0010
0010
0010
0010
0100
0001
0010
,  // measure 33
0100
0000
0000
0100
0000
0000
0100
0000
0000
0100
0000
0000
1000
0000
0000
0000
0000
0000
0001
0000
0000
0000
0000
0000
0110
0000
0000
0000
0000
0000
0000
0000
0000
0000
0000
0000
2001
0000
0000
0000
0000
0000
3000
0000
0000
0000
0001
0010
,  // measure 34
0100
0100
0100
0100
0100
0100
0100
0100
0100
0100
0100
0100
0100
0100
0100
0100
,  // measure 35
0100
0010
0100
1000
0100
0000
1000
0010
0100
0000
0001
0000
2000
0000
3001
0000
,  // measure 36
1000
0010
0001
1000
0100
0010
1000
0100
0001
0100
0010
0001
0100
0010
0100
1000
,  // measure 37
0001
0000
0000
0000
0010
0000
0000
0000
1000
0000
0000
0000
0001
0000
0000
0000
0010
0000
0000
0000
0100
0000
0000
0000
1000
0000
0000
0000
0001
0000
0000
0000
1000
0000
0000
0000
0000
0000
0000
0000
MMMM
M000
M000
M000
M000
M000
M000
M000
MMM0
M000
M000
M000
M000
M000
M000
M000
MMMM
0000
0000
0000
0000
0000
0000
0000
,  // measure 38
2000
3101
0010
0101
2000
3011
0100
0011
,  // measure 39
0002
1013
0100
1010
0002
1103
0010
1100
,  // measure 40
2000
3101
0010
0101
2000
3011
0100
0011
,  // measure 41
0002
1013
0100
1010
0002
1103
0010
1100
,  // measure 42
0101
0100
0101
0100
0101
0100
0101
0100
0101
0100
0101
0100
0101
0100
0101
0100
,  // measure 43
0101
0100
0101
0100
0201
2300
3200
2300
3010
0000
0110
0000
0102
0000
1003
0000
,  // measure 44
0001
0001
0001
0001
0001
0010
0100
1000
0010
0010
0010
0010
0010
0100
0001
0010
,  // measure 45
0100
0000
0000
0100
0000
0000
0100
0000
0000
0100
0000
0000
1000
0000
0000
0000
0000
0000
0001
0000
0000
0000
0000
0000
0110
0000
0000
0000
0000
0000
0000
0000
0000
0000
0000
0000
1002
0000
0000
0000
0000
0000
0003
0000
0000
0000
1000
0010
,  // measure 46
1100
0100
1100
0100
1100
0100
1100
0100
1100
0100
1100
0100
1100
0100
1100
0100
,  // measure 47
1100
0001
0010
0100
0010
0000
0001
0100
0010
0000
1000
0000
0002
0000
1003
0000
,  // measure 48
0101
0010
0100
1000
0101
0010
0100
1000
0011
0100
0010
1000
0011
0100
0010
1000
,  // measure 49
0101
0000
0000
0010
0000
0000
0100
0000
0000
1000
0000
0000
0011
0000
0000
0100
0000
0000
0001
0000
0000
1000
0000
0000
0100
0000
0000
0000
0000
0000
0000
0000
0000
0000
0000
0000
0020
0000
0000
0000
0000
0000
0000
0000
0000
0000
0001
1030
,  // measure 50
0001
0000
0000
0000
0000
0000
0000
0000
0000
0000
0010
0000
0000
0000
0000
0000
0000
0000
0000
0001
0000
0000
0000
0000
0000
0000
0000
0000
0000
0010
0000
0000
0000
0000
0000
0000
0000
0000
0001
0000
0000
0000
0000
0000
0000
0000
0000
0000
1000
0000
0000
0000
0000
0000
0000
0000
0000
0000
0010
0000
0000
0000
0000
0000
0000
0000
0000
1000
0000
0000
0000
0000
0000
0000
0000
0000
0000
0010
0000
0000
0000
0000
0000
0000
0000
0000
1000
0000
0000
0000
0000
0000
0000
0000
0000
0000
0001
0000
0000
0000
0000
0000
0000
0000
0000
0000
0100
0000
0000
0000
0000
0000
0000
0000
0000
0001
0000
0000
0000
0000
0000
0000
0000
0000
0000
0100
0000
0000
0000
0000
0000
0000
0000
0000
0001
0000
0000
0000
0000
0000
0000
0000
0000
0000
1000
0000
0000
0000
0000
0000
0000
0000
0000
0000
0100
0000
0000
0000
0000
0000
0000
0000
0000
1000
0000
0000
0000
0000
0000
0000
0000
0000
0000
0100
0000
0000
0000
0000
0000
0000
0000
0000
1000
0000
0000
0000
0000
0000
0000
0000
0000
0000
,  // measure 51
0001
0000
0000
0000
0000
0000
0000
0000
0000
0000
0010
0000
0000
0000
0000
0000
0000
0000
0000
0100
0000
0000
0000
0000
0000
0000
0000
0000
0000
0010
0000
0000
0000
0000
0000
0000
0000
0000
0001
0000
0000
0000
0000
0000
0000
0000
0000
0000
1000
0000
0000
0000
0000
0000
0000
0000
0000
0000
0010
0000
0000
0000
0000
0000
0000
0000
0000
0100
0000
0000
0000
0000
0000
0000
0000
0000
0000
0010
0000
0000
0000
0000
0000
0000
0000
0000
1000
0000
0000
0000
0000
0000
0000
0000
0000
0000
0001
0000
0000
0000
0000
0000
0000
0000
0000
0000
0100
0000
0000
0000
0000
0000
0000
0000
0000
0010
0000
0000
0000
0000
0000
0000
0000
0000
0000
0100
0000
0000
0000
0000
0000
0000
0000
0000
0001
0000
0000
0000
0000
0000
0000
0000
0000
0000
1000
0000
0000
0000
0000
0000
0000
0000
0000
0000
0100
0000
0000
0000
0000
0000
0000
0000
0000
0010
0000
0000
0000
0000
0000
0000
0000
0000
0000
0100
0000
0000
0000
0000
0000
0000
0000
0000
1000
0000
0000
0000
0000
0000
0000
0000
0000
0000
,  // measure 52
0001
0000
0000
0000
0000
0000
0000
0000
0000
0000
0100
0000
0000
0000
0000
0000
0000
0000
0000
0010
0000
0000
0000
0000
0000
0000
0000
0000
0000
1000
0000
0000
0000
0000
0000
0000
0000
0000
0001
0000
0000
0000
0000
0000
0000
0000
0000
0000
1000
0000
0000
0000
0000
0000
0000
0000
0000
0000
0100
0000
0000
0000
0000
0000
0000
0000
0000
0010
0000
0000
0000
0000
0000
0000
0000
0000
0000
0001
0000
0000
0000
0000
0000
0000
0000
0000
1000
0000
0000
0000
0000
0000
0000
0000
0000
0000
0001
0000
0000
0000
0000
0000
0000
0000
0000
0000
0010
0000
0000
0000
0000
0000
0000
0000
0000
0100
0000
0000
0000
0000
0000
0000
0000
0000
0000
1000
0000
0000
0000
0000
0000
0000
0000
0000
0001
0000
0000
0000
0000
0000
0000
0000
0000
0000
1000
0000
0000
0000
0000
0000
0000
0000
0000
0000
0010
0000
0000
0000
0000
0000
0000
0000
0000
0100
0000
0000
0000
0000
0000
0000
0000
0000
0000
0001
0000
0000
0000
0000
0000
0000
0000
0000
1000
0000
0000
0000
0000
0000
0000
0000
0000
0000
,  // measure 53
1100
0101
1100
0110
0011
1000
1010
1000
,  // measure 54
0001
0100
0001
0100
0001
0100
0010
0100
0010
0100
0010
0100
0001
0100
0001
0100
0001
0100
0010
0100
0010
0100
0010
0100
,  // measure 55
0001
1000
0001
1000
0001
1000
0001
0100
0001
0100
0001
0100
0001
1000
0001
1000
0001
1000
0001
0100
0001
0100
0001
0100
,  // measure 56
0010
1000
0010
1000
0010
1000
0001
0010
0001
0010
0001
0010
0100
1000
0100
1000
0100
1000
0001
0100
0001
0100
0001
0100
,  // measure 57
0010
0000
0000
0000
0000
0000
0000
0000
0000
1010
0000
0000
0101
0000
0000
0000
0011
0000
0000
0000
1100
0000
0000
0000
,  // measure 58
0101
1010
0101
1010
0101
1010
0101
1010
0101
1010
0101
1010
0101
1010
0101
1010
,  // measure 59
0101
0100
0100
0100
0100
0010
0100
1000
0010
0000
0110
0000
0102
0000
1003
0000
,  // measure 60
0011
1100
0011
1100
0001
0010
0100
1000
0101
1010
0101
1010
0001
0100
0010
1000
,  // measure 61
0011
0000
0000
1100
0000
0000
0011
0000
0000
1100
0000
0000
0010
0000
0000
0000
0000
0000
1000
0000
0000
0000
0000
0000
0001
0000
0000
0000
0000
0000
0000
0000
0000
0000
0000
0000
1000
0000
0000
0000
0000
0000
0000
0000
0000
0000
0001
1000
,  // measure 62
0011
1100
0011
1100
0011
1100
0011
1100
0011
1100
0011
1100
0011
1100
0011
1100
,  // measure 63
0010
0100
0010
1000
0100
0000
0010
0001
1010
0000
0011
0000
2100
0000
0000
0000
,  // measure 64
3011
0100
0001
0100
0011
1000
0001
1000
0101
1000
0100
1000
0101
0010
0100
0010
,  // measure 65
0101
0000
0000
1010
0000
0000
0101
0000
0000
1010
0000
0000
0101
0000
0000
1010
0000
0000
0101
0000
0000
1010
0000
0000
0101
0000
0000
0000
0000
0000
0000
0000
0000
0000
0000
0000
0001
0000
1000
0000
0001
0000
1000
0000
0001
0000
1000
0000
,  // measure 66
0101
0100
0101
0100
0101
0100
0101
0100
0101
0100
0101
0100
0101
0100
0101
0100
,  // measure 67
0100
0100
0100
0100
0100
0010
0100
1000
0101
0000
1100
0000
2002
0000
3003
0000
,  // measure 68
0001
0001
0001
0001
0001
0010
0100
1000
0010
0010
0010
0010
0010
1000
0001
0010
,  // measure 69
0100
0000
0000
0100
0000
0000
0100
0000
0000
0100
0000
0000
1000
0000
0000
0000
0000
0000
0001
0000
0000
0000
0000
0000
0110
0000
0000
0000
0000
0000
0000
0000
0000
0000
0000
0000
1000
0000
0001
0000
1000
0000
0001
0000
1000
0000
0001
0000
,  // measure 70
1100
0100
1100
0100
1100
0100
1100
0100
1100
0100
1100
0100
1100
0100
1100
0100
,  // measure 71
0100
0010
0100
0001
0010
0000
0100
1000
0010
0000
0110
0000
2002
0000
3003
0000
,  // measure 72
0001
0010
0100
0001
0100
0010
0001
1000
0010
0100
1000
0100
0010
1000
0010
0100
,  // measure 73
0001
1000
0100
0010
1000
0001
0100
0010
0001
0000
1001
0000
1001
0000
0000
0000
,  // measure 74
1000
0010
0100
1000
0100
0010
1000
0001
0010
0100
0001
0100
0010
0001
0010
0100
,  // measure 75
1000
0001
0100
0010
0001
1000
0100
0010
1000
0000
0000
0000
2222
0000
0000
0000
,  // measure 76
0000
0000
0000
0000
,  // measure 77
0000
0000
0000
0000
,  // measure 78
0000
0000
0000
0000
,  // measure 79
0000
0000
0000
0000
,  // measure 80
3333
0000
0000
0000
;

//---------------dance-single - STR DR JA XO----------------
#NOTEDATA:;
#CHARTNAME:Actually a pretty serious chart, but still memey;
#STEPSTYPE:dance-single;
#DESCRIPTION:STR DR JA XO;
#CHARTSTYLE:;
#DIFFICULTY:Hard;
#METER:18;
#RADARVALUES:0.869941,1.046229,0.335330,0.288384,1.267546,908.000000,856.000000,50.000000,43.000000,78.000000,1.000000,0.000000,0.000000,0.000000,0.869941,1.046229,0.335330,0.288384,1.267546,908.000000,856.000000,50.000000,43.000000,78.000000,1.000000,0.000000,0.000000,0.000000;
#CREDIT:;
#NOTES:
// measure 0
0000
0000
0M00
0000
,  // measure 1
0000
0000
0M00
0000
,  // measure 2
0M00
0000
0M00
0000
0M00
0000
0M00
0M00
,  // measure 3
0M00
0000
0M00
0000
0M00
0000
0M00
0000
0M00
0000
0M00
0M00
0M00
0M00
0M00
0M00
,  // measure 4
0M00
0000
0M00
0000
0M00
0000
0M00
0000
0M00
0000
0M00
0000
0M00
0000
0M00
0000
0M00
0M00
0M00
0M00
0M00
0M00
0M00
0M00
0M00
0M00
0M00
0M00
0M00
0M00
0M00
0M00
,  // measure 5
M000
0000
0000
0000
0000
0000
0000
0000
0000
0000
0000
0000
0000
0000
0000
0000
0000
0000
0000
0000
0000
0000
0000
0000
000M
0000
0000
0000
0000
0000
0000
0000
0000
0000
0000
0000
0000
0000
0000
0000
0000
0000
0000
0000
0000
0000
0000
0000
0M00
0000
0000
0000
0000
0000
0000
0000
0000
0000
0000
0000
0000
0000
0000
0000
0000
0000
0000
0000
0000
0000
0000
0000
000M
0000
0000
0000
0000
0000
0000
0000
0000
0000
0000
0000
0000
0000
0000
0000
0000
0000
M000
0000
0M00
0000
00M0
0000
000M
0000
0000
0000
0000
0000
0000
0000
0000
0000
0000
0000
0000
0000
0000
0000
0000
0000
0000
0000
0000
0000
0000
0000
M000
0000
0000
0000
0000
0000
0000
0000
0000
0000
0000
0000
0000
0000
0000
0000
0000
0000
0000
0000
0000
0000
0000
0000
000M
0000
0000
0000
0000
0000
0000
0000
0000
0000
0000
0000
0000
0000
0000
0000
0000
0000
0000
0000
0000
0000
0000
0000
M000
0000
0000
0000
0000
0000
0000
0000
0000
0000
0000
0000
0000
0000
0000
0000
0000
0000
0000
0000
0000
0000
0000
0000
,  // measure 6
0100
1000
0100
1000
0100
0010
0100
0010
0100
1000
0100
1000
0100
0010
0100
0010
,  // measure 7
0100
1000
0100
1000
0100
0010
0100
1000
0100
0000
0010
0000
0002
0000
1003
0000
,  // measure 8
0001
0100
0001
0100
0001
0100
0010
1000
0001
0010
0001
0010
0001
0010
0100
1000
,  // measure 9
0010
0100
0010
0100
1000
0000
0100
0000
0001
0000
0000
0000
1020
0000
0000
0000
,  // measure 10
0130
0001
0100
0001
0100
0010
0100
0010
0100
0001
0100
0001
0100
0010
0100
0010
,  // measure 11
0100
0001
0100
0010
0100
0000
0001
0010
0100
0000
1000
0000
0002
0000
0103
0000
,  // measure 12
0001
0010
0001
0010
0100
0010
0100
0010
0001
1000
0001
1000
0001
0100
0001
0100
,  // measure 13
0010
1000
0001
0100
0010
1000
0001
0010
0100
0000
0000
0000
2000
0000
0000
0000
,  // measure 14
3010
1000
0010
1000
0010
0100
0010
0100
0010
1000
0010
1000
0010
0100
0010
0100
,  // measure 15
0010
1000
0010
1000
0010
0100
0010
1000
0010
0000
0100
0000
0002
0000
1003
0000
,  // measure 16
0001
0010
0001
0010
0001
0010
0100
1000
0001
0100
0001
0100
0001
0100
0010
1000
,  // measure 17
0100
0010
0100
0010
1000
0000
0010
0000
0001
0000
0000
0000
1200
0000
0000
0000
,  // measure 18
0310
0001
0010
0001
0010
0100
0010
0100
0010
0001
0010
0001
0010
0100
0010
0100
,  // measure 19
0010
0001
0010
0100
0010
0000
0001
0100
0010
0000
1000
0000
0002
0000
0013
0000
,  // measure 20
0001
0100
0001
0100
0010
0100
0010
0100
0001
1000
0001
1000
0001
0010
0001
0010
,  // measure 21
0100
1000
0001
0010
0100
1000
0001
0100
0010
0000
0000
0000
2000
0000
0000
0000
,  // measure 22
3200
0000
0300
1000
0100
0000
0010
0000
0001
0000
0100
0000
0010
0000
0001
0000
,  // measure 23
0020
0000
0000
0130
1000
0000
0100
0000
0002
0000
0000
0000
1003
0000
0001
0000
,  // measure 24
0020
0000
0000
0130
0010
0000
0001
0000
0100
0000
0010
0000
1000
0000
0001
0000
,  // measure 25
0011
1100
1010
0101
1001
0001
0110
0010
,  // measure 26
2001
0000
0000
3010
0100
0000
0010
0000
0001
0000
0010
0000
0100
0000
0001
0000
,  // measure 27
0020
0000
0000
0130
1000
0000
0100
0000
0020
0000
0000
0000
0032
0000
0000
0000
,  // measure 28
0000
2003
0000
3001
0101
1100
0101
0110
,  // measure 29
1010
0000
0000
0110
1001
0000
1100
0000
,  // measure 30
0001
0100
0001
0100
0001
1000
0001
1000
0001
0100
0001
0100
0001
1000
0001
1000
,  // measure 31
0001
0100
0001
0100
0010
0001
0010
0100
0010
0000
1000
0000
0002
0000
0013
0000
,  // measure 32
0001
0100
0001
0100
0010
1000
0001
0010
0100
0010
0100
0010
0001
0100
0010
1000
,  // measure 33
0100
0010
0100
0010
1000
0000
0010
0000
0001
0000
0000
0000
0012
0000
0000
0000
,  // measure 34
1003
0100
1000
0100
1000
0001
1000
0001
1000
0100
1000
0100
1000
0001
1000
0001
,  // measure 35
0100
0010
0100
1000
0100
0000
0010
1000
0100
0000
0010
0000
0002
0000
1003
0000
,  // measure 36
0001
0010
0001
0010
0100
1000
0100
1000
0010
0100
0010
0100
0001
0010
0001
0010
,  // measure 37
0100
0000
0000
0000
1000
0000
0000
0000
0001
0000
0000
0000
0100
0000
0000
0000
0010
0000
0000
0000
1000
0000
0000
0000
0100
0000
0000
0000
0010
0000
0000
0000
0001
0000
0000
0000
0000
0000
0000
0000
MMMM
M000
M000
M000
M000
M000
M000
M000
MMM0
M000
M000
M000
M000
M000
M000
M000
MMMM
0000
0000
0000
0000
0000
0000
0000
,  // measure 38
2000
3001
0100
0001
2000
3001
0100
0001
,  // measure 39
2000
3000
0101
0000
0010
0000
1001
0000
0002
0003
1100
0000
0010
0000
1001
0000
,  // measure 40
2000
3000
0011
0000
0100
0000
1001
0000
0002
0003
1010
0000
0100
0000
1001
0000
,  // measure 41
0002
0003
1100
0000
0010
0000
1001
0000
2000
3000
0101
0000
0010
0000
1001
0000
,  // measure 42
1000
1000
0010
1000
0010
1000
0010
1000
0010
0010
1000
0010
1000
0010
1000
0010
,  // measure 43
1000
1000
0010
1000
0010
0001
0010
0100
0010
0000
1000
0000
0002
0000
0013
0000
,  // measure 44
0001
0001
0100
0001
0100
0010
1000
0001
0010
0010
0100
0010
0001
0100
0010
1000
,  // measure 45
0100
0100
0010
0100
0001
0000
0100
0000
1000
0000
0000
0000
2010
0000
0000
0000
,  // measure 46
3001
0001
0100
0001
0100
0001
0100
0001
0100
0100
0001
0100
0001
0100
0001
0100
,  // measure 47
0010
0001
0010
0100
0010
0000
1000
0100
0010
0000
0001
0000
2000
0000
3001
0000
,  // measure 48
1000
0010
1000
0001
0010
0100
1000
0001
0100
0010
0100
1000
0001
0010
0100
0001
,  // measure 49
1000
0100
0010
0001
0100
0010
0100
0001
1000
0000
0000
0000
2100
0000
0000
0000
,  // measure 50
3001
0100
0010
1000
0001
0010
0100
1000
0001
0100
0010
1000
0001
0010
0100
0000
,  // measure 51
1000
0100
0010
0001
1000
0010
0100
0001
1000
0100
0010
0001
1000
0010
0100
0000
,  // measure 52
0010
1000
0001
0010
0100
1000
0001
0100
0010
1000
0001
0010
0100
1000
0001
0000
,  // measure 53
0101
1100
1010
0110
0101
0001
1100
1000
,  // measure 54
0001
0000
1000
0000
0001
0000
0100
0000
0000
0010
0000
0000
1000
0000
0000
0001
0000
0000
0010
0000
0000
0100
0000
0000
1000
0000
0001
0000
1000
0000
0100
0000
0000
0010
0000
0000
0001
0000
0000
1000
0000
0000
0010
0000
0000
0100
0000
0000
,  // measure 55
0010
0000
1000
0000
0001
0000
0100
0000
0000
0010
0000
0000
1000
0000
0000
0001
0000
0000
0010
0000
0000
0100
0000
0000
0010
0000
0001
0000
1000
0000
0100
0000
0000
0010
0000
0000
0001
0000
0000
1000
0000
0000
0001
0000
0000
0100
0000
0000
,  // measure 56
0010
0000
1000
0000
0001
0000
0010
0000
0000
0100
0000
0000
1000
0000
0000
0001
0000
0000
0100
0000
0000
0010
0000
0000
0100
0000
0001
0000
1000
0000
0100
0000
0000
0010
0000
0000
0001
0000
0010
0000
0100
0000
1000
0000
0100
0000
0010
0000
,  // measure 57
0001
0000
0000
0000
0000
0000
0000
0000
0000
1010
0000
0000
0102
0000
0000
0000
0010
0000
0000
0000
1003
0000
0000
0000
,  // measure 58
0010
0010
1000
0010
1000
0010
1000
0010
1000
1000
0010
1000
0010
1000
0010
1000
,  // measure 59
0010
0010
1000
0010
0100
0001
0100
1000
0100
0000
0001
0000
0020
0000
0100
0000
,  // measure 60
0031
0001
0010
0001
0100
0010
1000
0001
0010
0010
0100
1000
0010
0100
0001
1000
,  // measure 61
0100
0100
0010
0100
0001
0000
0100
0000
1000
0000
0000
0000
0021
0000
0000
0000
,  // measure 62
0031
0001
0100
0001
0100
0001
0100
0001
0100
0100
0001
0100
0001
0100
0001
0100
,  // measure 63
0010
0001
0010
1000
0010
0000
0100
0001
0010
0000
0100
0000
2000
0000
3001
0000
,  // measure 64
1000
0010
1000
0001
0010
0100
1000
0001
0010
0100
0010
1000
0001
0100
0010
1000
,  // measure 65
0001
0100
0010
0001
0100
0010
1000
0100
0010
0000
0000
0000
0021
0000
0000
0000
,  // measure 66
0130
1000
0100
1000
0100
1000
0100
1000
0100
1000
0100
1000
0100
1000
0100
1000
,  // measure 67
0100
1000
0100
1000
0100
0010
0100
1000
0100
0000
0110
0000
0012
0000
1003
0000
,  // measure 68
0001
0100
0001
0100
0010
0001
1000
0100
0010
1000
0010
1000
0100
0010
1000
0001
,  // measure 69
0100
0010
0100
0010
1000
0000
0010
0000
0001
0000
0000
0000
1020
0000
0000
0000
,  // measure 70
0130
0001
0100
0001
0100
0001
0100
0001
0100
0001
0100
0001
0100
0001
0100
0001
,  // measure 71
0100
0010
0100
1000
0100
0000
0010
0100
0001
0000
0011
0000
0220
0000
0330
0000
,  // measure 72
0001
0010
0100
1000
0001
0100
0010
1000
0001
0010
0100
1000
0001
0100
0010
1000
,  // measure 73
0001
0010
0100
1000
0010
0001
1000
0100
0001
0000
1001
0000
1001
0000
0000
0000
,  // measure 74
1000
0010
0100
0001
1000
0100
0010
0001
1000
0010
0100
0001
1000
0100
0010
0001
,  // measure 75
1000
0010
0100
0001
0010
1000
0001
0100
1000
0000
0000
0000
2112
0000
0000
0000
,  // measure 76
0000
0000
0000
0000
,  // measure 77
0000
0000
0000
0000
,  // measure 78
0000
0000
0000
0000
,  // measure 79
0000
0000
0000
0000
,  // measure 80
3003
0000
0000
0000
;

//---------------dance-single - ----------------
#NOTEDATA:;
#CHARTNAME:;
#STEPSTYPE:dance-single;
#DESCRIPTION:;
#CHARTSTYLE:;
#DIFFICULTY:Medium;
#METER:15;
#RADARVALUES:0.612216,0.670659,0.214611,0.268264,0.496288,639.000000,607.000000,32.000000,40.000000,67.000000,0.000000,0.000000,0.000000,0.000000,0.612216,0.670659,0.214611,0.268264,0.496288,639.000000,607.000000,32.000000,40.000000,67.000000,0.000000,0.000000,0.000000,0.000000;
#CREDIT:;
#NOTES:
0000
0000
0M00
0000
,
0000
0000
0M00
0000
,
0M00
0000
0M00
0000
0M00
0000
0M00
0M00
,
0M00
0000
0M00
0000
0M00
0000
0M00
0000
0M00
0000
0M00
0M00
0M00
0M00
0M00
0M00
,
0M00
0000
0M00
0000
0M00
0000
0M00
0000
0M00
0000
0M00
0000
0M00
0000
0M00
0000
0M00
0M00
0M00
0M00
0M00
0M00
0M00
0M00
0M00
0M00
0M00
0M00
0M00
0M00
0M00
0M00
,
0000
0000
0000
0000
,
1000
1000
0100
0100
1000
1000
0100
0100
,
1000
0000
1000
0000
0100
1000
0100
1000
0001
0000
0100
0000
0020
0000
0000
0000
,
1030
0001
1000
0000
0001
0000
0010
0000
0100
0010
0100
0000
0010
0000
0001
0000
,
0100
0010
0100
0000
0010
0000
1000
0000
0100
0000
0000
0000
0020
0000
0000
0000
,
0031
0001
0100
0100
0001
0001
0100
0100
,
0001
0100
0001
0100
0001
0000
1000
0001
0010
0000
0100
0000
2000
0000
0000
0000
,
3001
0100
1000
0100
0001
0010
1000
0010
,
0001
1000
0001
0000
0100
0000
0010
0000
0110
0000
0000
0000
0020
0000
0000
0000
,
1030
1000
0010
0010
1000
1000
0010
0010
,
1000
0000
1000
0000
0010
1000
0010
1000
0001
0000
0010
0000
0200
0000
0000
0000
,
1300
0001
1000
0000
0001
0000
0100
0000
0010
0100
0010
0000
1000
0000
0001
0000
,
0010
0100
0010
0000
0001
0000
1000
0000
0010
0000
0000
0000
0200
0000
0000
0000
,
0301
0001
0010
0010
0001
0001
0010
0010
,
0001
0010
0001
0010
0001
0000
1000
0001
0100
0000
0010
0000
2000
0000
0000
0000
,
3002
0103
2000
3100
0002
0013
2000
3010
,
0001
1000
0001
0000
0100
0000
0010
0000
0110
0000
0000
0000
0000
0000
0000
0000
,
0002
0103
0010
0100
0002
0103
0010
1000
,
0002
0013
0100
0010
0002
0013
0100
1000
,
0020
0130
0010
1000
0200
0310
0100
1000
,
0010
0001
1000
0100
0001
0000
1001
0000
,
1000
0010
0100
0010
1000
0010
0100
0001
,
1000
0100
0010
0100
1000
0100
0010
0001
,
0100
0010
0100
0001
0010
1000
0001
0100
,
2200
0000
3300
1010
1001
0000
0110
0000
,
0001
0100
0001
0000
0100
0000
0001
0000
0100
0001
0100
0000
0001
0000
0100
0000
,
0001
0100
0001
0000
0100
0001
0100
0001
1000
0000
0100
0000
0020
0000
0000
0000
,
0031
1000
0010
0000
0100
0000
0001
0000
1000
0001
0010
0000
0100
0000
0010
0000
,
0001
1000
0010
0000
0100
0000
0001
0000
0101
0000
0000
0000
0002
0000
0000
0000
,
1003
0100
1000
0000
0100
0000
1000
0000
0100
1000
0100
0000
1000
0000
0100
0000
,
1000
0100
1000
0100
1000
0000
0100
0010
0001
0000
1000
0000
0020
0000
0000
0000
,
1030
0001
1000
0000
0100
0000
0010
0000
0001
1000
0001
0000
0100
0000
0010
0000
,
1000
0000
0000
0000
0001
0000
0000
0000
1000
0000
0000
0000
0000
0000
0000
0000
0100
0000
0000
0000
0000
0000
0000
0000
0010
0000
0000
0000
0000
0000
0000
0000
0110
0000
0000
0000
0000
0000
0000
0000
MMMM
M000
M000
M000
M000
M000
M000
M000
MMM0
M000
M000
M000
M000
M000
M000
M000
MMMM
0000
0000
0000
0000
0000
0000
0000
,
0020
0031
1000
0001
0200
0301
1000
0001
,
0020
0030
0011
0000
0000
0000
0011
0000
0000
0000
1100
0000
0000
0000
1100
0000
,
0000
1010
0000
1010
0000
0101
0000
0101
,
0000
0110
0000
0110
0000
1001
0000
1001
,
1000
0010
1000
0000
0010
0000
0010
0000
1000
0010
1000
0000
0010
0000
0010
0000
,
1000
0010
1000
0000
0010
1000
0010
1000
0001
0000
0010
0000
0200
0000
0000
0000
,
1300
0001
0010
0000
0100
0000
0010
0000
0001
1000
0010
0000
0100
0000
0010
0000
,
1000
0100
0010
0000
0001
0000
1000
0000
1001
0000
0000
0000
2000
0000
0000
0000
,
3001
0100
0001
0000
0100
0000
0100
0000
0001
0100
0001
0000
0100
0000
0100
0000
,
0001
0100
0001
0100
0001
0000
1000
0100
0010
0000
0001
0000
2000
0000
0000
0000
,
3001
0100
0001
0000
0100
0010
0100
0000
0010
1000
0010
0000
1000
0001
1000
0000
,
0001
0010
0001
0010
0100
0000
1000
0000
1001
0000
0000
0000
0000
0000
0000
0000
,
0001
0100
1000
0100
0001
0100
1000
0100
,
0001
0010
1000
0010
0001
0010
1000
0010
,
0001
0100
0010
1000
0001
0010
0100
1000
,
0010
0001
1000
0100
0101
0000
1100
0000
,
1000
0100
0001
0100
1000
0100
0001
0100
,
1000
0010
0001
0010
1000
0010
0001
0010
,
1000
0100
0010
0001
0100
1000
0001
0010
,
1010
0000
0000
0000
0000
0000
0000
0000
0000
1100
0000
0000
1001
0000
0000
0000
1000
0000
0000
0000
0001
0000
0000
0000
,
1000
0100
1000
0100
1000
0000
0100
0000
1000
0100
1000
0100
1000
0000
0100
0000
,
1000
0100
1000
0100
0010
0100
0010
0100
0010
0000
0001
0000
2000
0000
0000
0000
,
3001
0100
0001
0100
0001
0000
0100
0000
0010
0100
0010
0100
0010
0000
1000
0000
,
0100
0010
0100
0010
0100
0000
1000
0000
0001
0000
0000
0000
0020
0000
0000
0000
,
0031
0100
0001
0100
0001
0000
0100
0000
0001
0100
0001
0100
0001
0000
0100
0000
,
0001
0100
0001
0100
0001
0000
0100
0010
1000
0000
0100
0000
0020
0000
0000
0000
,
0031
0100
0001
0000
0100
0010
0100
0000
0010
1000
0010
0000
1000
0001
1000
0000
,
0001
0010
0001
0010
0100
0000
1000
0001
1000
0000
0000
0000
1001
0000
0000
0000
,
0001
1000
0001
0000
1000
0001
1000
0000
0001
1000
0001
0000
1000
0001
1000
0000
,
0001
1000
0001
0000
1000
0001
1000
0001
0010
0000
0100
0000
2000
0000
0000
0000
,
3001
0100
0001
0100
0010
0000
1000
0000
0001
0010
0001
0010
0100
0000
1000
0000
,
0001
1000
0001
1000
0010
0000
0100
0000
0110
0000
0000
0000
0002
0000
0000
0000
,
0013
0100
0010
0000
0100
0010
0100
0000
0010
0100
0010
0000
0100
0010
0100
0000
,
0010
0100
0010
0100
0010
0000
0001
1000
0100
0000
0010
0000
0002
0000
0000
0000
,
1003
0010
1000
0000
0010
0100
0010
0000
0100
0001
0100
0000
0001
1000
0001
0000
,
0010
0100
0010
0100
1000
0001
1000
0001
1000
0000
0001
0000
1001
0000
0000
0000
,
0002
0203
0320
2030
,
3001
1000
0001
1000
0001
1000
0001
1000
0001
0000
0000
0000
2002
0000
0000
0000
,
0000
0000
0000
0000
,
0000
0000
0000
0000
,
0000
0000
0000
0000
,
0000
0000
0000
0000
,
3003
0000
0000
0000
;

//---------------dance-single - ----------------
#NOTEDATA:;
#CHARTNAME:;
#STEPSTYPE:dance-single;
#DESCRIPTION:;
#CHARTSTYLE:;
#DIFFICULTY:Easy;
#METER:13;
#RADARVALUES:0.408144,0.456048,0.127425,0.274970,0.110659,426.000000,407.000000,19.000000,41.000000,67.000000,0.000000,0.000000,0.000000,0.000000,0.408144,0.456048,0.127425,0.274970,0.110659,426.000000,407.000000,19.000000,41.000000,67.000000,0.000000,0.000000,0.000000,0.000000;
#CREDIT:;
#NOTES:
0000
0000
0M00
0000
,
0000
0000
0M00
0000
,
0M00
0000
0M00
0000
0M00
0000
0M00
0M00
,
0M00
0000
0M00
0000
0M00
0000
0M00
0000
0M00
0000
0M00
0M00
0M00
0M00
0M00
0M00
,
0M00
0000
0M00
0000
0M00
0000
0M00
0000
0M00
0000
0M00
0000
0M00
0000
0M00
0000
0M00
0M00
0M00
0M00
0M00
0M00
0M00
0M00
0M00
0M00
0M00
0M00
0M00
0M00
0M00
0M00
,
0000
0000
0000
0000
,
1000
1000
1000
1000
,
1000
0000
0100
1000
0100
0010
0002
0000
,
0103
0100
0010
0000
1000
1000
0001
0000
,
0010
0010
0100
0010
0100
0000
2000
0000
,
3001
0001
0001
0001
,
0001
0100
0001
0100
0010
1000
0002
0000
,
1003
1100
0101
0011
,
0001
0001
1000
0001
0010
0000
0200
0000
,
1300
1000
1000
1000
,
1000
0000
0010
1000
0010
0100
0002
0000
,
0013
0010
0100
0000
1000
1000
0001
0000
,
0100
0100
0010
0100
0010
0000
2000
0000
,
3001
0001
0001
0001
,
0001
0010
0001
0010
0100
1000
0002
0000
,
1003
1010
0011
0101
,
0001
0100
1000
0100
0002
0000
1003
0000
,
0002
0000
0103
0001
0100
0010
1000
0000
,
0200
0000
1300
0100
0020
0000
0031
1000
,
0002
0000
1003
0010
0100
0010
1000
0000
,
0001
0100
1000
0100
0001
0000
1001
0000
,
2000
0000
3100
1000
0100
0010
0001
0000
,
0200
0000
0301
0100
0010
0000
2000
0000
,
3001
0020
0000
0130
1000
0100
0001
0100
,
1000
0000
0000
0001
1001
0000
1000
0000
,
0001
0001
0001
0000
0001
0000
0001
0000
,
0001
0001
0100
0001
0100
0010
2000
0000
,
3100
0100
0100
0000
1000
1000
1000
0000
,
0010
0010
1000
0001
0100
0000
0020
0000
,
1030
1000
1000
0000
1000
0000
1000
0000
,
1000
1000
1000
0100
0010
0001
2000
0000
,
3001
0101
1100
1010
,
1000
0000
0000
0000
0000
0000
0000
0000
0010
0000
0000
0000
0000
0000
0000
0000
0001
0000
0000
0000
0000
0000
0000
0000
0010
0000
0000
0000
0000
0000
0000
0000
1000
0000
0000
0000
0000
0000
0000
0000
MMMM
M000
M000
M000
M000
M000
M000
M000
MMM0
M000
M000
M000
M000
M000
M000
M000
MMMM
0000
0000
0000
0000
0000
0000
0000
,
0002
0003
1000
0000
2000
3000
0001
0000
,
0020
0030
0100
0000
0200
0300
0010
0000
,
0200
0300
1000
0000
2000
3000
0100
0000
,
0020
0030
0001
0000
0002
0003
0010
0000
,
0001
0001
0001
0001
0001
0000
0001
0000
,
0001
0001
0010
0100
1000
0001
0200
0000
,
0310
0010
0010
1000
0001
0001
0001
0010
,
0100
0100
1000
0001
0100
0000
0020
0000
,
1030
1000
1000
1000
1000
0000
1000
0000
,
1000
1000
0100
0010
0001
1000
0020
0030
,
0101
0011
1100
1010
,
0001
0100
1000
0100
0001
0000
2000
0000
,
3001
0100
0010
0000
1000
0000
0001
0000
,
1000
0100
0010
0000
0001
0000
1000
0000
,
0001
0010
0100
0000
1000
0000
0001
0000
,
1000
0100
0001
0100
2000
0000
3001
0000
,
1000
0010
0001
0000
0010
0000
1000
0000
,
0001
0010
1000
0000
0010
0000
0001
0000
,
1000
0100
0001
0000
0001
0100
1000
0001
,
1001
0000
0000
0010
1001
0000
0000
0000
,
1000
1000
1000
1000
0100
0100
1000
1000
,
0100
1000
0100
0010
0001
1000
0002
0000
,
0103
0100
0100
0010
1000
1000
1000
0100
,
0010
0010
0001
0100
1000
0000
0200
0000
,
0301
0001
0001
0001
0100
0100
0001
0001
,
0100
0001
0100
0010
1000
0100
0020
0000
,
0031
1000
0010
0100
0001
0010
0100
1000
,
0001
0100
1000
0100
0001
0000
0000
0000
,
0001
0001
0100
0100
0001
0001
0100
0100
,
0001
0001
0100
0010
1000
0001
0020
0000
,
0130
0100
0100
1000
0001
0001
0001
1000
,
0010
0010
1000
0100
0001
0000
0200
0000
,
1300
1000
0100
0100
1000
1000
0100
0100
,
1000
0100
0010
0100
1000
0001
0020
0000
,
0031
0100
0010
1000
0001
0100
0010
1000
,
0001
0010
1000
0010
0001
1000
1001
0000
,
2000
0000
0000
0000
,
3001
0100
1000
0100
0001
0000
2002
0000
,
0000
0000
0000
0000
,
0000
0000
0000
0000
,
0000
0000
0000
0000
,
0000
0000
0000
0000
,
3003
0000
0000
0000
;
