#TITLE:RENZOKUTAI;
#SUBTITLE:;
#ARTIST:Kabanagu;
#TITLETRANSLIT:;
#SUBTITLETRANSLIT:;
#ARTISTTRANSLIT:;
#GENRE:;
#CREDIT:;
#BANNER:RENZOKUTAI-bn.png;
#BACKGROUND:RENZOKUTAI-bg.png;
#LYRICSPATH:;
#CDTITLE:;
#MUSIC:RENZOKUTAI.ogg;
#OFFSET:0.000000;
#SAMPLESTART:20.842997;
#SAMPLELENGTH:15.000000;
#SELECTABLE:YES;
#BPMS:0.000000=140.992004
;
#STOPS:
;
#BGCHANGES:;
#KEYSOUNDS:;
#ATTACKS:;

//---------------dance-single - ----------------
#NOTES:
     dance-single:
     :
     Beginner:
     3:
     0.000000,0.000000,0.000000,0.000000,0.000000,0.000000,0.000000,0.000000,0.000000,0.000000,0.000000,0.000000,0.000000,0.000000,0.000000,0.000000,0.000000,0.000000,0.000000,0.000000,0.000000,0.000000:
0000
0000
0000
0000
;

//---------------dance-single - ----------------
#NOTES:
     dance-single:
     :
     Easy:
     6:
     0.334225,0.439229,0.537147,0.131303,0.005968,196.000000,151.000000,45.000000,11.000000,0.000000,0.000000,0.334225,0.439229,0.537147,0.131303,0.005968,196.000000,151.000000,45.000000,11.000000,0.000000,0.000000:
0000
0000
0000
0000
,
0000
0000
0000
0000
,
0000
0001
0100
0000
,
0001
0010
0000
0100
,
0000
1001
0001
0000
,
0010
0000
0100
0000
,
0010
0000
0001
0000
,
0100
0020
1030
0000
,
0100
0100
0010
0000
,
0001
0000
1000
0000
,
0010
0100
0010
0000
,
1000
0000
0001
0000
,
1000
1100
1100
0000
,
0011
0000
1000
0001
,
1000
0101
0101
0000
,
1010
1000
0001
0010
,
0100
0110
0110
0000
,
1001
0000
1000
0010
,
0100
0110
0110
0000
,
1001
0000
0000
0001
,
0010
0021
0130
0100
,
0100
0100
0100
0100
,
0100
2000
3010
0010
,
0010
0010
0010
0010
,
0010
1002
0013
0010
,
0010
0010
0010
0010
,
0010
0002
0103
0100
,
0100
0100
0100
0100
,
0100
0020
0030
1000
,
0001
0000
0010
0100
,
1000
0001
0000
1000
,
0010
0000
1000
0100
,
0000
1100
1001
0000
,
0101
0000
0001
1000
,
0001
0011
1001
0000
,
1010
0000
1000
0100
,
0010
0110
1100
0000
,
1010
0000
1000
0001
,
0010
0110
0011
0000
,
0101
0000
0100
0010
,
0100
1002
0013
0110
,
0110
0010
0100
0110
,
0110
2000
3010
0110
,
0110
0010
0100
0110
,
0110
2001
3100
1100
,
1100
0100
0010
0011
,
0011
0002
0103
0101
,
0101
0100
0010
1010
,
1010
0000
1000
0000
0001
0002
0000
0000
,
0000
0003
0000
0000
0000
0000
0000
0000
0000
0000
0000
0000
0000
0000
0000
0000
;

//---------------dance-single - ----------------
#NOTES:
     dance-single:
     :
     Medium:
     10:
     0.509863,0.497793,0.513273,0.107429,0.292447,299.000000,256.000000,43.000000,9.000000,0.000000,0.000000,0.509863,0.497793,0.513273,0.107429,0.292447,299.000000,256.000000,43.000000,9.000000,0.000000,0.000000:
0000
0000
0000
0000
,
0000
0000
0000
0000
,
0000
0000
0000
0000
1000
0000
0000
1000
0000
0000
0001
0000
0000
0001
0000
0000
,
0100
0000
0000
0010
0000
0000
0100
0000
0000
0001
0000
0000
1000
0000
0000
0100
,
0000
0000
1002
0000
0103
0000
0010
1000
,
0001
0010
0001
0000
0100
0000
0010
0000
,
1000
0001
0000
0000
0010
0000
0000
0000
0100
0000
0000
0000
1000
0000
0001
0000
,
0100
0000
0010
0000
0100
0000
0000
0000
0001
0000
1000
0000
0001
0000
0000
1000
,
0000
0100
0000
0000
0210
0000
0000
0000
0310
0000
0000
0000
0100
0000
1000
0000
,
0001
0100
0001
0000
0010
0000
0200
0000
,
1300
0001
0000
0000
0100
0000
0000
0000
0010
0000
0000
0000
1000
0000
0001
0000
,
0010
0100
0010
0000
0001
0001
0000
0000
,
1000
1001
0001
0100
,
0110
0000
0010
0000
1000
0001
0100
0001
,
1000
0000
0100
0000
0010
0001
1000
0000
,
1001
0000
0110
0000
0001
0000
0010
0100
,
0010
0001
1001
0000
1000
0000
0100
0000
,
0110
0000
0010
0000
0001
1000
0100
1000
,
0001
0000
0100
0000
0010
1000
0001
0000
,
1001
0000
0110
0000
1000
0000
0010
0100
,
0010
0000
1001
1000
0100
0000
0100
0000
,
0100
0010
0100
0000
0100
0001
0100
1000
,
0100
0200
0310
0100
,
0100
0001
0100
0000
0100
1000
0100
0010
,
0001
0000
1001
1000
0010
0000
0010
0000
,
0010
0100
0010
0000
0010
0001
0010
1000
,
0010
0020
0130
0010
,
0010
0001
0010
0000
0010
1000
0010
0100
,
0001
0000
0000
0000
1001
0000
0000
1000
0000
0000
0001
0000
0000
0001
0000
0000
,
0010
0000
0000
0100
0000
0000
1000
0000
0000
0010
0000
0000
0100
0000
0000
0001
,
0000
0000
1000
0000
0001
0000
0000
0001
0000
0000
1000
0000
0000
1000
0000
0000
,
0010
0000
0000
0100
0000
0000
0001
0000
0000
0010
0000
0000
0100
0000
0000
1001
,
0000
0000
0000
0000
1001
0000
1000
0000
1000
0000
0000
1000
0000
1000
0000
0000
,
1001
0000
0000
1000
0000
0000
1000
0000
0000
1000
0000
1000
0000
1000
0000
0000
,
1001
0000
0000
0000
0001
0000
1000
0000
0001
0000
0000
0001
0000
0001
0000
0000
,
1001
0000
0000
0001
0000
0000
0001
0000
0000
0001
0000
0000
0001
0000
0001
0000
,
1001
0000
0000
0000
0101
0000
0100
0000
0100
0000
0000
0100
0000
0100
0000
0000
,
0110
0000
0000
0100
0000
0000
0100
0000
0000
0100
0000
0100
0000
0100
0000
0000
,
0101
0000
0000
0000
0010
0000
1000
0000
0010
0000
0000
0010
0000
0010
0000
0000
,
0110
0000
0000
0010
0000
0000
0010
0000
0000
0010
0000
0000
1000
0000
0001
0000
,
1000
0000
0001
0000
2001
0000
0000
0000
3100
0000
0000
1000
0100
0000
0000
0000
,
1100
1001
1100
1100
,
0001
0100
0000
0001
0200
0000
0000
0000
0301
0000
0000
0100
0001
0000
0000
0000
,
0101
1001
0101
0101
,
0100
0001
0000
0100
0002
0000
0000
0000
0013
0000
0000
0001
0010
0000
0000
0000
,
0011
1001
1010
1001
,
0011
0000
0000
0000
2000
0000
0000
0000
3010
0000
0000
1000
0010
0000
0000
0000
,
1010
1001
1100
0110
,
0011
0000
0000
0000
1000
0000
0000
0000
0001
0000
0000
0100
0000
0000
0010
0000
,
0000
1001
0000
0000
0000
0000
0000
0000
0000
0000
0000
0000
0000
0000
0000
0000
;

//---------------dance-single - ----------------
#NOTES:
     dance-single:
     :
     Hard:
     13:
     0.665039,0.615704,0.262605,0.119366,1.056388,390.000000,368.000000,22.000000,10.000000,0.000000,0.000000,0.665039,0.615704,0.262605,0.119366,1.056388,390.000000,368.000000,22.000000,10.000000,0.000000,0.000000:
0000
0000
0000
0000
,
0000
0000
0000
0000
,
0000
0000
0000
0000
1000
0100
0000
1000
0000
0000
0001
0100
0000
0001
0000
0000
,
1000
0100
0000
0010
0000
0000
0001
0010
0000
0100
0000
0000
1000
0001
0000
1000
,
0000
0000
0000
0000
1001
0000
0000
0000
0001
0000
0000
0010
0000
0100
0000
0000
,
1000
0001
0000
0010
0000
0100
0000
1000
0000
0001
0000
0000
0100
0000
0000
0000
,
0001
1000
0000
0000
0001
0000
0000
0000
0100
0000
0001
1000
0000
0001
0000
0000
,
0000
1000
0000
0010
0000
2000
0000
3001
1000
0001
1000
0001
0000
0000
0000
0010
,
0000
0010
0000
0000
1001
0000
0000
0000
1000
0000
0000
0010
0000
0100
0000
0000
,
0001
1000
0000
0010
0000
0100
0000
0001
0000
1000
0000
0000
0200
0000
0000
0000
,
1300
0001
0000
0000
1000
0000
0000
0000
0100
0000
1000
0001
0000
1000
0000
0000
,
0100
0010
0000
0001
0000
0000
0000
0000
1000
0010
1000
0010
0000
0000
0000
0000
,
0100
0000
0000
0000
1001
0000
0001
0000
0010
0000
0100
0010
0000
0001
0000
0000
,
1000
0001
0000
1000
0000
0000
0010
1000
0000
0001
0000
0100
0000
0010
0000
0000
,
1000
0000
0000
0000
0100
0000
0010
0000
0001
0000
0010
0100
0000
1000
0000
0000
,
0001
0100
0000
0001
0000
0000
0001
0100
0000
0001
0000
0001
1000
0000
0100
0000
,
1000
0000
1000
0000
0100
0000
1000
0000
0010
0000
0100
0010
0000
1000
0000
0000
,
0001
1000
0000
0001
0000
0000
0010
0001
0000
1000
0000
0100
0000
0010
0000
0000
,
0001
0000
0000
0000
0100
0000
0010
0000
1000
0000
0010
0100
0000
0001
0000
0000
,
1000
0100
0000
1000
0000
0000
1000
0100
0000
1000
0000
1000
0001
0000
0100
0000
,
0001
0000
0100
0000
0101
0000
0001
0000
0010
0000
0001
0010
0000
0001
0000
0000
,
0011
0000
0000
0000
1001
0000
0001
0000
0010
0000
0001
1000
0000
0001
0000
0000
,
0010
0001
0000
0001
2000
0000
0000
0000
3010
0000
1000
0010
0000
1000
0000
0000
,
1010
0000
0000
0000
1001
0000
1000
0010
0000
1000
0000
0000
0001
1000
0000
0010
,
1000
0000
0001
0000
1001
0000
1000
0000
0100
0000
1000
0100
0000
1000
0000
0000
,
1100
0000
0000
0000
1001
0000
1000
0000
0100
0000
1000
0001
0000
1000
0000
0000
,
0100
1000
0000
1000
0002
0000
0000
0000
0103
0000
0001
0100
0000
0001
0000
0000
,
0101
0000
0000
0000
1001
0000
0001
0100
0000
0001
0000
0000
1000
0001
0000
0000
,
0100
0000
0001
0000
1000
0010
0000
1000
0000
0000
0001
0010
0000
0001
0000
0000
,
1000
0010
0000
0100
0000
0000
0001
0100
0000
0010
0000
0000
1000
0001
0000
1000
,
0000
0000
0000
0000
0001
0100
0000
0001
0000
0000
1000
0100
0000
1000
0000
0000
,
0001
0100
0000
0010
0000
0000
1000
0010
0000
0100
0000
0000
0001
1000
0000
0001
,
0000
0000
0000
0000
1001
0000
1000
0000
0010
0000
0100
0010
0000
1000
0000
0000
,
0001
0100
0000
0001
0000
0000
1000
0100
0000
1000
0100
1000
0000
0001
0000
0000
,
0010
0000
0100
0000
1000
0000
0001
0000
0100
0000
0010
0100
0000
0010
0000
0000
,
1000
0001
0000
1000
0000
0000
0001
0010
0000
0001
0000
1000
0001
0000
0100
0000
,
0010
0000
1000
0000
1001
0000
0001
0000
0010
0000
0100
0010
0000
0001
0000
0000
,
1000
0100
0000
1000
0000
0000
0001
0100
0000
0001
0100
0001
0000
1000
0000
0000
,
0010
0000
0100
0000
0001
0000
1000
0000
0100
0000
0010
0100
0000
0010
0000
0000
,
0001
1000
0000
0001
0000
0000
1000
0010
0000
1000
0000
0001
1000
0000
0100
0000
,
0010
0000
0100
0000
1002
0000
0000
0000
0103
0000
0001
0100
0001
0100
0000
0000
,
1010
0000
0000
1000
0100
0000
1000
0000
0010
1000
0000
0100
1000
0001
0000
0000
,
0100
0001
0000
0001
2000
0000
0100
0000
3100
0000
0010
0100
0000
1000
0000
0000
,
1100
0000
0000
1000
0010
0000
1000
0000
0100
1000
0000
0000
0010
1000
0000
0000
,
0001
1000
0000
0000
2001
0000
0000
0000
3100
0000
1000
0100
1000
0100
0000
0000
,
0011
0000
0000
0001
0100
0000
0001
0000
0010
0001
0000
0100
0001
1000
0000
0000
,
0100
1000
0000
1000
0002
0000
0100
0000
0103
0000
0010
0100
0000
0001
0000
0000
,
0101
0000
0000
0001
0010
0000
0001
0000
0100
0001
0000
0000
0010
0001
0000
0000
,
1000
0001
1000
0000
2001
0000
0000
0000
3001
0100
0000
0020
0000
0000
1030
0100
,
0000
0040
0030
0000
0000
0000
0000
0000
0000
0000
0000
0000
0000
0000
0000
0000
;

//---------------dance-single - Center JUMP Shocks----------------
#NOTES:
     dance-single:
     :
     Challenge:
     15:
     0.777584,0.762301,0.298415,0.250668,1.390613,456.000000,431.000000,25.000000,21.000000,84.000000,0.000000,0.777584,0.762301,0.298415,0.250668,1.390613,456.000000,431.000000,25.000000,21.000000,84.000000,0.000000:
// measure 0
0000
0000
0000
0000
,  // measure 1
0000
0000
0000
0000
,  // measure 2
0000
0000
0000
0000
0001
0100
0000
0010
0000
0000
0100
0001
0000
1000
0000
0001
,  // measure 3
1000
0100
0000
0010
0000
0100
1000
0001
0000
1000
0001
0000
0100
0010
0000
1000
,  // measure 4
0000
0000
0000
0000
MMMM
0000
0000
0000
1000
0000
0000
0100
0000
0010
0000
0000
,  // measure 5
0100
1000
0000
0010
0000
0100
0000
0001
0000
0010
0000
0000
0100
0000
0000
0000
,  // measure 6
0010
0001
0000
0000
MMMM
0000
0000
0001
0100
0000
0000
0010
0000
0100
0000
0000
,  // measure 7
0010
1000
0000
0100
0000
0002
0000
0103
0010
0100
0010
0100
0000
0000
0000
0011
,  // measure 8
0000
1001
0000
0000
MMMM
0000
0000
0000
0001
0000
0000
0100
0000
0010
0000
0000
,  // measure 9
0100
0001
0000
0010
0000
0100
0000
1000
0000
0010
0000
0000
0002
0000
0000
0000
,  // measure 10
0013
1000
0000
0000
MMMM
0000
0000
1000
0100
0000
0000
0010
0000
0100
0000
0000
,  // measure 11
0010
0001
0000
0100
0000
0010
0000
0000
0100
0001
0100
0001
0000
1000
0000
0010
,  // measure 12
1000
0000
0000
0000
1001
0000
0001
1000
0001
0000
1000
0100
0000
1100
0000
0000
,  // measure 13
1000
0010
0000
0110
0000
0000
0010
1000
0000
0100
0010
0001
0010
0100
0000
0000
,  // measure 14
0010
0001
1000
0001
0100
0000
0110
0000
0010
0000
1000
0010
0000
0101
0000
0000
,  // measure 15
1000
0100
0000
0110
0000
0000
1000
0001
0000
0101
0000
0100
0001
1000
0100
0000
,  // measure 16
0100
1000
0001
0000
0011
0000
1000
0001
1000
0000
0010
1000
0000
1010
0000
0000
,  // measure 17
1000
0100
0000
0110
0000
0000
0100
1000
0000
0010
0100
0001
0100
0010
0000
0000
,  // measure 18
0100
0001
1000
0001
0010
0000
0110
0000
0100
0000
1000
0100
0000
0011
0000
0000
,  // measure 19
1000
0010
0000
0110
0000
0000
1000
0001
0000
0011
0000
0001
1000
0010
0100
0000
,  // measure 20
0100
0010
1000
0000
1010
0000
0001
0000
0100
0000
0001
1000
0100
0010
0000
0000
,  // measure 21
0010
0100
1000
0001
0100
0000
0010
0100
0010
0001
0000
0001
0010
0100
0000
0000
,  // measure 22
0010
0100
0001
1000
0200
0000
0000
0000
0310
0000
0001
0100
0010
1000
0000
0000
,  // measure 23
1000
0010
0000
0100
0001
0000
1000
0100
0010
1000
0000
0000
1000
0010
0000
0100
,  // measure 24
0010
0001
1000
0000
1100
0000
0001
0000
0010
0000
0001
1000
0010
0100
0000
0000
,  // measure 25
0100
0010
1000
0001
0010
0000
0100
0010
0100
0001
0000
0001
0100
0010
0000
0000
,  // measure 26
0100
0010
0001
1000
0020
0000
0000
0000
0130
0000
0001
0010
0100
1000
0000
0000
,  // measure 27
1000
0100
0000
0010
0001
0000
1000
0010
0100
1000
0000
0000
1000
0100
0000
0010
,  // measure 28
0100
0001
1000
0001
0020
0031
0000
MMMM
0000
0000
0001
1000
0000
0001
0000
0100
,  // measure 29
0001
0010
0000
MMMM
0000
0000
0010
0001
0000
0001
1000
0000
0010
0100
0000
0001
,  // measure 30
1000
0100
0010
0000
0100
1000
0000
MMMM
0000
0000
1000
0001
0000
1000
0000
0100
,  // measure 31
1000
0010
0000
MMMM
0000
0000
0010
1000
0000
1000
0001
0000
0010
0100
0000
MMMM
,  // measure 32
0000
0000
0000
0000
1002
0000
0103
0010
0200
0000
1300
0100
1000
0100
0000
0000
,  // measure 33
0001
1000
0000
MMMM
0000
0000
0001
0010
0100
0010
0001
0100
0010
1000
0000
0000
,  // measure 34
0100
1000
0001
1000
0010
0000
1000
0000
0200
0000
0301
0100
0000
0110
0000
0000
,  // measure 35
1000
0100
0000
MMMM
0000
0000
0001
0100
0010
1000
0000
1000
0001
0100
1000
0000
,  // measure 36
0100
0010
1000
0000
2001
0000
3100
0010
0200
0000
0301
0100
0001
0100
0000
0000
,  // measure 37
1000
0001
0000
MMMM
0000
0000
0001
0100
0010
0100
0001
0010
0100
1000
0000
0000
,  // measure 38
0010
1000
0001
1000
0100
0000
1000
0000
0020
0000
0031
0010
0000
0110
0000
0000
,  // measure 39
1000
0010
0000
MMMM
0000
0000
0001
0010
0100
1000
0000
1000
0001
0010
1000
0000
,  // measure 40
0010
0100
1000
0000
1001
0000
0001
0000
0010
0000
0100
1000
0010
0100
0000
0000
,  // measure 41
MMMM
0000
1000
0001
0010
0000
0001
0010
0100
1000
0000
1100
0000
MMMM
0000
0000
,  // measure 42
0010
0001
1000
0001
0200
0000
0000
0000
0320
0000
0031
0010
0000
MMMM
0000
0000
,  // measure 43
0001
1000
0000
1000
0200
0000
0301
0100
0000
MMMM
0000
0000
0001
2000
0000
3010
,  // measure 44
1000
0000
0100
0010
0002
0000
1003
0000
0010
0000
0100
0001
0010
0100
0000
0000
,  // measure 45
MMMM
0000
0001
1000
0010
0000
1000
0010
0100
0001
0000
0101
0000
MMMM
0000
0000
,  // measure 46
0010
1000
0001
1000
0200
0000
0000
0000
0310
0000
1000
0010
0000
MMMM
0000
0000
,  // measure 47
1000
0001
0000
0001
0200
0000
1300
0100
0000
MMMM
0000
0000
0001
1000
0000
0010
,  // measure 48
0000
0100
0010
1000
0200
0000
0000
0000
0310
0001
0000
0200
0000
0310
1000
0200
,  // measure 49
0000
0304
0003
0000
0000
0000
0000
0000
0000
0000
0000
0000
0000
0000
0000
0000
;
