#VERSION:0.83;
#TITLE:RAD DOGS;
#SUBTITLE:;
#ARTIST:Hachioji-P feat. Hatsune Miku, Kagamine Len, Kagamine Rin;
#TITLETRANSLIT:;
#SUBTITLETRANSLIT:;
#ARTISTTRANSLIT:;
#GENRE:;
#ORIGIN:;
#CREDIT:;
#BANNER:RAD DOGS.png;
#BACKGROUND:RAD DOGS-bg.png;
#PREVIEWVID:;
#JACKET:RAD DOGS-jacket.png;
#CDIMAGE:;
#DISCIMAGE:;
#LYRICSPATH:;
#CDTITLE:;
#MUSIC:RAD DOGS.ogg;
#OFFSET:-3.475000;
#SAMPLESTART:57.688999;
#SAMPLELENGTH:14.500000;
#SELECTABLE:YES;
#BPMS:0.000=140.000;
#STOPS:;
#DELAYS:;
#WARPS:;
#TIMESIGNATURES:0.000=4=4;
#TICKCOUNTS:0.000=4;
#COMBOS:0.000=1;
#SPEEDS:0.000=1.000=0.000=0;
#SCROLLS:0.000=1.000;
#FAKES:;
#LABELS:0.000=Song Start;
#BGCHANGES:-8.108=RAD DOGS.avi=1.000=1=0=0=StretchNoLoop==CrossFade==,
99999=-nosongbg-=1.000=0=0=0 // don't automatically add -songbackground-
;
#KEYSOUNDS:;
#ATTACKS:
;

//---------------dance-single - ----------------
#NOTEDATA:;
#CHARTNAME:;
#STEPSTYPE:dance-single;
#DESCRIPTION:;
#CHARTSTYLE:;
#DIFFICULTY:Medium;
#METER:13;
#RADARVALUES:0.528026,0.570401,0.258814,0.291166,0.214330,457.000000,425.000000,32.000000,36.000000,0.000000,0.000000,0.000000,0.000000,0.000000,0.528026,0.570401,0.258814,0.291166,0.214330,457.000000,425.000000,32.000000,36.000000,0.000000,0.000000,0.000000,0.000000,0.000000;
#CREDIT:Kikoia;
#NOTES:
// measure 0
0000
0000
0000
0000
,  // measure 1
0000
0000
0000
0000
,  // measure 2
0000
0000
0000
0000
,  // measure 3
0000
0000
0000
0000
,  // measure 4
1000
0000
1000
0100
0010
0000
0010
0001
,  // measure 5
0100
0000
0100
0010
1000
0000
1000
0001
,  // measure 6
0010
0011
0101
1100
,  // measure 7
1001
0000
0000
0000
,  // measure 8
1000
0000
0100
0000
1000
0000
0100
0000
0001
0000
0100
0010
0000
0100
0010
0000
,  // measure 9
0001
0100
0010
1000
0001
0010
0100
1000
,  // measure 10
2020
0000
3030
0001
0022
0000
0033
1000
,  // measure 11
0010
0000
0100
0000
0001
0000
0010
0000
0100
0000
1000
0001
1000
0000
0001
0000
,  // measure 12
1000
0000
0010
0000
1000
0000
0010
0000
0001
0000
0010
0100
0000
0010
0100
0000
,  // measure 13
0001
0100
0010
1000
0100
0010
0001
1000
,  // measure 14
1001
0000
0000
0010
0110
0000
0000
0000
,  // measure 15
0000
0000
0000
0000
0000
0000
0000
0000
0000
0000
1000
0001
1000
0000
0100
0000
,  // measure 16
0020
0000
0000
0032
0000
0000
1003
0000
0010
0000
0100
0001
0010
0000
0100
0000
,  // measure 17
2000
0000
0000
3020
0000
0000
0130
0000
0010
0000
1000
0100
0010
0000
0001
0000
,  // measure 18
0100
1000
0100
0001
1000
0100
0001
0100
,  // measure 19
1000
0000
0010
0000
0100
0000
0001
0000
0010
0000
0100
1000
0100
0000
0010
0000
,  // measure 20
0002
0000
0000
2003
0000
0000
3001
0000
0100
0000
0010
0100
0010
0000
1000
0000
,  // measure 21
0200
0000
0000
0320
0000
0000
0130
0000
1000
0000
0001
1000
0001
0000
1000
0000
,  // measure 22
0100
0001
0100
1000
0010
0001
0010
1000
,  // measure 23
0001
0010
0000
0100
0000
1000
0010
0000
1000
0001
1000
0001
1000
0000
0001
0000
,  // measure 24
1000
0010
0100
0110
0000
0100
0001
0010
,  // measure 25
0200
0001
0010
1300
,  // measure 26
0001
0100
0010
1010
0000
1000
0001
1000
,  // measure 27
0100
0010
0001
1000
0020
0000
0230
0000
,  // measure 28
0301
1000
0100
0110
0000
0010
0001
1000
,  // measure 29
0020
0001
0100
1030
,  // measure 30
1000
0001
0010
0100
1000
0010
0100
0001
,  // measure 31
2002
0000
3003
0000
,  // measure 32
2001
0000
0000
0100
0000
0000
3010
0000
2001
0000
0000
0100
0000
0000
3010
0000
,  // measure 33
1000
0000
0100
0000
0010
0000
0001
0000
1000
0000
0001
0100
0001
0000
0010
0000
,  // measure 34
1002
0000
0000
0100
0000
0000
0013
0000
1002
0000
0000
0100
0000
0000
0013
0000
,  // measure 35
1000
0000
0001
0010
0001
0000
1000
0000
0010
0000
0100
0000
0001
1000
0020
0000
,  // measure 36
0130
0001
0100
1000
0100
0001
0010
0100
,  // measure 37
1000
0100
0001
0100
1000
0001
0010
0001
,  // measure 38
1000
0000
0010
0100
0010
0000
0100
0010
0100
0000
0001
0000
1000
0000
0001
0000
,  // measure 39
1001
0000
0000
0110
0000
0000
2002
0000
0000
0000
0000
0000
3003
0000
0000
0000
,  // measure 40
0101
0000
0000
0002
0000
0000
0103
0000
1100
0000
0000
0200
0000
0000
0301
0000
,  // measure 41
1000
0000
0100
0010
0001
0000
1000
0000
0010
0000
1000
0000
0100
0000
0010
0000
,  // measure 42
0011
0000
0000
0020
0000
0000
1030
0000
1010
0000
0000
0020
0000
0000
0031
0000
,  // measure 43
1000
0000
0010
0100
0001
0000
1000
0000
0100
0000
0010
0000
0001
1000
0020
0000
,  // measure 44
0130
0001
0100
1000
0100
0010
1000
0100
,  // measure 45
0010
1000
0010
0100
0001
0100
1000
0001
,  // measure 46
0100
0000
0010
1000
0010
0000
0100
0000
0001
0000
0010
0000
0100
0000
1000
0000
,  // measure 47
1010
0000
0000
0000
0101
0000
0000
0000
1000
0001
1000
0001
2000
0000
0000
0000
,  // measure 48
3010
0100
0001
0000
0001
0010
0100
0000
,  // measure 49
0100
1000
0001
1000
0010
0100
0001
0100
,  // measure 50
0010
0000
0000
1010
0000
0000
1000
0000
0001
0000
0000
0011
0000
0000
0010
0000
,  // measure 51
0100
0000
1000
0000
0100
0000
0001
0000
0100
0000
1000
0000
0010
0200
0000
0000
,  // measure 52
0301
1000
0001
1000
0001
0010
0001
0010
,  // measure 53
0100
1000
0010
1000
0001
0100
0010
0100
,  // measure 54
0001
0000
1000
0100
1000
0000
0010
0000
0100
0000
0001
0000
0010
0000
0100
0000
,  // measure 55
0110
0000
0000
0000
0000
0100
1001
0000
,  // measure 56
1000
0001
2000
0000
0010
0000
3010
0000
1000
0000
0001
0000
0010
0000
0100
0000
,  // measure 57
1000
0000
0001
0100
0001
0000
1000
0000
1010
0000
0000
0000
1100
0000
0000
0000
,  // measure 58
1001
0000
1000
0100
0010
0000
0001
0000
1000
0000
0010
0000
1000
0000
0100
0000
,  // measure 59
1000
1000
0001
0001
0100
0100
0020
0000
,  // measure 60
1030
0000
1000
0001
1000
0000
1000
0100
0010
0000
0001
0000
1000
0000
0001
0000
,  // measure 61
0100
0000
0100
0010
0100
0000
0010
1000
0001
0000
0010
0000
0100
0000
0001
0000
,  // measure 62
0100
0000
1000
0001
1000
0000
0010
0000
0100
0000
0001
0000
1000
0000
0100
0000
,  // measure 63
0020
0000
0000
0000
,  // measure 64
0032
0000
0000
0000
,  // measure 65
0000
0000
0000
0000
,  // measure 66
0000
0000
0000
0000
,  // measure 67
0000
0000
0003
0000
0000
0000
0000
0000
0000
0000
0000
0000
;

//---------------dance-single - ----------------
#NOTEDATA:;
#CHARTNAME:;
#STEPSTYPE:dance-single;
#DESCRIPTION:;
#CHARTSTYLE:;
#DIFFICULTY:Hard;
#METER:15;
#RADARVALUES:0.673609,0.842021,0.169847,0.226462,0.582331,583.000000,562.000000,21.000000,28.000000,0.000000,0.000000,0.000000,0.000000,0.000000,0.673609,0.842021,0.169847,0.226462,0.582331,583.000000,562.000000,21.000000,28.000000,0.000000,0.000000,0.000000,0.000000,0.000000;
#CREDIT:Kikoia;
#NOTES:
// measure 0
0000
0000
0000
0000
,  // measure 1
0000
0000
0000
0000
,  // measure 2
0000
0000
0000
0000
,  // measure 3
0000
0000
0000
0000
,  // measure 4
1000
0100
1000
0100
0010
0001
0010
0001
,  // measure 5
0100
0001
0100
0001
1000
0010
1000
0010
,  // measure 6
1000
0100
1000
0000
0001
0100
0001
0000
1000
0010
1000
0000
0001
0010
0001
0000
,  // measure 7
1000
0100
0010
0001
1000
0010
0100
0001
0010
0100
1000
0001
1000
0000
0001
0000
,  // measure 8
0100
0000
0000
0000
1001
0000
0000
0000
1000
0000
0100
0010
0000
0100
1000
0000
,  // measure 9
0001
0000
0100
0010
1000
0000
0001
0000
0010
0000
0100
0000
1000
0000
0010
0000
,  // measure 10
0200
0001
0301
0100
0020
1000
1030
0001
,  // measure 11
1000
0000
0100
0010
0000
0001
1000
0000
0010
0000
1000
0001
0010
0000
0100
0000
,  // measure 12
0110
0000
0000
0000
1001
0000
0000
0000
0001
0000
0100
0010
0000
0100
0001
0000
,  // measure 13
1000
0000
0100
0010
0001
0000
1000
0000
0010
0000
1000
0000
0100
0000
0010
0000
,  // measure 14
0002
0100
0103
0001
2000
0010
3010
1000
,  // measure 15
1001
0000
0000
0000
0000
0000
0000
0000
0001
1000
0001
1000
0010
0100
0001
0010
,  // measure 16
0100
0000
1000
0001
0000
0001
1000
0000
0100
0000
0010
0001
0010
0000
0100
0000
,  // measure 17
1000
0000
0010
0100
0000
0100
0010
0000
1000
0000
0100
0010
0001
0000
1000
0000
,  // measure 18
0001
0010
0000
0001
0010
0000
0100
0000
1000
0010
0000
1000
0010
0000
0100
0000
,  // measure 19
0001
0010
0100
0000
1000
0000
0001
0000
0100
0000
0001
1000
0001
0000
1000
0000
,  // measure 20
0100
0000
0010
0001
0000
0001
1000
0000
0010
0000
0100
0001
0010
0000
0001
0000
,  // measure 21
1000
0000
0010
0100
0000
0100
0001
0000
1000
0000
0100
0010
0001
0000
1000
0000
,  // measure 22
0010
0100
0000
0010
0100
0000
0001
0000
0010
0100
0000
0010
0100
0000
1000
0000
,  // measure 23
0001
0010
0000
0100
0000
1000
0010
0000
1000
0001
0010
0100
1000
0001
1000
0000
,  // measure 24
0001
1000
0100
0002
0000
0103
1000
0010
,  // measure 25
0100
0001
0100
2000
0000
3100
0001
0010
,  // measure 26
0001
1000
0010
0002
0000
0013
0100
0001
,  // measure 27
0010
0100
0001
0100
1000
0000
1001
0000
,  // measure 28
1000
0000
0100
0000
0010
0000
0001
0000
1000
0000
0010
0100
0001
0100
0010
0000
,  // measure 29
1000
0000
0001
0000
0010
0000
0100
0000
1000
0000
0010
1000
0001
1000
0100
0000
,  // measure 30
0001
0000
0100
0000
1000
0000
0010
0000
0100
0000
0001
0010
0100
0000
0100
0000
,  // measure 31
2002
0000
3003
0000
,  // measure 32
2001
3100
0010
0001
1002
0103
0010
1000
,  // measure 33
0100
0000
0010
0001
0010
0001
0000
0001
1000
0000
0001
0000
0100
0000
0010
0000
,  // measure 34
2001
3010
0100
0001
1002
0013
0100
1000
,  // measure 35
0001
0000
1000
0010
0100
0001
0000
0001
1000
0000
0100
0000
0010
0001
0100
0000
,  // measure 36
0001
1000
0100
1000
0001
0000
1000
0000
0100
0000
0001
0000
0100
0000
1000
0000
,  // measure 37
0001
0100
0010
0100
0001
0000
0010
0000
1000
0000
0010
0000
0001
0000
1000
0000
,  // measure 38
0100
0000
1000
0001
1000
0001
0000
0001
0010
0000
0100
0000
1000
0000
0001
0000
,  // measure 39
1000
0010
1000
0010
0100
0001
0100
0001
0010
0100
1000
0010
0100
0000
0001
0000
,  // measure 40
1002
0103
0010
1000
2001
3100
0010
0001
,  // measure 41
0100
0000
0010
1000
0010
1000
0000
1000
0001
0000
1000
0000
0100
0000
0010
0000
,  // measure 42
1002
0013
0100
1000
2001
3010
0100
0001
,  // measure 43
1000
0000
0010
0100
0001
1000
0000
1000
0001
0000
0010
0000
0100
1000
0010
0000
,  // measure 44
1000
0001
0010
0001
1000
0000
0100
0000
1000
0000
0010
0000
0001
0000
0010
0000
,  // measure 45
1000
0100
0010
0100
1000
0000
0001
0000
0100
0000
1000
0000
0100
0000
0001
0000
,  // measure 46
1000
0000
0001
0010
0001
0010
0000
0100
1000
0000
0001
0000
1000
0000
0010
0000
,  // measure 47
1000
0001
1000
0001
0010
0100
1000
0010
0100
0001
0010
0100
1000
0000
0000
0000
,  // measure 48
1001
0001
0010
0220
0000
0330
1100
2002
,  // measure 49
0000
0000
0000
0000
3003
1000
0100
0010
,  // measure 50
0002
0000
0000
0100
0000
0000
0103
0000
2000
0000
0000
0100
0000
0000
0100
0000
,  // measure 51
3001
0000
1000
0100
0010
0000
0001
0000
1000
0000
0010
0000
0100
0002
0000
0000
,  // measure 52
1003
0000
0001
0100
0001
0000
1000
0000
0010
0000
1000
0100
0010
0000
0001
0000
,  // measure 53
0100
0010
0100
0010
1000
0000
0001
0000
0010
0100
0010
0100
1000
0000
0001
0000
,  // measure 54
0100
0000
0001
1000
0001
1000
0000
1000
0010
0000
0100
0000
0101
0000
1100
0000
,  // measure 55
1001
0000
0000
0000
,  // measure 56
1000
0002
0000
0000
0100
0000
0100
0000
1003
0000
0001
0010
0001
0000
1000
0000
,  // measure 57
0001
0100
0000
0100
0010
0000
1000
0000
0100
0010
0100
0000
1000
0000
0010
0000
,  // measure 58
0100
0000
0001
0010
0100
0000
1000
0000
0010
1000
0100
0000
0010
0001
1000
0000
,  // measure 59
0001
1000
0100
0000
1000
0001
0100
0000
0001
0010
0001
0010
0100
0000
1000
0000
,  // measure 60
0001
0000
0001
0100
0010
0000
1000
0100
0010
0000
0001
1000
0010
0000
0100
0001
,  // measure 61
0010
0100
0000
0100
1000
0010
0100
0000
0001
0000
1000
0001
1000
0000
0010
0000
,  // measure 62
1000
0100
1000
0100
0010
0001
0200
0000
0301
1000
0001
1000
0010
0100
0002
0000
,  // measure 63
1003
0100
0010
0001
0100
0010
1000
0001
0010
0001
1000
0010
0100
0001
0010
0100
,  // measure 64
2000
0000
0000
0000
,  // measure 65
0000
0000
0000
0000
,  // measure 66
0000
0000
0000
0000
,  // measure 67
0000
0000
3000
0000
0000
0000
0000
0000
0000
0000
0000
0000
;
