#TITLE:Pyramid;
#SUBTITLE:;
#ARTIST:Grazysmash;
#TITLETRANSLIT:;
#SUBTITLETRANSLIT:;
#ARTISTTRANSLIT:;
#GENRE:;
#CREDIT:D0omsday;
#MUSIC:Pyramid DDR microcut.ogg;
#BANNER:;
#BACKGROUND:;
#CDTITLE:;
#SAMPLESTART:29.143;
#SAMPLELENGTH:15.857;
#SELECTABLE:YES;
#OFFSET:0.005;
#BPMS:0.000=140.000;
#STOPS:;
#BGCHANGES:;
#FGCHANGES:;

//--------------- dance-single - D0omsday ----------------
#NOTES:
     dance-single:
     D0omsday:
     Medium:
     12:
     0,0,0,0,0:
0000
0000
0000
0000
,
2002
0000
0000
0000
,
0000
0000
3003
0000
,
0202
0000
0000
0000
,
0000
0000
0303
0000
,
0220
0000
0000
0000
,
0000
0000
0330
0000
,
2020
0000
0000
0000
,
0000
0000
3030
0000
1000
0001
1000
0000
,
0100
0000
0010
0000
0001
0000
1000
0010
,
1000
0000
0001
0000
0010
0100
0010
0100
,
0010
0000
0001
0000
0100
0001
0100
0001
,
0100
0000
0010
0000
1000
0100
1000
0000
,
0100
0010
0100
1000
,
0001
0100
0010
1000
,
0001
0000
0010
0000
0100
0000
1000
0000
0001
0000
0100
0000
0010
1000
0010
1000
,
0000
0000
0000
0000
,
0001
0100
0010
0100
0001
0010
0200
0000
,
1300
0001
0100
0010
2000
0000
3020
0000
,
0130
0001
1000
0100
0010
0100
2000
0000
,
3001
1000
0010
1000
0001
0011
0020
0000
,
0130
1000
0001
0100
0001
1000
0200
0000
,
0310
0000
0001
0000
0100
0010
0001
0010
,
0100
0000
0001
0000
1000
0100
0010
0001
,
1000
1000
0110
0000
,
0001
0000
0101
0000
0100
0000
0110
0010
,
1000
0000
1001
0000
0001
0010
0110
0010
,
0001
0000
0011
0000
0010
0100
1100
1000
,
0010
0000
0110
0000
0100
0001
1001
0000
,
1000
0000
1100
0000
0100
0000
0110
0010
,
0001
0000
0000
0000
0011
0000
0000
0000
0010
0000
0000
0100
1000
0000
0010
0000
,
0100
0000
0110
0000
0010
1000
1001
0001
,
0010
0000
0010
0000
0010
0001
0100
0000
,
0001
0000
0010
0000
1000
0000
0001
0100
,
0000
1000
0000
0001
0100
0010
1000
0000
,
0001
0000
0010
0002
0000
0000
0000
0000
0003
0000
0010
0000
0100
0000
1000
0000
,
0010
0000
0100
0001
0100
0000
0010
0000
1000
0000
0001
0000
0010
0000
0100
0000
,
1000
0000
0010
0000
0001
0000
1000
0100
,
0000
0001
0000
1000
0100
0010
0001
0000
,
1000
0000
0001
0020
0000
0000
0000
0000
0030
0000
0001
0000
0100
0000
0010
0000
,
1000
0000
0100
0010
0100
0000
1000
0000
0001
0000
0100
0000
0010
0000
1000
0000
,
0002
0000
0000
0000
,
0000
0000
0003
0000
,
2020
0000
0000
0000
,
0000
0000
3030
0000
,
0220
0000
0000
0000
,
0000
0000
0330
0000
,
2002
0000
0000
3003
,
0001
0010
0100
1000
,
0001
0000
0100
0000
0001
0000
0100
0010
,
0100
0000
0010
0000
1000
0001
1000
0001
,
1000
0000
0100
0000
0010
0001
0010
0001
,
0010
0000
0001
0000
1000
0010
1000
0000
,
0001
0100
0010
0001
,
0010
0100
0010
1000
,
0100
0000
0010
0000
0001
0000
1000
0000
0010
0000
0100
0000
0001
0010
0001
0010
,
0000
0000
0000
0000
0000
0010
1001
0000
,
0002
0000
0003
0000
0002
0000
0003
0000
0002
0000
0003
0000
0010
0001
0010
0001
,
0020
0000
0030
0000
0020
0000
0030
0000
0010
0000
0010
0000
0100
0010
0100
0010
,
0200
0000
0300
0000
0200
0000
0300
0000
0200
0000
0300
0000
1000
0100
1000
0100
,
1000
0000
0010
0000
1000
0000
0001
0000
1000
0000
0010
0000
1000
0001
1000
0001
,
2000
0000
3000
0000
2000
0000
3000
0000
2000
0000
3000
0000
0010
1000
0010
1000
,
0020
0000
0030
0000
0020
0000
0030
0000
0010
0000
0010
0000
0100
0010
0100
0010
,
0200
0000
0300
0000
0200
0000
0300
0000
0200
0000
0300
0000
0001
0100
0001
0100
,
0001
0010
0100
1000
,
0001
0010
0001
0100
0001
0010
0200
0010
,
1300
0001
1000
0010
1000
0100
0020
0001
,
0130
1000
0100
0010
0100
1000
0002
0100
,
0013
0001
0010
0100
0010
0001
2000
0010
,
3001
0010
0100
0010
0001
0010
0200
0010
,
1300
0010
0100
0010
1000
0010
0200
0010
,
0301
1000
0010
1000
0001
1000
0020
0100
,
0031
0000
0000
0000
,
0010
0000
1000
0000
0100
0000
0001
1000
,
0000
0010
0000
0001
1000
0010
0100
0000
,
0001
0000
0010
0200
0000
0000
0000
0000
0300
0000
0001
0000
0100
0000
0010
0000
,
0100
0000
1000
0100
1000
0000
0001
0000
0100
0000
0010
0000
1000
0000
0001
0000
,
0010
0000
0001
0000
0100
0000
1000
0001
,
0000
0010
0000
1000
0001
0010
0100
0000
,
1000
0000
0010
0200
0000
0000
0000
0000
0300
0000
1000
0000
0100
0000
0010
0000
,
0100
0000
0001
0100
0001
0000
1000
0000
0100
0000
0010
0000
0001
0000
2000
0000
,
0020
0000
0000
0000
,
0000
0000
0000
0000
,
3030
0000
0000
0000
;

//--------------- dance-single - D0omsday ----------------
#NOTES:
     dance-single:
     D0omsday:
     Hard:
     15:
     0,0,0,0,0:
0000
0000
0000
0000
,
2002
0000
0000
0000
,
0000
0000
3003
0000
,
0220
0000
0000
0000
,
0000
0000
0330
0000
,
0202
0000
0000
0000
,
0000
0000
0303
0000
,
2020
0000
0000
0000
,
0000
0000
3030
0000
1000
0001
0010
0000
,
0110
0000
0100
0000
0100
0000
1000
0001
,
0100
0000
0100
0000
0100
0001
0010
0100
,
1000
0000
1000
0000
1000
0010
0001
0010
,
1000
0000
0000
0000
1000
0000
0000
0000
0010
0000
0100
0000
0001
0000
0000
0010
,
0001
1000
0010
0100
0001
1000
0100
0010
,
0100
1000
0001
0100
0001
0010
0100
1000
,
0001
0100
0010
0100
0001
0010
0100
1000
0010
1000
0100
0010
0100
1000
0010
0100
,
0000
0000
0001
1000
0000
1000
1010
0010
,
0100
0000
0001
0100
0001
0000
1000
0100
1000
0000
0100
0010
0000
0010
0001
0010
,
0001
0000
1000
0010
1000
0000
0100
0000
0010
0001
1000
0010
0000
0010
1000
0001
,
0010
0000
0100
1000
0100
0000
0010
0001
0010
0000
0001
0100
0000
0100
0010
0100
,
0010
0000
1000
0001
1000
0000
0100
1000
0100
0000
0120
0000
0031
0100
0010
1000
,
0001
0000
1000
0010
1000
0000
0001
0010
0001
0000
0010
0100
0000
0100
1000
0100
,
1000
0000
0010
0100
0010
0000
1000
0000
0001
0000
0010
0000
0100
0000
0010
0000
,
0001
0000
1000
0010
1000
0000
0001
0010
0001
0000
1000
0000
0100
0000
0010
0000
,
0001
0000
0100
0001
0100
0000
0010
1000
0010
0000
1000
0000
0100
0000
0000
0000
,
1000
0000
0001
0000
0101
0000
0100
0001
0010
0000
0100
0000
0120
0000
0001
0000
,
0130
0000
1000
0000
1010
0000
0010
0100
0001
0000
0010
0000
0200
0000
1000
0000
,
0310
0000
0001
0000
1001
0000
1000
0010
0100
0000
0001
0000
0012
0000
0100
0000
,
1003
0000
0010
0000
0110
0000
0100
0001
1000
0000
0100
0000
0010
0000
0000
0000
,
0001
0000
1000
0000
1010
0000
0010
0100
0001
0000
1000
0000
2100
0000
0001
0000
,
3010
0000
0100
0000
0101
0000
0001
0000
0010
0000
0000
0010
0100
0000
1000
0000
,
0010
0000
0100
0000
0110
0000
0010
1000
0001
0000
0010
0000
0210
0000
1000
0000
,
0310
0000
0010
0000
0001
0100
0010
0000
,
0100
0000
0001
0010
0100
0000
1000
0001
0100
0000
0001
1000
0100
1000
0010
0000
,
0100
0001
0010
0000
0001
1000
0010
0000
0010
1000
0001
0000
0010
0000
0000
0000
,
0001
0000
0010
0100
0010
0000
0000
0000
0001
0100
0010
0000
0010
1000
0100
0000
,
1000
0000
0010
0100
0010
0000
0100
0000
0001
0000
0010
0000
0100
0000
0010
0000
,
0001
0000
1000
0010
0100
0000
0001
1000
0100
0000
1000
0001
0100
0001
0010
0000
,
0001
1000
0010
0000
0100
0001
0010
0000
0010
0100
1000
0000
0010
0000
0000
0000
,
1000
0000
0010
0100
0010
0000
0000
0000
1000
0001
0010
0000
0010
0001
0100
0000
,
0001
0000
0010
0100
0010
0000
0100
0000
1000
0000
0010
0000
0001
0000
0010
0000
,
2000
0000
0000
0000
,
0000
0000
3000
0000
,
0022
0000
0000
0000
,
0000
0000
0033
0000
,
0220
0000
0000
0000
,
0000
0000
0330
0000
,
1001
1000
1000
0010
,
0001
1000
0100
0001
,
1001
0000
1000
0000
1000
0000
0001
0100
,
0010
0000
0010
0000
0010
1000
0100
0010
,
0001
0000
0001
0000
0001
0100
1000
0100
,
0001
0000
0000
0000
0001
0000
0000
0000
1000
0000
0100
0000
0010
0000
0000
0001
,
0100
0010
1000
0001
0010
0100
0001
0100
,
0010
0001
1000
0010
0100
1000
0100
0010
,
1000
0001
0010
0100
1000
0001
0100
0010
0100
1000
0100
0010
1000
0001
0010
0200
,
0000
0000
0000
0000
0300
0110
1001
0000
,
2010
0000
3000
0000
0012
0000
0003
0000
2010
0000
3000
0000
0001
0010
0100
0010
,
0002
0000
0003
0000
2010
0000
3000
0000
0012
0000
0100
0000
1003
0100
0010
0100
,
2000
0000
3000
0000
0102
0000
0003
0000
2100
0000
3000
0000
0001
0100
0010
0100
,
0002
0000
0010
0000
2003
0000
0100
0000
3020
0000
0100
0000
1030
0100
0010
0100
,
1000
0000
0000
0000
0021
0000
0030
0000
0201
0000
0300
0000
0001
0010
0100
0010
,
0001
0000
0000
0000
1200
0000
0300
0000
1020
0000
0100
0000
1030
0100
0010
0100
,
2000
0000
3000
0000
0201
0000
0300
0000
0021
0000
0030
0000
0001
0100
0010
0100
,
0001
0000
0000
0000
0100
0000
0000
0000
0110
0000
0000
0010
1000
0000
0001
0000
,
0200
0000
0010
0000
0302
0000
0010
0000
2003
0000
0010
0000
3001
0010
0100
0010
,
0002
0000
0100
0000
2003
0000
0100
0000
3020
0000
0100
0000
1030
0100
0010
0100
,
2000
0000
0100
0000
3002
0000
0100
0000
0023
0000
0100
0000
0031
0100
0010
0100
,
0002
0000
0010
0000
0203
0000
0010
0000
0302
0000
0010
0000
1003
0010
0001
0010
,
2000
0000
0100
0000
3002
0000
0100
0000
0023
0000
0100
0000
0031
0100
0010
0100
,
0002
0000
0010
0000
2003
0000
0010
0000
3001
0000
0000
0001
0010
0000
0100
0000
,
2000
0000
0100
0000
3020
0000
0100
0000
2030
0000
0100
0000
3001
0100
1000
0100
,
0002
0010
1000
0103
,
0010
0000
1000
0001
0100
0000
0001
0010
0100
0000
1000
0001
0200
0000
0010
0000
,
1000
0000
0010
0000
0001
0000
0010
0000
0310
1000
0001
0000
0010
0000
0000
0000
,
0001
0000
0010
0100
0020
0000
0000
0000
0001
0000
0100
0000
1000
0000
0100
0000
,
0031
0000
0100
0010
0200
0000
0010
0000
1300
0000
0100
0000
0002
0000
1000
0000
,
0013
0000
0001
1000
0010
0000
0100
0001
0010
0000
0001
1000
0020
0000
0100
0000
,
0001
0000
0100
0000
1000
0000
0100
0000
0130
0001
0010
0000
0100
0000
0000
0000
,
1000
0000
0010
0100
0020
0000
0000
0000
1000
0000
0100
0000
0001
0000
0100
0000
,
1030
0000
0100
0010
0200
0000
0010
0000
0301
0000
0100
0000
2000
0000
0010
0000
,
0002
0000
0000
0000
,
0000
0000
0000
0000
,
3003
0000
0000
0000
;
