#VERSION:0.83;
#TITLE:Push on Beats! ~Otoge no kuni no eX-streamer~;
#SUBTITLE:;
#ARTIST:MOSAIC.WAV;
#TITLETRANSLIT:;
#SUBTITLETRANSLIT:;
#ARTISTTRANSLIT:;
#GENRE:;
#ORIGIN:;
#CREDIT:;
#BANNER:Push on Beats ~Otoge no kuni no eX-streamer~.png;
#BACKGROUND:Push on Beats ~Otoge no kuni no eX-streamer~-bg.png;
#PREVIEWVID:;
#JACKET:Push on Beats ~Otoge no kuni no eX-streamer~-jacket.png;
#CDIMAGE:;
#DISCIMAGE:;
#LYRICSPATH:;
#CDTITLE:;
#MUSIC:Push on Beats ~Otoge no kuni no eX-streamer~.ogg;
#OFFSET:-0.050312;
#SAMPLESTART:52.918751;
#SAMPLELENGTH:11.428566;
#SELECTABLE:YES;
#BPMS:0.000=168.000,
220.000=164.000,
250.000=165.000,
252.000=166.000,
254.000=167.000,
256.000=168.000,
258.000=169.000,
260.000=170.000,
262.000=171.000,
264.000=172.000,
281.000=168.000;
#STOPS:;
#DELAYS:;
#WARPS:;
#TIMESIGNATURES:0.000=4=4;
#TICKCOUNTS:0.000=4;
#COMBOS:0.000=1;
#SPEEDS:0.000=1.000=0.000=0;
#SCROLLS:0.000=1.000;
#FAKES:;
#LABELS:0.000=Song Start;
#BGCHANGES:;
#KEYSOUNDS:;
#ATTACKS:
;

//---------------dance-single - ----------------
#NOTEDATA:;
#CHARTNAME:;
#STEPSTYPE:dance-single;
#DESCRIPTION:;
#CHARTSTYLE:;
#DIFFICULTY:Challenge;
#METER:17;
#RADARVALUES:0.974037,0.980125,0.386256,0.142747,1.263729,812.000000,766.000000,46.000000,17.000000,0.000000,0.000000,0.000000,0.000000,0.000000,0.974037,0.980125,0.386256,0.142747,1.263729,812.000000,766.000000,46.000000,17.000000,0.000000,0.000000,0.000000,0.000000,0.000000;
#CREDIT:Daniel Van Eden;
#NOTES:
// measure 0
0000
0000
0000
0000
,  // measure 1
0000
0000
0000
0000
,  // measure 2
0000
0000
0000
0000
,  // measure 3
0000
0000
0000
0000
,  // measure 4
1000
0100
0000
0000
0010
0001
0000
0000
0100
0000
0100
0000
1001
0000
0000
0000
,  // measure 5
0001
0000
0010
0100
1000
0001
1000
0010
0000
0100
0000
0100
0010
0000
1000
0000
,  // measure 6
0001
0000
0010
0100
0010
0000
0100
1000
0000
1000
0010
0000
0100
0001
0100
0010
,  // measure 7
1000
0000
0001
0100
0001
0000
1000
0010
0000
0010
1000
0000
0100
0000
0010
0000
,  // measure 8
0100
1000
0000
0100
0010
0000
0100
0001
0000
0100
0010
0000
0001
0000
0010
0100
,  // measure 9
1000
0000
0010
0100
0001
1000
0001
0010
0000
0011
0000
0001
0100
0000
0001
0000
,  // measure 10
1000
0000
1010
0000
0011
0000
0010
0100
0000
0100
1000
0000
0001
0000
1000
0001
,  // measure 11
1000
0000
0010
1000
0000
0001
1000
0000
0001
0000
0100
0001
0000
1000
0001
0000
,  // measure 12
0010
0000
0000
0110
0000
0000
1100
0000
0000
0000
0100
0010
0001
0000
0000
0000
,  // measure 13
1000
0000
0010
1000
0010
0100
0000
0100
0000
0001
1000
0000
0100
0000
1000
0001
,  // measure 14
0010
0000
0001
0010
0001
1000
0000
1000
0000
0100
0010
0000
0001
1000
0010
1000
,  // measure 15
0001
0000
0100
0001
0100
0010
0000
0010
0000
1000
0001
0000
0010
0000
0001
1000
,  // measure 16
0100
0000
1000
0010
1000
0001
0000
0001
0100
0000
0210
0000
0310
0000
1000
0001
,  // measure 17
1000
0000
0001
0100
0001
0010
0000
0010
0100
0000
1000
0100
0010
0001
0000
1000
,  // measure 18
0010
0000
0100
0000
0001
0010
0000
0100
0010
0001
1000
0010
0100
0000
0001
0000
,  // measure 19
0010
0000
0100
0010
0100
1000
0000
1000
0000
0001
0100
0000
0001
0000
1000
0010
,  // measure 20
1000
0000
0001
1000
0001
0000
0010
0001
0000
1000
0001
0000
0010
0000
0100
1000
,  // measure 21
0001
0000
0100
0010
0100
0001
0000
0010
0000
0010
0100
0000
1000
0000
0001
1000
,  // measure 22
0010
0000
1000
0100
0010
0100
0000
0010
0000
0010
0001
0000
1000
0010
1000
0001
,  // measure 23
0100
0000
0001
1000
0001
0010
0000
0010
0100
0000
1000
0100
0010
0000
0001
0000
,  // measure 24
0101
0000
0000
0000
0110
0000
0000
0000
1010
0000
0000
1001
0000
0000
0011
0000
,  // measure 25
0001
0010
0001
0010
0000
0010
0001
0000
1000
0100
0010
0000
0001
0010
0100
0000
,  // measure 26
1000
0100
1000
0001
1000
0010
1000
0001
0100
0000
0100
0000
0000
0010
0100
0000
,  // measure 27
0001
0100
0001
0100
0010
1000
0001
0010
0100
1000
0100
0000
0010
0001
0000
0001
,  // measure 28
1000
0001
0100
0000
0001
1000
0100
0000
0010
0000
0000
0010
0000
0000
0100
0000
,  // measure 29
1000
0000
0000
1000
0000
0000
0001
0100
0001
0000
0000
0001
0000
0000
1000
0010
,  // measure 30
1000
0010
1000
0010
0100
0000
0001
0010
0001
0000
0000
0010
0000
0000
0100
0000
,  // measure 31
1000
0000
0000
1000
0000
0000
0001
0010
0001
0000
0000
0001
0000
0000
1000
0100
,  // measure 32
1000
0001
1000
0001
1000
0001
1000
0001
1000
0100
0010
0001
0100
0010
1000
0100
,  // measure 33
0010
0000
0010
0000
0010
0000
0001
0010
0000
0000
2100
0000
0000
0000
0000
0000
,  // measure 34
3010
0000
0010
0000
0010
0000
1000
0010
0000
0000
0102
0000
0000
0000
1000
0000
,  // measure 35
1003
0000
0100
0010
0000
0001
0010
0000
0001
0000
0100
0010
0000
1000
0010
0000
,  // measure 36
0000
0000
1010
0000
0000
0101
0000
0000
1001
0000
2000
0000
0000
0000
3100
0000
,  // measure 37
0011
0000
0000
0101
0000
0000
1020
0000
0000
0000
0130
0000
0001
0000
1000
0001
,  // measure 38
0010
0000
1000
0000
0010
0001
0000
0100
0000
0100
0001
0000
1000
0001
0010
0100
,  // measure 39
1000
0000
0100
0000
0001
0000
0100
0010
0000
0010
0100
0000
1000
0000
0001
1000
,  // measure 40
0010
0000
0100
1000
0000
0100
0001
0010
0100
0000
0010
1000
0000
0010
0100
0010
,  // measure 41
0001
0000
1000
0000
1000
0000
0010
1000
0000
1000
0001
0000
0010
0000
0100
0000
,  // measure 42
0010
0000
1000
0000
0010
0000
0001
1000
0000
0010
1000
0000
0001
0000
1000
0010
,  // measure 43
1000
0000
0001
0000
0001
0000
0010
0001
0000
0001
1000
0000
0100
0000
0010
0100
,  // measure 44
0010
0000
0100
1000
0000
0100
0010
0000
0100
0001
0000
0100
0010
0000
0001
1000
,  // measure 45
0001
0000
0000
1100
0000
0000
0021
0000
0000
0000
0130
0000
1000
0000
0001
1000
,  // measure 46
0010
0000
0001
0000
0010
1000
0000
0100
0000
0100
1000
0000
0001
1000
0010
0100
,  // measure 47
0001
0000
0100
0000
1000
0000
0100
0010
0000
0010
1000
0000
0001
1000
0000
1000
,  // measure 48
0010
1000
0010
0100
0010
0100
0001
0100
0001
0010
0001
1000
0100
0010
0001
1000
,  // measure 49
0001
0000
1000
0000
1010
0000
0000
0110
0000
0110
0000
0100
0001
0000
1000
0000
,  // measure 50
1001
0000
0011
0000
0011
0000
0010
0100
0000
1000
0100
0000
0010
0100
1000
0010
,  // measure 51
0100
0000
0001
0000
1000
0010
0000
1000
0001
0000
1000
0000
0001
0010
0000
0001
,  // measure 52
1000
0000
0100
0010
0100
1000
0001
0000
0100
0010
0100
0001
1000
0000
0010
0100
,  // measure 53
0001
0000
0100
0000
0100
0010
0000
1000
0000
1000
0001
0000
1000
0000
0001
1000
,  // measure 54
0001
0000
0010
0000
0100
1000
0000
0001
0000
0001
1000
0000
0220
0000
0330
0000
,  // measure 55
1000
0000
0010
1000
0000
0100
0000
0000
0010
0100
0000
0010
,  // measure 56
0001
0100
0000
0001
0100
0000
0001
0010
0000
0010
0000
0001
0100
0001
0100
0000
,  // measure 57
0010
1000
0100
0000
0010
0100
0000
1000
0010
0000
0100
1000
0000
0100
0010
0000
,  // measure 58
0100
0000
0100
0000
0001
0000
0010
0100
0000
0100
0001
0000
0100
0010
0001
0010
,  // measure 59
0200
0000
0000
0000
1000
0000
0000
0010
0000
0000
0310
0000
0000
0000
0100
1000
,  // measure 60
0020
0000
0000
0000
0100
0000
0130
0000
0101
0000
0100
0000
0001
0010
0001
0010
,  // measure 61
0200
0000
1000
0000
1000
0000
1300
0000
1010
0000
0000
0000
0010
1000
0100
0010
,  // measure 62
0001
0100
0110
0010
1010
1000
1001
0000
,  // measure 63
0001
0000
0000
0000
0000
0000
0000
0000
0100
0000
0000
0000
0010
0000
0000
0000
0000
0000
0000
0000
1000
0000
0000
0000
0100
0000
0000
0010
0000
0000
0000
0000
0000
0100
0000
0000
0010
0000
0000
0000
0000
0000
0100
0000
0000
1000
0000
0000
,  // measure 64
0001
0100
0001
0000
1000
0010
1000
0000
0001
0010
0100
0000
1000
0010
1000
0010
,  // measure 65
0200
0000
0000
0001
0000
0000
0310
0000
2000
0000
0001
0000
0001
0000
3001
0000
,  // measure 66
0021
0000
0130
1000
1000
0010
0010
0100
,  // measure 67
0100
0001
0001
0010
0010
0100
1000
0010
,  // measure 68
0001
0000
1000
0000
0100
0000
0001
0000
1000
0010
1000
0010
0100
0001
0100
0001
,  // measure 69
1000
0100
0010
0001
1000
0010
0100
0001
0020
0000
0000
0000
0000
0000
0000
0000
,  // measure 70
0100
0000
0130
0000
0100
0010
0001
1000
0001
0000
0000
1010
0000
0000
1200
0000
,  // measure 71
0000
0000
0310
0000
0010
0000
0100
1000
0001
0000
0010
0001
0010
0100
0000
0001
,  // measure 72
0000
0001
0100
0000
1000
0010
0100
0001
1000
0000
0010
1000
0010
0000
0001
0010
,  // measure 73
0000
0010
1000
0000
0100
0010
0000
0010
0001
0000
0010
0100
0000
0010
1000
0010
,  // measure 74
0100
0000
1000
0010
0000
0100
0010
0001
0010
0000
0100
0000
0101
0000
0001
1000
,  // measure 75
0000
1010
0000
0010
1000
0000
0001
0000
1001
0000
1100
0000
1100
0000
1000
0001
,  // measure 76
0000
0001
0010
0000
0100
1000
0010
0100
0001
0000
1000
0010
1000
0001
0000
0100
,  // measure 77
0000
0100
0010
0000
1000
0001
0000
0001
1000
0000
0001
0010
0001
1000
0100
0000
,  // measure 78
1000
0010
1000
0001
0100
0000
0010
0100
0010
0000
1000
0001
0100
0000
0001
0010
,  // measure 79
0000
0010
0001
0000
0010
0100
0000
0100
1000
0001
0000
0101
0000
1010
0000
1001
,  // measure 80
0000
1001
0000
1000
0200
0000
0000
0000
0300
0000
0000
0000
0000
0000
0000
0000
;

//---------------dance-single - ----------------
#NOTEDATA:;
#CHARTNAME:;
#STEPSTYPE:dance-single;
#DESCRIPTION:;
#CHARTSTYLE:;
#DIFFICULTY:Hard;
#METER:15;
#RADARVALUES:0.760516,0.777340,0.268700,0.251906,0.730528,634.000000,602.000000,32.000000,30.000000,0.000000,0.000000,0.000000,0.000000,0.000000,0.760516,0.777340,0.268700,0.251906,0.730528,634.000000,602.000000,32.000000,30.000000,0.000000,0.000000,0.000000,0.000000,0.000000;
#CREDIT:Daniel Van Eden;
#NOTES:
0000
0000
0000
0000
,
0000
0000
0000
0000
,
0000
0000
0000
0000
,
0000
0000
0000
0000
,
0000
0000
0000
0000
,
0001
0000
0010
0000
0100
0000
0010
0001
0000
0001
0000
1000
0001
0000
0100
0000
,
0001
0000
1000
0010
1000
0000
0001
1000
0000
1000
0100
0000
0010
0000
0100
0000
,
1000
0000
0001
0100
0001
0000
0010
0100
0000
0100
0010
0000
0001
0000
1000
0000
,
0010
1000
0000
0001
0010
0000
0100
1000
0000
0001
0100
0000
0001
0000
0010
0100
,
1000
0000
0000
0000
1010
0000
0000
0010
0000
0010
0000
1000
0001
0000
0100
0000
,
0001
0000
0011
0000
0011
0000
0010
0100
0000
0100
1000
0000
0001
0000
1000
0000
,
0010
0000
1000
0100
0000
0000
1000
0000
0010
0000
0100
0001
0000
0000
0010
0000
,
0100
0000
0000
0110
0000
0000
1001
0000
0000
0000
0001
1000
0010
0000
0000
0000
,
1000
0000
0001
0000
0100
0000
0010
1000
0000
1000
0010
0000
0100
0000
0001
0000
,
1000
0000
0001
0100
0001
0000
0010
0001
0000
0001
0010
0000
0100
0000
1000
0000
,
0001
0000
1000
0000
0010
0000
0100
0001
0000
0001
0100
0000
0010
0000
1000
0000
,
0001
0000
1000
0100
1000
0000
1000
0001
0000
0000
2002
0000
0000
0000
3003
0000
,
0001
0000
0010
0000
0100
0000
1000
0001
0000
0001
1000
0000
0010
0000
1000
0000
,
0001
0000
0010
0100
0010
0000
0001
1000
0000
1000
0001
0000
0100
0000
0010
0000
,
1000
0000
0100
0000
0010
0000
0001
1000
0000
1000
0001
0000
0010
0000
0100
1000
,
0002
0000
0000
0000
0100
0000
0000
0100
0000
0000
1003
0000
0000
0000
1000
0000
,
1100
0000
0100
0000
1000
0000
0010
1000
0000
0010
0100
0000
0001
0000
1000
0000
,
0001
0000
0010
0000
1000
0000
0010
0100
0000
0010
0001
0000
1000
0000
0001
1000
,
0001
0000
0100
0000
0001
0000
0010
0001
0000
0010
0100
0000
1000
0000
0001
0000
,
1001
0000
0000
0000
1001
0000
0000
0000
0110
0000
0000
1010
0000
0000
0101
0000
,
0001
0100
0001
0100
0000
0001
0100
0000
0020
0000
2030
0000
3002
0000
0023
0000
,
0130
0000
0100
0000
0100
0000
0100
0000
1000
0000
0001
0000
0000
0001
1000
0000
,
0010
1000
0010
1000
0002
0000
0023
0000
0130
1000
0100
0000
0010
0001
0000
1000
,
0001
0100
0001
0000
1000
0100
1000
0000
0100
0000
0000
0100
0000
0000
0010
0000
,
0001
0000
0000
0001
0100
0000
0001
0000
1000
0000
0000
1000
0100
0000
0010
0000
,
0100
0000
0000
0100
0000
0000
0010
0001
1000
0000
0000
0010
0000
0000
0001
0000
,
0010
0000
0000
0010
0100
0000
0001
0000
1000
0000
0000
1000
0100
0000
0010
0000
,
0100
0000
0010
0100
0010
0000
0001
1000
0002
0000
0000
0000
2003
0000
0000
0000
,
3001
0000
0001
0000
0001
0000
1000
0001
0000
0000
1200
0000
0000
0000
0000
0000
,
1300
0000
1000
0000
1000
0000
0001
1000
0000
0000
0102
0000
0000
0000
0000
0000
,
1003
0000
0000
0010
0001
0000
0010
0000
0100
0000
0000
0001
0010
0000
1000
0000
,
0000
0000
1010
0000
0000
0011
0000
0000
1001
0000
0000
0000
0000
0000
0000
0000
,
0010
0000
0000
0100
0000
0000
2002
0000
0000
0000
3003
0000
0001
0000
0010
0000
,
0001
0000
1000
0000
0010
0100
0000
0010
0000
0010
1000
0000
0001
0000
0100
0000
,
0001
0000
0100
0000
1000
0000
0100
0010
0000
0000
0100
0000
0001
0000
1000
0001
,
1000
0000
0000
0100
0000
0000
0001
0000
1000
0000
0000
0010
0000
0000
0001
1000
,
0001
0000
0010
0000
0010
0000
0001
1000
0000
0000
1000
0000
0010
0000
0100
0000
,
0000
1000
0100
0001
0000
0001
0010
0100
,
1000
0000
0010
0000
0010
0000
1000
0001
0000
0000
0001
0000
0010
0000
0100
0010
,
0100
0000
0000
1100
0000
0000
1000
0000
0000
1010
0000
0000
0010
0000
0100
0010
,
0100
0000
0000
0110
0000
0000
2002
0000
0000
0000
3003
0000
1000
0000
0010
0000
,
1000
0000
0001
0000
0010
0100
0000
0010
0000
0010
0001
0000
1000
0000
0100
0000
,
1000
0000
0100
0000
0001
0000
0100
0010
0000
0000
0100
0000
1000
0010
0000
0010
,
1000
0000
0001
0100
0000
0001
1000
0000
0001
0010
0000
0100
1000
0000
0001
1000
,
0001
0000
0100
0000
1000
0000
0100
0001
0000
1000
0000
1000
0001
0000
0010
0000
,
0100
0000
0100
0000
0100
0000
0010
1000
0000
0010
0001
0000
0010
0000
0100
0000
,
1000
0000
0100
0000
0100
0010
0000
0001
0000
0001
1000
0000
0010
1000
0000
1000
,
0001
0000
0000
0101
0000
0000
0100
0000
0000
0110
0000
0000
1010
0000
1000
0000
,
0001
0000
0010
0000
0010
0000
0000
0100
0000
0000
0010
0000
0001
1000
0000
0010
,
0200
0000
0000
0320
,
1030
0000
0000
0100
0000
0100
1000
0000
0000
0010
0000
0100
,
0001
0010
0000
0001
0010
0000
0100
0010
0000
0010
0000
0100
1000
0000
0001
0000
,
1000
0000
0010
0000
1000
0001
0000
1000
0100
0000
1000
0010
0000
0100
0001
0000
,
0010
0000
0010
0000
0001
0000
1000
0100
0000
0100
0010
0000
0001
1000
0001
1000
,
0200
0000
0000
0000
0310
0001
2000
0000
,
3001
0000
0100
0000
0010
0000
0010
0000
1001
0000
1000
0000
0001
0100
0010
1000
,
0002
0100
0100
0103
0110
0000
0010
1000
,
0100
0001
0100
1000
0010
0001
0010
0100
,
0001
0000
0000
0000
0000
0000
0000
0000
1000
0000
0000
0000
0010
0000
0000
0000
0000
0000
0000
0000
1000
0000
0000
0000
0100
0000
0000
0010
0000
0000
0000
0000
0000
0100
0000
0000
0010
0000
0000
0000
0000
0000
0001
0000
0000
0000
0000
0000
,
1000
0000
0010
0000
1000
0001
0000
1000
0100
0000
1000
0000
0001
0100
0001
0000
,
2000
0010
0000
0010
3002
0010
0100
0103
,
0220
0000
0330
1000
0001
0010
0100
1000
,
0010
1000
0001
0100
1000
0100
0001
0010
,
0100
1000
0100
0010
0002
0000
0000
0000
,
0000
0000
0003
0000
,
1000
0000
1000
0000
0001
0000
1000
0000
0100
0000
0000
0010
0000
0000
2002
0000
,
0000
0000
3003
0000
1000
0000
0100
0000
1000
0000
0001
0000
0100
0010
0000
1000
,
0000
1000
0001
0000
0010
0000
0100
0000
1000
0000
0010
0000
0001
0000
0010
0100
,
0000
0000
0100
0000
0001
0010
0000
0010
0100
0000
1000
0100
0000
0010
0001
0000
,
1000
0010
0000
0100
0010
0000
0100
0001
1000
0000
0100
0000
0001
0000
0100
0010
,
0000
0001
0000
0001
1000
0000
0010
0000
0100
0000
0100
0000
0100
0000
0010
1000
,
0000
0010
0001
0000
0010
0000
0100
0000
0001
0000
1000
0000
1000
0010
0000
1000
,
0000
1000
0001
0000
0010
0100
0000
0100
1000
0000
0000
0011
0000
0000
0001
0000
,
0000
1010
0000
0000
1001
0000
1000
0000
0001
0000
0010
0000
0010
0000
0000
0100
,
0000
0000
0010
0000
0100
1000
0000
0001
1000
0001
0000
0100
0000
0010
0000
0010
,
0000
0010
0000
0100
0002
0000
0000
0000
0003
0000
0000
0000
0000
0000
0000
0000
;

//---------------dance-single - ----------------
#NOTEDATA:;
#CHARTNAME:;
#STEPSTYPE:dance-single;
#DESCRIPTION:;
#CHARTSTYLE:;
#DIFFICULTY:Medium;
#METER:12;
#RADARVALUES:0.515808,0.574556,0.125953,0.184731,0.197326,430.000000,415.000000,15.000000,22.000000,0.000000,0.000000,0.000000,0.000000,0.000000,0.515808,0.574556,0.125953,0.184731,0.197326,430.000000,415.000000,15.000000,22.000000,0.000000,0.000000,0.000000,0.000000,0.000000;
#CREDIT:Daniel Van Eden;
#NOTES:
0000
0000
0000
0000
,
0000
0000
0000
0000
,
0000
0000
0000
0000
,
0000
0000
0000
0000
,
0000
0000
0000
0000
,
1000
0000
0010
0000
1000
0000
0000
0001
0000
0000
0001
0000
0010
0000
0000
0000
,
0001
0100
0001
0000
0010
0000
0100
1000
,
0001
0000
1000
0010
1000
0000
0001
0000
,
0100
0000
0000
0100
0000
0000
0010
0000
0000
0010
0000
0000
1000
0000
0001
0000
,
1000
0000
0000
0000
0001
0000
0000
0001
0000
0000
0000
0000
1001
0000
0000
0000
,
1000
0000
1000
0000
1000
0000
0000
1000
0000
0000
0100
0000
0010
0000
0000
0000
,
0001
0000
0100
0010
0100
0000
0001
0000
,
1000
0000
0000
0010
0000
0000
0100
0000
0000
0000
0000
0000
0110
0000
0000
0000
,
1001
0000
1000
0000
0010
0100
0010
1000
,
0001
0000
0010
0000
0100
1000
0001
1000
,
0100
0000
0010
0000
0001
1000
0001
0100
,
0010
0000
1000
0010
0000
0220
0000
0330
,
1001
0000
0001
0000
0010
0100
0010
0001
,
1000
0000
0010
0000
0100
0001
1000
0001
,
0100
0000
0010
0000
1000
0001
1000
0100
,
0010
0100
1000
0001
,
0100
0001
1000
0000
1000
0100
0010
0000
,
0010
0001
1000
0001
0100
0010
0100
0000
,
0010
1000
0001
0000
0001
0010
0100
0000
,
0110
0000
0000
0000
1001
0000
0000
0000
0001
0000
0000
1000
0000
0000
0001
0000
,
1000
0000
0000
1000
0000
0000
1000
0000
0100
0000
0000
0000
0100
0000
0000
0000
,
0010
0010
0010
0010
0001
0001
0000
0001
,
1000
0000
1000
0000
0100
0000
0100
0000
0010
0000
0010
0000
0001
1000
0000
0001
,
1000
0000
0000
0000
1000
0000
0000
0100
0000
0000
0100
0000
0010
0000
0001
0000
,
1000
0000
0000
1000
0000
0000
1000
0000
0001
0000
0000
0000
0000
0000
0001
0000
,
0010
0000
0100
0000
0010
0000
0000
0000
0001
0000
0000
0001
0000
0000
0001
0000
,
0100
0000
0000
0100
0000
0000
0100
0000
0010
0000
0000
0000
0000
0000
1000
0000
,
0001
1000
0001
0010
0200
0000
0000
0000
,
1300
0000
1000
0000
1000
0000
0000
1000
0000
0000
1001
0000
0000
0000
0000
0000
,
0001
0000
0001
0000
0001
0000
0000
0001
0000
0000
1001
0000
0000
0000
0000
0000
,
0001
0000
0000
0100
0000
0000
0010
0000
1000
0000
0000
0100
0000
0000
0010
0000
,
0000
0000
0100
0000
0000
0100
0000
0000
0100
0000
0000
0000
0000
0000
0000
0000
,
1000
0000
0000
0001
0000
0000
2002
0000
0000
0000
3003
0000
1000
0000
0000
0000
,
0010
0100
0010
1000
0001
0000
0010
0000
,
0100
0000
1000
0100
0010
0000
0001
1000
,
0001
0000
0000
0010
0000
0000
0100
0000
0001
0000
0000
0100
0000
0000
1000
0000
,
0001
0000
0100
0000
0010
1000
0010
0000
,
1000
0001
1000
0100
0010
0000
0100
1000
,
0001
0000
1000
0000
0001
0100
0001
0000
,
0010
0000
0000
0010
0000
0000
0100
0000
0000
0100
0000
0000
1000
0000
0000
0000
,
0001
0000
0000
1000
0000
0000
2002
0000
0000
0000
3003
0000
0001
0000
0000
0000
,
0010
0100
0010
0001
1000
0000
0010
0000
,
0100
0000
0001
0100
0010
0000
1000
0001
,
1000
0100
0010
0001
0010
0100
1000
0001
,
1000
0000
0000
0000
0010
0000
0000
0010
0000
0010
0000
0000
0100
0000
0000
0000
,
0001
0000
0001
0000
0001
0000
0000
0010
0000
0010
0000
0000
0100
0000
1000
0000
,
0001
0000
1000
0000
0001
0010
0100
0000
,
1000
0000
0000
1000
0000
0000
0001
0000
0000
0001
0000
0000
1000
0000
0100
0000
,
0010
0000
0100
1000
0000
1000
0001
0000
,
0200
0000
0000
0301
,
0001
0100
0110
0010
,
1000
0001
1000
0000
0100
0010
0100
0000
,
1000
0000
0001
0000
1000
0010
0100
0000
,
0001
0001
1000
0000
0100
0010
0000
0010
,
0002
0000
0000
1000
0000
1003
0000
0000
,
2010
0000
3100
0000
0021
0000
0031
1000
,
0100
0010
0100
0010
0000
0000
0010
0001
,
1000
0010
1000
0010
0100
0001
0100
0001
,
1000
0000
0001
0000
0010
0001
1000
0000
,
0100
0000
0010
0000
0100
1000
0001
0000
,
1000
0010
0100
0000
0001
0010
0100
0000
,
1000
0100
0010
0001
2000
0000
3002
0000
,
0023
0230
2300
3020
,
0230
0000
0302
0000
1003
0010
1000
0100
,
0010
0001
1000
0001
1000
0000
0000
0000
,
0000
0000
0000
0000
0000
0000
0000
0000
0001
0000
0000
1000
0000
0000
2002
0000
,
0000
3003
0001
0000
0010
0100
1000
0100
,
0010
0000
0001
0000
0100
0000
0001
1000
,
0001
0000
0000
0000
1000
0000
0100
0000
0010
0000
0000
0100
0000
0000
0010
0000
,
1000
0000
0000
0010
0000
0000
0001
0000
1000
0000
0000
0000
0001
0000
0000
0001
,
0000
0001
0000
0000
0010
0000
0100
0000
1000
0000
1000
0000
1000
0000
0000
0010
,
0000
0010
0000
0000
0100
0000
0010
0000
1000
0000
0000
0000
0001
0000
0000
0000
,
0100
0000
0001
0000
1000
0000
0000
0000
0100
0000
0000
0100
0000
0000
0010
0000
,
0000
0010
0000
0000
0001
0000
1000
0000
0001
0000
0010
0000
0010
0000
0000
0100
,
0000
0000
1000
0000
0000
0000
1000
0000
0001
1000
0000
0001
0000
1000
0000
0001
,
0000
0010
0000
0100
2000
0000
0000
0000
3000
0000
0000
0000
0000
0000
0000
0000
;

//---------------dance-single - ----------------
#NOTEDATA:;
#CHARTNAME:;
#STEPSTYPE:dance-single;
#DESCRIPTION:;
#CHARTSTYLE:;
#DIFFICULTY:Easy;
#METER:9;
#RADARVALUES:0.370662,0.471694,0.083969,0.193128,0.075572,309.000000,299.000000,10.000000,23.000000,0.000000,0.000000,0.000000,0.000000,0.000000,0.370662,0.471694,0.083969,0.193128,0.075572,309.000000,299.000000,10.000000,23.000000,0.000000,0.000000,0.000000,0.000000,0.000000;
#CREDIT:Daniel Van Eden;
#NOTES:
0000
0000
0000
0000
,
0000
0000
0000
0000
,
0000
0000
0000
0000
,
0000
0000
0000
0000
,
0000
0000
0000
0000
,
1000
0100
1000
0001
,
0010
0001
0010
0000
0001
0000
1000
0000
,
0010
1000
0010
0000
0100
0000
0001
0000
,
1000
0100
0001
0100
,
1000
0000
0000
0000
1000
0000
0000
1000
0000
0000
0000
0000
1000
0000
0000
0000
,
0001
0000
0000
0000
0001
0000
0000
0001
0000
0000
0000
0000
0001
0000
0000
0000
,
0010
0001
1000
0010
,
1000
0000
0000
0001
0000
0000
1000
0000
0000
0000
0001
0000
1000
0000
0000
0000
,
0100
0010
0010
0100
,
1000
0000
0001
0000
1000
0010
1000
0000
,
0001
0100
0100
0001
,
1000
0000
0010
0000
0100
0001
0100
0000
,
0001
0010
0010
0001
,
1000
0000
0100
0000
1000
0001
1000
0000
,
0001
0010
0010
0001
,
1000
0000
0000
0000
,
0100
0010
0001
1000
,
0010
0000
1000
0000
0001
1000
0001
0000
,
0100
0010
1000
0001
,
0010
0000
0000
0000
0010
0000
0000
0000
0010
0000
0000
0010
0000
0000
0010
0000
,
0200
0000
2300
0000
,
3020
0000
0230
0000
,
0302
0023
0230
2300
,
3001
1001
1001
0000
,
2000
0000
3100
0000
,
0002
0010
1003
0000
,
2000
0000
3001
0000
,
0001
1000
0001
1000
0001
0000
0000
0000
,
1000
0000
0000
1000
0000
2000
0000
0000
,
3001
0000
0000
0001
0000
0002
0000
0000
,
0013
0100
0010
0001
,
0000
0000
1000
0000
0000
0001
0000
0000
1000
0000
0000
0000
0000
0000
0000
0000
,
0010
0000
0000
0010
0000
0000
0010
0000
0000
0000
0000
0000
1000
0000
0000
0000
,
0100
0010
0001
0100
,
0010
0000
1000
0001
1000
0000
0001
0000
,
0020
0130
0200
1300
,
0001
0000
0010
0001
0010
0000
0001
0000
,
1000
0000
0100
1000
0100
0000
1000
0000
,
0010
0100
0001
1000
,
0001
0000
0000
1000
0000
0000
0001
0000
0000
1000
0000
0000
0001
0000
0000
0000
,
0100
0000
0000
0100
0000
0000
0100
0000
0000
0000
0000
0000
0001
0000
0000
0000
,
0100
0010
1000
0100
,
0010
0000
0001
1000
0001
0000
1000
0000
,
0020
0130
0200
0301
,
0001
0000
0000
0000
0010
0000
0000
0010
0000
0000
0000
0000
0001
0000
0000
0000
,
1000
0000
0000
0000
0100
0000
0000
0100
0000
0000
0000
0000
1000
0000
0000
0000
,
0010
0100
0001
1000
,
0001
0000
0000
1000
0000
0000
0001
0000
0000
1000
0000
0000
0001
0000
0000
0000
,
1001
0000
0000
0000
0000
1000
0000
0000
,
0002
0000
0000
0000
,
0013
0000
0100
0000
,
1000
0001
1000
0010
,
0100
0010
1000
0100
,
0010
0000
0001
0000
1000
0001
1000
0000
,
0200
0000
0000
1300
,
1001
0000
0001
0000
1000
0000
0010
0100
,
0020
0000
1030
0001
,
0010
0000
0100
0000
1000
0001
1000
0001
,
1000
0100
0110
0010
,
0011
0001
1001
1000
,
1010
0010
0110
0100
,
1001
0001
1000
1000
,
0001
0010
0100
1000
,
0010
0000
0100
0000
0001
1000
0001
1000
,
0001
1000
0001
1000
0001
0000
0000
0000
,
0000
0000
0000
0000
0000
0000
0000
0000
0001
0000
0000
0001
0000
0000
0001
0000
,
0000
1000
0010
0100
,
0001
0000
0010
0000
0100
0000
1000
0001
,
1000
0001
0020
0130
,
0200
0000
0000
0000
1300
0000
0000
0000
0001
0000
0000
0000
1000
0000
0000
1000
,
0000
0000
0000
0000
0001
0000
0000
0000
1000
0000
0000
0000
0001
0000
0000
0001
,
0000
0000
0010
0000
0100
1000
0100
0000
,
0010
0000
0001
0000
0010
0000
0000
0000
0001
0000
0000
1000
0000
0000
0001
0000
,
0000
1000
0000
0000
0001
0000
0000
0000
0100
0000
0000
0000
0100
0000
0000
0000
,
0001
1000
0000
1000
0002
0000
0000
0000
,
0000
1003
0000
0000
;

//---------------dance-single - ----------------
#NOTEDATA:;
#CHARTNAME:;
#STEPSTYPE:dance-single;
#DESCRIPTION:;
#CHARTSTYLE:;
#DIFFICULTY:Beginner;
#METER:4;
#RADARVALUES:0.207523,0.269540,0.067175,0.000000,0.000000,173.000000,165.000000,8.000000,0.000000,0.000000,0.000000,0.000000,0.000000,0.000000,0.207523,0.269540,0.067175,0.000000,0.000000,173.000000,165.000000,8.000000,0.000000,0.000000,0.000000,0.000000,0.000000,0.000000;
#CREDIT:Daniel Van Eden;
#NOTES:
0000
0000
0000
0000
,
0000
0000
0000
0000
,
0000
0000
0000
0000
,
0000
0000
0000
0000
,
0001
0000
1000
0000
,
0001
0001
0100
0000
,
0001
0000
0010
0000
,
0100
0000
1000
0000
,
0010
0010
0010
0000
,
1000
1000
0001
0000
,
0001
0001
1000
0000
,
0001
0000
0100
0000
,
0001
0000
0000
1000
0000
0000
1001
0000
,
0000
0001
0000
0010
,
0000
0100
0000
1000
,
0000
1000
0000
0010
,
0100
0100
0100
0000
,
0000
0001
0000
1000
,
0000
0100
0000
0010
,
0000
0100
0000
1000
,
0001
0000
0000
0000
,
1001
0000
1000
0000
,
0010
0010
0010
0000
,
1000
0000
0001
0000
,
0010
0010
0010
0010
,
0001
0000
0010
0000
,
0100
0000
1000
0000
,
0001
0010
0100
1000
,
0001
0000
1001
0000
,
1000
0000
0000
0000
,
0010
0000
0000
0000
,
0100
0000
0000
0000
,
0001
0001
0001
0000
,
0010
0000
0000
0000
0000
0010
0000
0000
,
0100
0000
0000
0000
0000
0100
0000
0000
,
1000
0000
0001
1000
,
0000
0000
0110
0000
,
1000
0000
0000
1001
0000
0000
0000
0000
,
0001
0000
0010
0000
,
0100
0000
1000
0000
,
0001
1000
0001
0000
,
0100
0000
0010
0000
,
1000
0000
1000
0000
,
0001
0000
0010
0000
,
0001
0000
0000
1000
0000
0000
0001
0000
,
0001
0000
0000
1001
0000
0000
0000
0000
,
1000
0000
0010
0000
,
0100
0000
0010
0000
,
1000
0001
1000
0000
,
0100
0000
0100
0100
,
0010
0000
0010
0010
,
0001
0000
1000
0000
,
0001
0000
0000
1000
0000
0000
0001
0000
,
0100
0000
0000
0000
0000
0100
0000
0000
,
0010
0000
0000
0000
,
1000
0000
0000
0000
,
0100
0000
0000
0000
,
0010
0000
0000
0000
,
0001
0000
0000
0000
,
1000
0000
0000
0000
,
0010
0000
0000
0000
,
1000
0000
0000
0000
,
0100
0000
0000
0000
,
0010
0000
0001
0000
,
1000
0000
0010
0000
,
0100
0000
0001
0000
,
1000
0000
0100
0100
,
0100
0000
0010
0010
,
0010
0000
0001
0001
,
1000
1000
0001
0000
,
0000
0000
0000
0000
1000
0000
0000
1001
,
0000
0000
0001
0000
,
0010
0000
0100
0000
,
0010
0000
0001
1000
,
0001
0000
0100
0100
,
0000
0100
0010
0010
,
0000
0010
0001
0000
,
1000
0000
0010
0100
,
0010
0000
1000
0000
,
0000
0001
0000
0000
1000
0000
0000
0000
,
0000
1001
0000
0000
;
