#TITLE:Pumpin';
#SUBTITLE:;
#ARTIST:Z-i-V Sound Team "TonyAkita";
#TITLETRANSLIT:;
#SUBTITLETRANSLIT:;
#ARTISTTRANSLIT:;
#GENRE:TECHNO;
#CREDIT:;
#BANNER:pumpin.png;
#BACKGROUND:pumpin-bg.png;
#LYRICSPATH:;
#CDTITLE:;
#MUSIC:pumpin.ogg;
#OFFSET:-0.023400;
#SAMPLESTART:32.662998;
#SAMPLELENGTH:16.000000;
#SELECTABLE:YES;
#BPMS:0.000000=124.999992
;
#STOPS:
;
#BGCHANGES:;
#KEYSOUNDS:;
#ATTACKS:;

//---------------dance-single - ----------------
#NOTES:
     dance-single:
     :
     Hard:
     14:
     0.435527,0.476543,0.187460,0.078930,0.759706,309.000000,290.000000,19.000000,8.000000,0.000000,0.000000,0.435527,0.476543,0.187460,0.078930,0.759706,309.000000,290.000000,19.000000,8.000000,0.000000,0.000000:
0000
0000
0000
0000
,
0000
0000
0000
0000
,
0000
0000
0000
0000
,
0000
0000
0000
0000
,
1001
0000
1000
0000
1000
0000
0000
0001
0000
0010
0000
0001
0000
0000
0010
0100
,
1000
0000
0010
0000
1000
0000
0000
0010
0000
0010
0000
0010
0000
1000
0010
0100
,
0001
0000
0001
0000
0001
0000
0000
1000
0000
0010
0000
1000
0000
0000
0010
0100
,
0001
0000
0010
0000
0001
0000
0000
0010
0000
0010
0000
0010
0000
0001
0010
0100
,
2000
0000
0000
3000
,
1001
0000
0000
1000
0001
0000
0000
0100
0000
1000
0000
0100
0000
0001
0100
0010
,
1000
0000
0000
0001
0010
0000
0000
0100
0000
1000
0000
0010
0000
0100
0010
0100
,
0001
0000
0000
0001
1000
0000
0000
0100
0000
0001
0000
0100
0000
1000
0100
0010
,
0001
0000
0000
1000
0010
0000
0000
0100
0000
0001
0000
0010
0000
0001
0010
0100
,
1000
0000
1000
0000
1000
0000
0000
0001
0000
0100
0000
0001
0000
0000
0100
0010
,
1000
0000
1000
0000
1000
0000
0000
0001
0000
1000
0100
1000
0000
1000
0010
0100
,
0001
0000
0001
0000
0001
0000
0000
1000
0000
0100
0000
1000
0000
0000
0100
0010
,
0001
0000
0001
0000
0001
0000
0000
1000
0000
1000
0000
1000
0000
0001
0010
0100
,
1000
0000
1000
0000
1010
0000
0000
0001
0000
0100
0000
0001
0000
0000
0100
0010
,
1000
0000
0100
0000
1000
0000
0000
0010
0000
0010
0000
0010
0000
1000
0010
0100
,
0001
0000
0001
0000
0011
0000
0000
1000
0000
0100
0000
1000
0000
0000
0100
0010
,
0001
0000
0100
0000
0001
0000
0000
0010
0000
0010
0000
0010
0000
0001
0010
0100
,
1000
0000
1000
0000
1100
0000
0000
0001
0000
1000
0000
0001
0000
0000
1000
0100
,
0010
0000
0001
0000
0010
0000
0000
0100
0000
0100
0000
0100
0000
1000
0010
0100
,
0001
0000
0001
0000
0101
0000
0000
1000
0000
0001
0000
1000
0000
0000
0001
0100
,
0020
0000
0000
0000
,
0030
0000
0000
0000
,
2000
0000
0000
0000
0000
0000
0000
0000
0000
0000
0000
0000
3000
0000
0001
1000
,
0000
0000
0000
0000
0000
0000
0000
0000
0001
0000
0010
0000
0100
0000
1000
0020
,
0000
0000
0000
0000
,
0000
0030
0200
0300
,
0101
0000
0000
0001
1000
0000
0000
0100
0000
0001
0000
0100
0000
0000
0010
0001
,
0010
0000
0000
0001
1000
0000
0000
0100
0000
1000
0000
0010
0000
1000
0001
1000
,
0001
0000
0000
1000
0001
0000
0000
0100
0000
1000
0000
0100
0000
0000
0010
1000
,
0010
0000
0000
1000
0001
0000
0000
0100
0000
0001
0000
0010
0000
0000
0000
0000
,
0011
0000
1000
0000
0011
0000
0000
1000
0000
0001
0000
1000
0000
0000
0000
0000
,
1010
0000
0000
0001
0000
0000
1010
0000
0000
0000
0000
0000
0010
0000
0100
0000
0010
0000
0100
0000
0010
0000
0100
0000
,
0101
0000
1000
0000
0101
0000
0000
1000
0000
0001
0000
1000
0000
0000
0000
0000
,
1100
0001
2200
0000
0000
0000
3300
0000
,
0001
0000
0001
0000
0011
0000
0000
1000
0000
0100
0000
1000
0000
0000
0010
0100
,
0001
0000
0010
0000
0001
0000
0000
0010
0000
0010
0000
0010
0000
0001
0010
0100
,
1000
0000
1000
0000
1010
0000
0000
0001
0000
0100
0000
0001
0000
0000
0010
0100
,
1000
0000
0010
0000
1000
0000
0000
0010
0000
0010
0000
0010
0000
1000
0010
0100
,
0001
0000
0001
0000
0101
0000
0000
0001
0000
1000
0000
0001
0000
0000
1000
0100
,
0010
0000
0001
0000
0010
0000
0000
0100
0000
0100
0000
0100
0000
1000
0100
0010
,
0001
0000
0001
0000
0101
0000
0000
1000
0000
0001
0000
1000
0000
0000
0001
0100
,
0020
0000
0000
0000
,
0030
0000
0000
0000
;

//---------------dance-single - ----------------
#NOTES:
     dance-single:
     :
     Medium:
     9:
     0.297399,0.340388,0.069064,0.098663,0.463717,211.000000,204.000000,7.000000,10.000000,0.000000,0.000000,0.297399,0.340388,0.069064,0.098663,0.463717,211.000000,204.000000,7.000000,10.000000,0.000000,0.000000:
0000
0000
0000
0000
,
0000
0000
0000
0000
,
0000
0000
0000
0000
,
0000
0000
0000
0000
,
1000
0000
1000
0000
1000
0000
0000
0001
0000
0001
0000
0001
0000
0000
0000
0000
,
0001
0000
0010
0000
0001
0000
0000
1000
0000
0100
0000
1000
0000
0000
0000
0000
,
0001
0000
0001
0000
0001
0000
0000
1000
0000
1000
0000
1000
0000
0000
0000
0000
,
1000
0000
0010
0000
1000
0000
0000
0001
0000
0100
0000
0001
0000
0000
0000
0000
,
2002
0000
0000
3003
,
1000
0000
0000
0000
0010
0000
0000
0100
0000
0001
0000
0010
0000
0000
0000
0000
,
0100
0000
0000
0000
1000
0000
0000
0001
0000
0100
0000
0010
0000
0000
1000
0000
,
0001
0000
0000
0000
0010
0000
0000
0100
0000
1000
0000
0010
0000
0000
0000
0000
,
0100
0000
0000
0000
0001
0000
0000
1000
0000
0010
0000
0100
0000
0000
0000
0000
,
0001
0000
0100
0000
0001
0000
0000
0010
0000
0001
0000
0010
0000
0000
0100
0000
,
1000
0000
0010
0000
1000
0000
0000
0101
0000
0000
0000
1001
0000
0000
0000
0000
,
1000
0000
0100
0000
1000
0000
0000
0010
0000
1000
0000
0010
0000
0000
0100
0000
,
0001
0000
0010
0000
0001
0000
0000
0100
0000
0000
0000
0100
0000
0000
0000
0000
,
0001
0000
0001
0000
0001
0000
0000
1000
0000
1000
0000
1000
0000
0000
0000
0000
,
1000
0000
0100
0000
1000
0000
0000
0010
0000
1000
0000
0001
0000
0000
0000
0000
,
1000
0000
1000
0000
1000
0000
0000
0001
0000
0001
0000
0001
0000
0000
0000
0000
,
0001
0000
0100
0000
0001
0000
0000
0010
0000
0001
0000
1000
0000
0000
0000
0000
,
1000
0000
0100
0000
1000
0000
0000
0010
0000
1000
0000
0010
0000
0000
0000
0000
,
0100
0000
0001
0000
0010
0000
0000
0010
0000
0100
0000
1000
0000
0000
0000
0000
,
0001
0000
0100
0000
0001
0000
0000
0010
0000
0001
0000
0010
0000
0000
0000
0000
,
0220
0000
0000
0000
,
0330
0000
0000
0000
,
2000
0000
0000
0000
0000
3000
0000
0101
,
0000
0000
0000
0001
0010
0100
1000
0020
,
0000
0000
0000
0000
,
0030
0000
0101
0000
,
0001
0000
0000
0000
0100
0000
0000
0010
0000
1000
0000
0100
0000
0000
0000
0000
,
0010
0000
0000
0000
0001
0000
0000
1000
0000
0010
0000
0100
0000
0000
0001
0000
,
1000
0000
0000
0000
0100
0000
0000
0010
0000
0001
0000
0100
0000
0000
0000
0000
,
0010
0000
0000
0000
1000
0000
0000
0001
0000
0010
0000
0100
0000
0000
0000
0000
,
1000
0000
0100
0000
1000
0000
0000
0001
0000
1000
0000
0001
0000
0000
0000
0000
,
0100
0001
0100
0000
0020
0000
0000
0000
,
1030
0000
0010
0000
1000
0000
0000
0001
0000
1000
0000
0001
0000
0000
0000
0000
,
0010
0001
0020
0000
0000
0000
0030
0000
,
0001
0000
0001
0000
0001
0000
0000
1000
0000
1000
0000
1000
0000
0000
0000
0000
,
1000
0000
0100
0000
1000
0000
0000
0010
0000
1000
0000
0001
0000
0000
0000
0000
,
1000
0000
1000
0000
1000
0000
0000
0001
0000
0001
0000
0001
0000
0000
0000
0000
,
0001
0000
0100
0000
0001
0000
0000
0010
0000
0001
0000
1000
0000
0000
0000
0000
,
0001
0000
0100
0000
0001
0000
0000
0010
0000
0001
0000
0010
0000
0000
0000
0000
,
0100
0000
1000
0000
0010
0000
0000
0010
0000
0100
0000
0001
0000
0000
0000
0000
,
1000
0000
0100
0000
1000
0000
0000
0010
0000
1000
0000
0010
0000
0000
0000
0000
,
0220
0000
0000
0000
,
0330
0000
0000
0000
;

//---------------dance-single - ----------------
#NOTES:
     dance-single:
     :
     Easy:
     6:
     0.218468,0.295003,0.315722,0.118396,0.029599,155.000000,123.000000,32.000000,12.000000,0.000000,0.000000,0.218468,0.295003,0.315722,0.118396,0.029599,155.000000,123.000000,32.000000,12.000000,0.000000,0.000000:
// measure 0
0000
0000
0000
0000
,  // measure 1
0000
0000
0000
0000
,  // measure 2
0000
0000
0000
0000
,  // measure 3
0000
0000
0000
0000
,  // measure 4
1100
0000
0000
0001
0000
0000
0000
0000
,  // measure 5
1000
0000
0000
0010
0000
0000
0100
0000
,  // measure 6
0101
0000
0000
1000
0000
0000
0000
0000
,  // measure 7
0001
0000
0000
0010
0000
0000
0100
0000
,  // measure 8
2000
0000
0000
3000
,  // measure 9
1001
0101
0001
1000
,  // measure 10
0100
0011
1000
1000
,  // measure 11
1001
1100
1000
0001
,  // measure 12
0100
1010
0001
0001
,  // measure 13
1000
1000
1000
0000
0010
0000
0100
0000
,  // measure 14
0001
0001
0001
0000
1000
0000
1000
0000
,  // measure 15
0010
0010
0010
0000
1000
0000
0001
0000
,  // measure 16
0100
0100
0100
0000
0010
0000
0010
0000
,  // measure 17
1010
0000
0000
0002
0000
0000
0003
0000
,  // measure 18
1100
0000
1000
0001
,  // measure 19
0101
0000
0000
2000
0000
0000
3000
0000
,  // measure 20
0011
0000
0001
1000
,  // measure 21
1100
0000
0000
0101
0000
0000
0000
0000
,  // measure 22
1000
0000
0001
0010
,  // measure 23
0011
0000
0000
1010
0000
0000
0000
0000
,  // measure 24
2002
0000
0000
0000
,  // measure 25
3003
0000
0000
0000
,  // measure 26
2000
0000
0000
0000
,  // measure 27
3000
0000
1000
0001
,  // measure 28
0020
0000
0000
0000
,  // measure 29
0030
0000
0100
0000
,  // measure 30
1100
1001
1000
0001
,  // measure 31
0100
1010
0001
0001
,  // measure 32
0101
1001
0001
1000
,  // measure 33
0100
0011
1000
1000
,  // measure 34
1000
0000
1000
0000
1000
0000
0000
0001
0000
0001
0000
0001
0000
0000
0000
0000
,  // measure 35
0100
0100
0100
0000
0020
0000
0030
0000
,  // measure 36
0010
0000
0010
0000
0010
0000
0000
1000
0000
1000
0000
1000
0000
0000
0000
0000
,  // measure 37
0001
0001
0001
0000
0000
0000
0000
0000
,  // measure 38
0101
0000
0000
2000
0000
0000
3000
0000
,  // measure 39
0011
0000
0001
1000
,  // measure 40
1100
0000
0000
0002
0000
0000
0003
0000
,  // measure 41
1010
0000
1000
0001
,  // measure 42
0101
0000
0000
1100
0000
0000
0000
0000
,  // measure 43
0001
0000
1000
0010
,  // measure 44
1010
0000
0000
0011
0000
0000
0000
0000
,  // measure 45
2002
0000
0000
0000
,  // measure 46
3003
0000
0000
0000
;
