#TITLE:Prison Song;
#SUBTITLE:;
#ARTIST:System of a Down;
#TITLETRANSLIT:;
#SUBTITLETRANSLIT:;
#ARTISTTRANSLIT:;
#GENRE:;
#CREDIT:;
#BANNER:banner.png;
#BACKGROUND:bg.png;
#LYRICSPATH:;
#CDTITLE:;
#MUSIC:Prison Song.ogg;
#OFFSET:-0.147000;
#SAMPLESTART:64.921745;
#SAMPLELENGTH:18.969917;
#SELECTABLE:YES;
#DISPLAYBPM:85.000000:210.000000;
#BPMS:0.000000=187.666000
,12.000000=205.000000
,28.000000=206.100006
,40.000000=205.000000
,56.000000=197.500000
,70.000000=205.000000
,82.000000=196.800003
,88.000000=210.000000
,89.000000=194.000000
,89.500000=212.000000
,91.000000=200.000000
,92.000000=205.000000
,94.000000=217.000000
,94.500000=204.000000
,96.500000=206.000000
,97.500000=216.000000
,98.000000=198.000000
,99.000000=209.000000
,100.000000=197.000000
,101.500000=229.000000
,102.000000=208.000000
,102.500000=194.000000
,103.000000=202.000000
,104.000000=210.000000
,105.000000=218.000000
,105.500000=208.000000
,106.500000=209.000000
,108.000000=201.000000
,109.000000=213.000000
,109.500000=220.000000
,110.500000=180.000000
,111.000000=209.000000
,112.000000=193.000000
,112.500000=204.000000
,113.500000=229.000000
,114.000000=205.000000
,115.000000=215.000000
,116.000000=205.000000
,117.000000=225.000000
,118.000000=199.000000
,119.000000=205.000000
,120.000000=203.000000
,120.500000=207.000000
,121.500000=209.000000
,122.500000=210.000000
,123.000000=204.000000
,124.000000=217.500000
,125.000000=206.000000
,125.500000=207.000000
,126.500000=224.000000
,127.000000=206.000000
,128.000000=208.000000
,129.000000=214.500000
,130.000000=216.500000
,131.000000=208.500000
,132.000000=216.000000
,133.000000=211.000000
,134.500000=203.000000
,135.000000=229.000000
,135.500000=206.000000
,136.000000=253.000000
,136.500000=206.000000
,137.000000=195.000000
,137.500000=215.000000
,139.000000=201.000000
,140.000000=211.000000
,140.500000=206.000000
,141.500000=212.000000
,142.000000=202.000000
,142.500000=207.000000
,143.000000=202.000000
,144.000000=216.000000
,144.500000=208.000000
,145.000000=207.000000
,145.500000=206.000000
,147.000000=204.000000
,148.000000=213.000000
,148.500000=207.000000
,149.000000=204.000000
,149.500000=210.000000
,150.000000=206.000000
,150.500000=204.000000
,151.000000=211.000000
,152.500000=208.000000
,153.000000=219.000000
,153.500000=239.000000
,154.000000=205.000000
,155.000000=197.000000
,156.000000=211.000000
,157.000000=210.000000
,159.000000=189.000000
,160.000000=197.000000
,163.000000=210.000000
,164.000000=198.000000
,165.000000=195.000000
,168.000000=200.000000
,169.000000=204.000000
,170.000000=208.000000
,171.000000=196.000000
,172.000000=205.000000
,173.000000=192.000000
,174.000000=216.000000
,175.000000=188.000000
,176.000000=191.000000
,178.000000=205.000000
,179.000000=199.000000
,180.000000=196.000000
,181.000000=204.000000
,182.000000=189.000000
,183.000000=210.000000
,186.000000=194.000000
,187.000000=199.000000
,188.000000=191.000000
,189.000000=201.000000
,191.000000=187.000000
,192.000000=205.000000
,193.000000=193.000000
,194.000000=207.000000
,195.000000=200.000000
,196.000000=180.000000
,197.000000=200.000000
,198.000000=160.000000
,199.000000=212.000000
,200.000000=191.000000
,201.000000=202.000000
,202.000000=197.000000
,203.000000=196.000000
,204.000000=201.000000
,205.000000=194.000000
,206.000000=205.000000
,207.000000=194.000000
,208.000000=187.000000
,209.000000=204.000000
,210.000000=210.000000
,211.000000=201.000000
,212.000000=220.000000
,213.000000=210.000000
,214.000000=219.000000
,215.000000=198.000000
,217.000000=187.000000
,218.000000=192.000000
,219.000000=201.000000
,222.000000=212.000000
,223.000000=199.000000
,224.000000=213.000000
,225.000000=203.000000
,226.000000=196.000000
,227.000000=192.000000
,228.000000=203.000000
,229.000000=204.000000
,230.000000=194.000000
,231.000000=205.000000
,232.000000=204.000000
,234.000000=207.000000
,235.000000=191.000000
,236.000000=197.000000
,237.000000=202.000000
,238.000000=190.000000
,239.000000=198.000000
,240.000000=201.000000
,243.000000=196.000000
,244.000000=204.000000
,246.000000=202.000000
,248.000000=216.000000
,249.000000=200.000000
,252.000000=198.000000
,253.000000=202.000000
,254.000000=199.000000
,255.000000=203.000000
,257.000000=193.000000
,258.000000=196.000000
,259.000000=204.000000
,260.000000=199.000000
,261.000000=202.000000
,262.000000=201.000000
,263.000000=198.000000
,266.000000=196.000000
,267.000000=199.000000
,268.000000=205.000000
,269.000000=209.000000
,271.000000=204.000000
,272.000000=207.000000
,273.000000=198.000000
,275.000000=201.000000
,276.000000=198.000000
,278.000000=205.000000
,279.000000=200.000000
,282.000000=198.000000
,283.000000=194.000000
,284.000000=200.000000
,285.000000=194.000000
,286.000000=202.000000
,288.000000=198.000000
,289.000000=189.000000
,291.000000=195.000000
,293.000000=190.000000
,294.000000=180.000000
,295.000000=190.000000
,296.000000=198.000000
,297.000000=199.000000
,298.000000=194.000000
,299.000000=198.000000
,301.000000=195.000000
,302.000000=203.000000
,303.000000=198.000000
,305.000000=200.000000
,308.000000=210.000000
,311.000000=199.000000
,313.000000=197.000000
,314.000000=194.000000
,315.000000=193.000000
,317.000000=200.000000
,318.000000=202.000000
,319.000000=196.000000
,320.000000=201.000000
,322.000000=207.000000
,323.000000=195.000000
,324.000000=200.000000
,326.000000=210.000000
,328.500000=198.000000
,330.000000=205.000000
,332.000000=209.000000
,333.000000=207.000000
,334.000000=204.000000
,335.000000=200.000000
,337.000000=205.000000
,338.000000=200.000000
,339.000000=192.000000
,340.000000=210.000000
,341.000000=211.000000
,344.000000=204.000000
,345.000000=192.000000
,346.000000=201.000000
,347.000000=204.000000
,348.000000=209.000000
,349.000000=206.000000
,351.000000=209.000000
,352.000000=208.000000
,355.000000=211.000000
,356.000000=207.000000
,357.000000=210.000000
,358.000000=206.000000
,359.000000=208.000000
,360.000000=204.000000
,361.000000=202.000000
,362.000000=204.000000
,363.000000=212.000000
,365.000000=206.000000
,366.000000=215.000000
,367.000000=205.000000
,368.000000=206.000000
,370.000000=208.000000
,371.000000=199.000000
,372.000000=207.000000
,373.000000=200.000000
,374.000000=205.000000
,375.000000=197.000000
,376.000000=145.000000
,385.000000=144.000000
,386.000000=143.000000
,387.000000=114.000000
,391.000000=85.000000
;
#STOPS:
;
#BGCHANGES:;
#KEYSOUNDS:;
#ATTACKS:;

//---------------dance-single - ----------------
#NOTES:
     dance-single:
     :
     Challenge:
     16:
     0.676793,0.980454,0.313745,0.250996,0.509836,604.000000,564.000000,40.000000,32.000000,158.000000,0.000000,0.676793,0.980454,0.313745,0.250996,0.509836,604.000000,564.000000,40.000000,32.000000,158.000000,0.000000:
00M0
0000
0000
0000
,
0000
0000
0000
0000
,
0000
0000
0000
0000
,
110M
0110
0011
0110
,
1100
0110
0011
0110
,
1100
0110
0011
0110
,
1100
0000
0000
0000
0110
0000
0000
0000
0100
000M
0100
000M
0100
000M
0200
0000
,
0000
0000
M000
0000
00M0
0000
M000
0000
00M0
0000
M000
0000
00M0
0000
0000
M000
,
M000
M000
M000
M000
M000
M000
M300
0000
0000
0000
0000
0000
0000
0000
0000
0000
,
0000
0000
0000
0000
,
M101
0110
1010
0110
,
0101
0110
1010
0110
,
0101
0110
1010
0110
,
0101
0000
0000
0000
0110
0000
0000
0000
0100
M000
0100
M000
0100
M000
0200
0000
,
0000
0000
000M
0000
00M0
0000
000M
0000
00M0
0000
000M
0000
00M0
0000
0000
000M
,
000M
000M
000M
000M
000M
000M
030M
0000
0000
0000
0000
0000
0000
0000
0000
0000
,
0000
0000
0000
0000
,
0000
0000
1100
0110
,
0011
0110
1100
0110
,
0011
0110
1100
0110
,
0011
0110
0000
0000
,
0000
0000
0000
0000
,
0100
M000
0100
M000
0100
M000
0100
0000
0000
0000
0001
0000
1000
0000
0010
0000
,
0100
000M
0100
0000
1000
0000
0100
0000
0000
0000
0M01
0000
1000
0000
0010
0000
,
0100
000M
0100
0000
1000
0000
0100
0000
0000
0000
0M01
0000
1000
0000
0010
0000
,
0100
000M
0100
0000
1000
0000
0100
0000
0000
0000
0M01
0000
1000
0000
0010
0000
,
0100
000M
0100
000M
0100
000M
0100
0000
0000
0000
1000
0000
0001
0000
0010
0000
,
0100
M000
0100
0000
0001
0000
0100
0000
0000
0000
1M00
0000
0001
0000
0010
0000
,
0100
0100
0001
0100
0000
1M00
0001
0010
,
0100
M000
0100
0000
0001
0000
0100
0000
0000
0000
1M00
0000
0001
0000
0010
0000
,
0100
M000
0100
M000
0100
M000
0100
0000
0000
0000
0001
0000
1000
0000
0001
0010
,
0001
0000
1000
0010
1000
0000
0001
0100
0001
0000
1000
0100
1000
0000
0001
0010
,
0001
0000
1000
0010
1000
0000
0001
0010
0100
0000
1000
0001
0100
0000
0010
1000
,
0001
0000
0010
0001
1000
0000
0010
0100
0001
0000
0010
0100
1000
0000
0001
0010
,
0100
M000
0100
M000
0100
M000
0100
0000
0000
0000
0001
0000
0010
0000
0001
0000
,
0100
00M0
0100
0000
1000
0000
0100
0000
0000
0000
0M01
0000
0010
0000
0001
0000
,
0100
00M0
0100
0000
1000
0000
0100
0000
0000
0000
0M01
0000
0010
0000
0001
0000
,
0100
00M0
0100
0000
1000
0000
0100
0000
0000
0000
0M01
0000
0010
0000
0001
0000
,
0100
00M0
0100
00M0
0100
00M0
0100
0000
1000
0001
1000
0000
0010
0000
0100
0000
,
0001
0000
0010
0000
0001
0000
0100
0000
0010
1000
0010
0000
0100
0000
0001
0000
,
1000
0000
0100
0000
0020
0000
0000
0000
0031
1000
0001
0000
0100
0000
0010
0000
,
1000
0000
0001
0000
0010
0000
0001
0000
1000
0010
1000
0000
0100
0000
0010
0000
,
0001
0000
1000
0000
0200
0000
0000
0000
1300
0001
1000
0000
0010
0000
0100
0000
,
0001
0000
0010
0000
0001
0000
0100
0000
0010
1000
0010
0000
0100
0000
0001
0000
,
1000
0000
0100
0000
0020
0000
0000
0000
0031
1000
0001
0000
0100
0000
0010
0000
,
1000
0000
0001
0000
0010
0000
0001
0000
1000
0010
1000
0000
0001
0100
0001
0100
,
0010
1000
0010
1000
0001
0010
0001
0010
0100
0000
1000
0000
0001
0000
2000
0000
,
0000
0100
0000
3002
0000
0100
0000
2003
,
0000
0010
0000
3002
0000
0023
0000
0230
,
0000
2300
0000
3020
0000
0230
0000
0302
,
0000
0000
0000
0000
00M0
M000
00M0
0M00
,
0M00
M000
00M0
M000
M000
0M00
00M0
M000
,
00M0
0000
0000
0000
0000
0M00
00M0
M000
,
M000
0000
0M00
0000
M000
0000
00M0
0000
0000
0000
0103
00M0
0100
00M0
0100
00M0
,
0100
00M0
0100
00M0
0100
00M0
0100
0000
0000
0000
0001
0000
1000
0000
0100
0000
,
0001
M000
0001
0000
0010
0000
0100
0000
0000
0000
0M01
0000
1000
0000
0100
0000
,
0001
M000
0001
0000
0010
0000
0100
0000
0000
0000
0M01
0000
1000
0000
0100
0000
,
0001
M000
0001
0000
0010
0000
0100
0000
0000
0000
0M01
0000
1000
0000
0001
0000
,
0010
0M00
0010
0M00
0010
0M00
0010
0000
0000
0000
1000
0000
0001
0000
0100
0000
,
1000
000M
1000
0000
0010
0000
0100
0000
0000
0000
1M00
0000
0001
0000
0100
0000
,
1000
000M
1000
0000
0010
0000
0100
0000
0000
0000
1M00
0000
0001
0000
0100
0000
,
1000
000M
1000
0000
0010
0000
0100
0000
0000
0000
0001
0000
1000
0000
0001
0000
,
0020
0000
0000
0000
0000
0000
0000
0000
0031
1000
0001
0000
0010
0000
0100
0000
,
1000
0000
0010
0000
1000
0000
0100
0000
0010
0001
0010
0000
0100
0000
1000
0000
,
0001
0000
0100
0000
0020
0000
0000
0000
1030
0001
1000
0000
0100
0000
0010
0000
,
0001
0000
1000
0000
0010
0000
1000
0000
0001
0010
0001
0000
0100
0000
0010
0000
,
1000
0000
0001
0000
0200
0000
0000
0000
0301
1000
0001
0000
0010
0000
0100
0000
,
1000
0000
0010
0000
1000
0000
0100
0000
0010
0001
0010
0000
0100
0000
1000
0000
,
0001
0000
0100
0000
0020
0000
0000
0000
1030
0001
1000
0000
0100
0000
0010
0000
,
0001
0000
1000
0000
0010
0000
1000
0000
0001
0010
0001
0000
1000
0100
1000
0100
,
0010
0001
0010
0001
1000
0010
1000
0010
0100
0000
0001
0000
1000
0000
0002
0000
,
0000
0100
0000
2003
0000
0100
0000
3002
,
0000
0010
0000
2003
0000
3020
0000
0230
,
0000
0302
0000
0023
0000
0230
0000
2300
,
0000
0000
0000
0000
00M0
000M
00M0
0M00
,
0M00
000M
00M0
000M
0000
0000
0000
0000
,
00M0
0M00
00M0
000M
0M00
00M0
00M0
000M
,
000M
0000
0M00
0000
000M
0000
00M0
0000
0000
0000
3100
00M0
0100
00M0
0100
00M0
,
0100
00M0
0100
00M0
0100
00M0
0100
0000
0000
0000
1000
0000
0001
0000
0100
0000
,
1000
000M
1000
0000
0010
0000
0100
0000
0000
0000
1M00
0000
0001
0000
0100
0000
,
1000
000M
1000
0000
0010
0000
0100
0000
0000
0000
1M00
0000
0001
0000
0100
0000
,
1000
000M
1000
0000
0010
0000
0100
0000
0000
0000
1M00
0000
0001
0000
1000
0000
,
0010
0M00
0010
0M00
0010
0M00
0010
0000
0000
0000
0001
0000
1000
0000
0100
0000
,
0001
M000
0001
0000
0010
0000
0100
0000
0000
0000
0M01
0000
1000
0000
0100
0000
,
0001
M000
0001
0000
0010
0000
0100
0000
0000
0000
0M01
0000
1000
0000
0100
0000
,
0001
M000
0001
0000
0010
0000
0100
0000
0000
0000
1000
0000
0001
0000
1000
0000
,
0020
0000
0000
0000
0000
0000
0000
0000
1030
0000
0001
0100
0001
0000
1000
0010
,
1000
0000
0001
0010
0001
0000
1000
0100
1000
0000
0001
0100
0001
0000
1000
0010
,
1000
0000
0001
0010
0001
0000
1000
0010
0100
0000
0001
1000
0100
0000
0010
0001
,
1000
0000
0010
1000
0001
0000
0010
0100
1000
0000
0010
0100
0001
0000
1000
0010
,
0100
000M
0100
000M
0100
000M
0100
0000
0000
0000
1000
0000
0001
0000
1000
0000
,
0010
0M00
0010
0000
0001
0000
0100
0000
0000
0000
1M00
0000
0001
0000
1000
0000
,
0010
0M00
0010
0000
0001
0000
0100
0000
0000
0000
1M00
0000
0001
0000
1000
0000
,
0010
0M00
0010
0000
0001
0000
0100
0000
0000
0000
1M00
0000
0001
0000
0100
0000
,
2000
0000
0000
0000
,
0000
0000
0000
0000
0000
0000
0000
0000
0000
0000
0000
0000
0000
3000
0000
0000
,
0100
0010
0100
0001
,
1000
0100
0010
0001
,
1000
0001
0200
0000
0000
0000
0000
0000
0000
0000
0000
0000
0000
0000
0000
0000
0000
0000
0000
0000
0000
0000
0000
0000
0000
0000
0000
0000
0000
0000
0000
0000
,
0000
0000
0000
0000
,
0300
0000
0000
0000
;

//---------------dance-single - ----------------
#NOTES:
     dance-single:
     :
     Hard:
     13:
     0.587152,0.660250,0.164716,0.101967,0.003922,524.000000,503.000000,21.000000,13.000000,40.000000,0.000000,0.587152,0.660250,0.164716,0.101967,0.003922,524.000000,503.000000,21.000000,13.000000,40.000000,0.000000:
0000
0000
0000
0000
,
0000
0000
0000
0000
,
0000
0000
0000
0000
,
0110
0001
0110
1000
,
0110
0001
0110
1000
,
0110
0001
0110
1000
,
0110
0000
0001
0000
1000
0001
1000
0001
,
0000
0000
0000
0000
,
0000
0000
0000
0000
,
0000
0000
0000
0000
,
0110
1000
0110
0001
,
0110
1000
0110
0001
,
0110
1000
0110
0001
,
0110
0000
1000
0000
0001
1000
0001
1000
,
0000
0000
0000
0000
,
0000
0000
0000
0000
,
0000
0000
0000
0000
,
0000
0000
0110
0001
,
0110
1000
0110
0001
,
0110
1000
0110
0001
,
0110
1001
0000
0000
,
0000
0000
0000
0000
,
1000
0001
1000
0001
0000
1000
0100
1000
,
0010
1000
0001
0010
0000
0001
0100
0001
,
0010
0001
1000
0010
0000
1000
0100
1000
,
0010
1000
0001
0010
0000
0001
0100
0001
,
0010
0100
0010
0100
0000
0010
0001
1000
,
0001
0010
0001
0100
0000
0010
1000
0001
,
1000
0010
1000
0100
0000
0010
0001
1000
,
0001
0010
0001
0100
0000
0010
1000
0001
,
0010
0100
0010
0100
1000
0010
1000
0010
,
0100
0001
0100
0001
1000
0100
1000
0100
,
0010
0001
0010
0001
1000
0010
1000
0010
,
0100
0001
0100
0001
1000
0001
1000
0001
,
0010
0100
0010
0100
0000
1000
0001
1000
,
0010
1000
0100
0010
0000
0001
1000
0001
,
0010
0100
1000
0010
0000
1000
0001
1000
,
0010
0100
0001
0010
0000
0001
1000
0001
,
0010
0100
0010
0100
1000
0001
1000
0001
,
0100
0001
0100
0001
1000
0100
0010
0001
,
1000
0100
0020
0000
0031
1000
0001
1000
,
0001
0100
0001
0100
0010
1000
0001
0100
,
0010
1000
0200
0000
0310
0001
0010
0001
,
1000
0001
1000
0001
0100
0010
1000
0001
,
0100
0010
2000
0000
3100
0010
0100
0010
,
0001
0010
0001
0010
0001
1000
0040
0000
,
0430
0000
0304
0000
1003
0100
0010
0001
,
0000
0001
0000
1000
0000
1000
0000
0010
,
0000
0010
0000
0100
0000
1000
0000
0100
,
0000
0001
0000
1000
0000
0100
0000
0020
,
0000
0000
0000
0000
000M
M000
0M00
M000
,
000M
000M
0M00
000M
M000
0M00
000M
M000
,
0M00
0000
0000
0000
0000
000M
M000
000M
,
0M00
M000
M000
0M00
0000
0031
1000
0001
,
1000
0001
1000
0001
0000
0100
0010
0100
,
1000
0100
0001
1000
0000
0100
0010
0100
,
0001
0100
1000
0001
0000
0100
0010
0100
,
1000
0100
0001
1000
0000
0001
0100
0001
,
0010
0100
0010
0100
0000
1000
0010
0100
,
1000
0001
0010
1000
0000
0001
0010
0100
,
0001
1000
0010
0001
0000
1000
0010
0100
,
1000
0001
0010
1000
0000
0001
0010
0100
,
2000
0000
0000
0000
3001
0100
0001
0100
,
0001
1000
0001
1000
0100
0010
0001
1000
,
0100
0010
0002
0000
1003
0010
1000
0010
,
0100
0010
0100
0010
1000
0001
0010
0100
,
1000
0001
0020
0000
0031
0100
0001
0100
,
0010
0100
0010
0100
0001
0010
0100
1000
,
0001
0010
0200
0000
1300
0010
1000
0010
,
0100
0010
0100
0010
1000
0001
0040
0000
,
0430
0000
4300
0000
3001
0100
0010
1000
,
0000
1000
0000
0001
0000
0001
0000
0010
,
0000
0010
0000
0100
0000
0001
0000
0100
,
0000
1000
0000
0001
0000
0100
0000
0020
,
0000
0000
0000
0000
M000
000M
0M00
M000
,
M000
000M
0M00
000M
0000
0000
0000
000M
,
000M
0M00
0M00
000M
M000
0M00
M000
000M
,
0M00
M000
0M00
0000
0000
1030
0001
1000
,
0001
1000
0001
1000
0000
0100
0010
0100
,
0001
0100
1000
0001
0000
0100
0010
0100
,
1000
0100
0001
1000
0000
0100
0010
0100
,
0001
0100
1000
0001
0000
1000
0100
1000
,
0010
0100
0010
0100
0000
0001
0010
0100
,
0001
1000
0010
0001
0000
1000
0010
0100
,
1000
0001
0010
1000
0000
0001
0010
0100
,
0001
1000
0010
0001
0000
1000
0010
0100
,
0002
0000
0000
0000
1003
0100
1000
0100
,
0001
0100
0001
0100
1000
0010
1000
0010
,
0001
0010
0001
0010
0100
0001
0100
0001
,
0100
1000
0100
1000
0100
0001
0100
0001
,
0010
0100
0010
0100
0000
1000
0010
1000
,
0100
1000
0010
0100
0000
0001
0010
0001
,
0100
0001
0010
0100
0000
1000
0010
1000
,
0100
1000
0010
0100
0000
0001
0010
0100
,
2000
0000
0000
0000
,
0000
0000
0000
0000
,
3001
0100
0010
1000
,
0001
0010
0100
1000
,
0002
2000
0000
0000
0000
0000
0000
0000
0000
0000
0000
0000
0000
0000
0000
0000
0000
0000
0000
0000
0000
0000
0000
0000
0000
0000
0000
0000
0000
0000
0000
0000
,
0000
3003
0000
0000
0000
0000
0000
0000
0000
0000
0000
0000
0000
0000
0000
0000
0000
0000
0000
0000
0000
0000
0000
0000
0000
0000
0000
0000
0000
0000
0000
0000
;

//---------------dance-single - ----------------
#NOTES:
     dance-single:
     :
     Medium:
     11:
     0.460533,0.705927,0.156873,0.054905,0.000000,411.000000,391.000000,20.000000,7.000000,47.000000,0.000000,0.460533,0.705927,0.156873,0.054905,0.000000,411.000000,391.000000,20.000000,7.000000,47.000000,0.000000:
00M0
0000
0000
0000
,
0000
0000
0000
0000
,
0000
0000
0000
0000
,
1000
0100
0001
0100
,
1000
0100
0001
0100
,
1000
0100
0001
0100
,
1000
0000
0100
0000
0010
0001
0010
0001
,
0000
0000
0000
0000
,
0000
0000
0000
0000
,
0000
0000
0000
0000
,
0001
0100
1000
0100
,
0001
0100
1000
0100
,
0001
0100
1000
0100
,
0001
0000
0100
0000
0010
1000
0010
1000
,
0000
0000
0000
0000
,
0000
0000
0000
0000
,
0000
0000
0000
0000
,
0000
0000
1000
0100
,
0001
0100
1000
0100
,
0001
0100
1000
0100
,
0001
0100
0000
0000
,
0000
0000
0000
0000
,
1000
0001
1000
0001
0000
1000
0100
0000
,
0010
0000
0100
1000
0000
0001
0100
0000
,
0010
0000
0100
0001
0000
1000
0100
0000
,
0010
0000
0100
1000
0000
0010
0100
0000
,
0001
1000
0001
1000
0000
0001
0010
0000
,
0100
0000
0010
0001
0000
1000
0010
0000
,
0100
0000
0010
1000
0000
0001
0010
0000
,
0100
0000
0010
0001
0000
0100
0010
0000
,
1000
0001
1000
0001
0000
1000
0100
0000
,
0011
0011
0101
0101
,
1010
1010
1100
1100
,
0110
0110
1001
1001
,
0001
1000
0001
1000
0000
0100
0010
0000
,
0001
0000
1000
0001
0000
0100
0010
0000
,
1000
0000
0001
1000
0000
0100
0010
0000
,
0001
0000
1000
0001
0000
0100
0010
0000
,
1000
0001
1000
0001
0010
0000
0100
0000
,
1000
0001
1000
0000
0010
0000
0100
0000
,
0001
1000
0001
0000
0010
0100
1000
0000
,
0001
0100
0001
0000
0010
0000
0100
0000
,
1000
0100
1000
0000
0010
0000
0100
0000
,
0001
1000
0001
0000
0010
0000
0100
0000
,
1000
0001
1000
0000
0010
0100
0001
0000
,
1000
0100
1000
0000
0010
0000
0100
0000
,
0001
1000
0001
1000
0001
0000
1000
0010
,
0000
0100
0000
0010
0000
1000
0000
0001
,
0000
0010
0000
0100
0000
0010
0000
0001
,
0000
1000
0000
0010
0000
0100
0000
0002
,
0000
0000
0000
00M0
00M0
00M0
00M0
00M0
,
00M0
00M0
00M0
00M0
00M0
00M0
00M0
00M0
,
00M0
0000
0000
0000
00M0
00M0
00M0
00M0
,
00M0
00M0
00M0
00M0
00M0
1003
0100
1000
,
0100
1000
0100
1000
0000
0001
0100
0000
,
1000
0000
0100
0001
0000
1000
0100
0000
,
0001
0000
0100
1000
0000
0001
0100
0000
,
1000
0000
0100
0001
0000
1000
0100
0000
,
0010
0001
0010
0001
0000
1000
0010
0000
,
0001
0000
0010
1000
0000
0001
0010
0000
,
1000
0000
0010
0001
0000
1000
0010
0000
,
0001
0000
0010
1000
0000
0001
0010
0100
,
2000
0000
3010
0100
,
0001
1000
0001
0000
0010
0000
0100
0000
,
1000
0001
1000
0000
0010
0100
0001
0000
,
1000
0100
1000
0000
0010
0000
0100
0000
,
0001
0100
0001
0000
0010
0000
0100
0000
,
1000
0001
1000
0000
0010
0000
0100
0000
,
0001
1000
0001
0000
0010
0100
1000
0000
,
0001
0100
0001
0000
0010
0000
0100
0000
,
1000
0001
1000
0001
1000
0000
0001
0010
,
0000
0100
0000
0010
0000
0001
0000
1000
,
0000
0010
0000
0100
0000
0010
0000
1000
,
0000
0001
0000
0010
0000
0100
0000
2000
,
0000
0000
0000
00M0
00M0
00M0
00M0
00M0
,
00M0
00M0
00M0
00M0
0000
0000
0000
00M0
,
00M0
00M0
00M0
00M0
00M0
00M0
00M0
00M0
,
00M0
00M0
00M0
00M0
00M0
3001
0100
0001
,
0100
0001
0100
0001
0000
1000
0100
0000
,
0001
0000
0100
1000
0000
0001
0100
0000
,
1000
0000
0100
0001
0000
1000
0100
0000
,
0001
0000
0100
1000
0000
0001
0100
0000
,
0010
1000
0010
1000
0000
0001
0010
0000
,
1000
0000
0010
0001
0000
1000
0010
0000
,
0001
0000
0010
1000
0000
0001
0010
0000
,
1000
0000
0010
0001
0000
1000
0010
0000
,
0200
0000
0000
0000
0301
0010
0100
0000
,
1100
0000
0101
0000
1000
0010
0100
0000
,
0101
0000
1100
0000
0001
0010
0100
0000
,
1100
0000
0101
0000
1000
0010
0100
0000
,
0001
1000
0001
1000
0000
0100
1000
0000
,
0010
0000
1000
0100
0000
0010
0001
0000
,
0100
0000
0001
0010
0000
0100
1000
0000
,
0010
0000
1000
0100
0000
0010
0001
0000
,
2001
0000
0000
0000
,
0000
0000
0000
0000
,
3010
0100
0001
1000
,
0100
0010
0001
1000
,
2002
0000
0000
0000
,
0000
0000
0000
0000
,
3003
0000
0000
0000
;

//---------------dance-single - ----------------
#NOTES:
     dance-single:
     :
     Easy:
     8:
     0.322709,0.392181,0.015687,0.125498,0.000000,288.000000,286.000000,2.000000,16.000000,24.000000,0.000000,0.322709,0.392181,0.015687,0.125498,0.000000,288.000000,286.000000,2.000000,16.000000,24.000000,0.000000:
0000
0000
0000
0000
,
0000
0000
0000
0000
,
0000
0000
0000
0000
,
1000
0100
1000
0100
,
0010
0001
0010
0001
,
1000
0010
1000
0010
,
0100
0000
0001
0000
2000
0000
0000
3000
,
0000
0000
0000
0000
,
0000
0000
0000
0000
,
0000
0000
0000
0000
,
0001
0100
0001
0100
,
0010
1000
0010
1000
,
0001
0010
0001
0010
,
0100
0000
1000
0000
0002
0000
0000
0003
,
0000
0000
0000
0000
,
0000
0000
0000
0000
,
0000
0000
0000
0000
,
0000
0000
1000
0001
,
1000
0001
0010
0100
,
0010
0100
1000
0001
,
1000
0001
0000
0000
,
0000
0000
0000
0000
,
0020
0000
0000
0030
0000
0000
1000
0000
,
0100
1000
0010
1000
,
0001
0010
0100
1000
,
0010
1000
0001
0100
,
0020
0000
0000
0030
0000
0000
1000
0000
,
0100
1000
0001
0100
,
0010
1000
0001
0010
,
0100
0010
0001
1000
,
0020
0000
0000
0030
0100
0001
0100
0000
,
0010
0010
1000
1000
,
0001
0001
0010
0010
,
0100
0100
1000
1000
,
0002
0000
0000
0003
0000
0000
0100
0000
,
0001
0010
0001
1000
,
0010
0100
0001
0010
,
0100
0010
0001
1000
,
0020
0000
0000
0030
0100
0000
0001
0000
,
0010
0001
0000
1000
,
0010
1000
0000
0001
,
0100
0001
0000
1000
,
0100
1000
0000
0010
,
0100
0001
0000
0010
,
0100
1000
0000
0001
,
0100
0010
0000
1000
,
1000
0000
1000
0000
0100
0000
0010
0001
,
0000
0100
0000
0001
0000
0100
0000
0010
,
0000
1000
0000
0010
0000
1000
0000
0001
,
0000
0010
0000
0100
0000
1000
0000
0002
,
0000
0003
0000
0000
00M0
0000
00M0
0000
,
00M0
00M0
00M0
00M0
,
00M0
0000
00M0
00M0
,
00M0
0000
00M0
0000
00M0
0001
1000
0000
,
0001
1001
0000
1000
,
0100
0010
0100
1000
,
0001
0100
0010
1000
,
0001
0100
0001
0010
,
0200
0000
0000
0300
1000
0000
0010
0000
,
0100
0001
1000
0100
,
0010
0001
0100
0001
,
1000
0010
1000
0100
,
0020
0000
0000
0030
0100
0000
1000
0000
,
0010
1000
0000
0001
,
0010
0001
0000
1000
,
0100
1000
0000
0001
,
0100
0001
0000
0010
,
0100
1000
0000
0010
,
0100
0001
0000
1000
,
0100
0010
0000
0001
,
0001
0000
0001
0000
0100
0000
0010
1000
,
0000
0100
0000
1000
0000
0100
0000
0010
,
0000
0001
0000
0010
0000
0001
0000
1000
,
0000
0010
0000
0100
0000
0001
0000
2000
,
0000
3000
0000
0000
00M0
0000
00M0
0000
,
00M0
00M0
00M0
00M0
,
00M0
0000
00M0
00M0
,
00M0
0000
00M0
0000
00M0
1000
0001
0000
,
1000
1001
0000
0001
,
0100
0010
0100
0001
,
1000
0100
0010
0001
,
1000
0100
1000
0010
,
0200
0000
0000
0300
0001
0000
0010
0000
,
0100
1000
0001
0100
,
0010
1000
0100
1000
,
0001
0010
0001
0100
,
0020
0000
0000
0030
1000
0000
1000
0000
,
0001
0001
0010
0010
,
0100
0100
1000
1000
,
0010
0010
0100
0100
,
0002
0000
0000
0003
1000
0000
0100
0000
,
0001
0100
0010
0100
,
1000
0001
0100
0010
,
0001
0010
0100
0010
,
2000
0000
0000
0000
,
0000
0000
0000
0000
,
3001
0010
0100
1000
,
0001
0100
0010
1000
,
0002
0000
0000
0000
,
0000
0000
0000
0000
,
0003
0000
0000
0000
;

//---------------dance-single - ----------------
#NOTES:
     dance-single:
     :
     Beginner:
     2:
     0.114293,0.196091,0.000000,0.172560,0.000000,102.000000,102.000000,0.000000,22.000000,0.000000,0.000000,0.114293,0.196091,0.000000,0.172560,0.000000,102.000000,102.000000,0.000000,22.000000,0.000000,0.000000:
// measure 0
0000
0000
0000
0000
,  // measure 1
0000
0000
0000
0000
,  // measure 2
0000
0000
0000
0000
,  // measure 3
1000
0000
0000
0000
,  // measure 4
0001
0000
0000
0000
,  // measure 5
1000
0000
0000
0000
,  // measure 6
0001
0000
0000
0000
0020
0000
0000
0030
,  // measure 7
0000
0000
0000
0000
,  // measure 8
0000
0000
0000
0000
,  // measure 9
0000
0000
0000
0000
,  // measure 10
0001
0000
0000
0000
,  // measure 11
1000
0000
0000
0000
,  // measure 12
0001
0000
0000
0000
,  // measure 13
1000
0000
0000
0000
0020
0000
0000
0030
,  // measure 14
0000
0000
0000
0000
,  // measure 15
0000
0000
0000
0000
,  // measure 16
0000
0000
0000
0000
,  // measure 17
0000
0000
1000
0000
,  // measure 18
0000
0000
0001
0000
,  // measure 19
0000
0000
1000
0000
,  // measure 20
0000
0000
0000
0000
,  // measure 21
0000
0000
0000
0000
,  // measure 22
0020
0000
0000
0030
0000
0000
0000
0000
,  // measure 23
1000
0000
0000
0000
,  // measure 24
0100
0000
0000
0000
,  // measure 25
0010
0000
0000
0000
,  // measure 26
0002
0000
0000
0003
0000
0000
0000
0000
,  // measure 27
0001
0000
0000
0000
,  // measure 28
0100
0000
0000
0000
,  // measure 29
0010
0000
0000
0000
,  // measure 30
2000
0000
0000
3000
0000
0000
0000
0000
,  // measure 31
0002
0003
2000
3000
,  // measure 32
0002
0003
2000
3000
,  // measure 33
0002
0003
2000
3000
,  // measure 34
0020
0000
0000
0030
0000
0000
0000
0000
,  // measure 35
0100
0000
0000
0000
,  // measure 36
0001
0000
0000
0000
,  // measure 37
0010
0000
0000
0000
,  // measure 38
0200
0000
0000
0300
0000
0000
0000
0000
,  // measure 39
1000
0000
0001
0000
,  // measure 40
0100
0000
0000
0000
,  // measure 41
0001
0000
1000
0000
,  // measure 42
0100
0000
0000
0000
,  // measure 43
0010
0000
0001
0000
,  // measure 44
1000
0000
0000
0000
,  // measure 45
0010
0000
1000
0000
,  // measure 46
0001
0000
0000
0000
,  // measure 47
0010
0000
0000
0000
,  // measure 48
0100
0000
0000
0000
,  // measure 49
0010
0000
0000
0000
,  // measure 50
0100
0000
0000
0000
,  // measure 51
0000
0000
0000
0000
,  // measure 52
0000
0000
0000
0000
,  // measure 53
0000
0000
0000
1000
,  // measure 54
0001
1000
0000
0000
,  // measure 55
0010
0000
0000
0000
,  // measure 56
0100
0000
0000
0000
,  // measure 57
0001
0000
0000
0000
,  // measure 58
1000
0000
0100
0000
,  // measure 59
1000
0000
0000
0000
,  // measure 60
0010
0000
0000
0000
,  // measure 61
0100
0000
0000
0000
,  // measure 62
0001
0000
1000
0000
,  // measure 63
0001
0000
1000
0000
,  // measure 64
0100
0000
0000
0000
,  // measure 65
1000
0000
0001
0000
,  // measure 66
0100
0000
0000
0000
,  // measure 67
0010
0000
1000
0000
,  // measure 68
0001
0000
0000
0000
,  // measure 69
0010
0000
0001
0000
,  // measure 70
1000
0000
0000
0000
,  // measure 71
0010
0000
0000
0000
,  // measure 72
0100
0000
0000
0000
,  // measure 73
0010
0000
0000
0000
,  // measure 74
0100
0000
0000
0000
,  // measure 75
0000
0000
0000
0000
,  // measure 76
0000
0000
0000
0000
,  // measure 77
0000
0000
0000
0001
,  // measure 78
1000
0001
0000
0000
,  // measure 79
0010
0000
0000
0000
,  // measure 80
0100
0000
0000
0000
,  // measure 81
1000
0000
0000
0000
,  // measure 82
0001
0000
0100
0000
,  // measure 83
0001
0000
0000
0000
,  // measure 84
0010
0000
0000
0000
,  // measure 85
0100
0000
0000
0000
,  // measure 86
1000
0000
0002
0003
,  // measure 87
0200
0300
0002
0003
,  // measure 88
0200
0300
0020
0030
,  // measure 89
2000
3000
0020
0030
,  // measure 90
2000
0000
0000
3000
0000
0000
0000
0000
,  // measure 91
0001
0000
0000
0000
,  // measure 92
0010
0000
0000
0000
,  // measure 93
0100
0000
0000
0000
,  // measure 94
2000
0000
0000
0000
,  // measure 95
0000
0000
0000
0000
,  // measure 96
0000
0000
0000
0000
,  // measure 97
0000
0000
0000
0000
,  // measure 98
0000
0000
0000
0000
,  // measure 99
0000
0000
0000
0000
,  // measure 100
3000
0000
0000
0000
;
