#VERSION:0.83;
#TITLE:Pressure Zone;
#SUBTITLE:;
#ARTIST:Tonetta;
#TITLETRANSLIT:;
#SUBTITLETRANSLIT:;
#ARTISTTRANSLIT:;
#GENRE:;
#CREDIT:FujiPD;
#MUSIC:Pressure Zone.ogg;
#BANNER:Pressure Zone.png;
#BACKGROUND:Pressure Zone-bg.png;
#CDTITLE:;
#SAMPLESTART:0.051;
#SAMPLELENGTH:15.506;
#SELECTABLE:YES;
#OFFSET:0.449;
#BPMS:0.000=119.955;
#STOPS:;
#SPEEDS:0.000=1.000=0.000=0;
#SCROLLS:0.000=1.000;
#TICKCOUNTS:0.000=4;
#TIMESIGNATURES:0.000=4=4;
#LABELS:0.000=Song Start;
#COMBOS:0.000=1;
#ORIGIN:;
#TAGS:;
#PREVIEWVID:;
#JACKET:;
#CDIMAGE:;
#DISCIMAGE:;
#BGCHANGES:1.000=Pressure Zone.mp4=1.000=1=0=0=StretchNoLoop==CrossFade==,
99999.000=-nosongbg-=1.000=0=0=0=StretchNoLoop====
;
#FGCHANGES:;

//--------------- dance-single - ----------------
#NOTEDATA:;
#STEPSTYPE:dance-single;
#DESCRIPTION:;
#DIFFICULTY:Beginner;
#METER:1;
#RADARVALUES:0,0,0,0,0,0,0,0,0,0,0,0,0,0,0,0,0,0,0,0,0,0,0,0,0,0,0,0;
#CHARTNAME:;
#CHARTHASH:3890283776;
#BANNER:;
#CHARTSTYLE:;
#METERF:0.000000;
#CREDIT:;
#NOTES:
0000
0000
0000
0000
,
0000
0000
0000
0000
,
0000
0000
0000
0000
,
0000
0000
0000
0000
,
1000
0000
0000
0000
,
0001
0000
0000
0000
,
0100
0000
0000
0000
,
0010
0000
0000
0000
,
1000
0000
0000
0000
,
1000
0000
0000
0000
,
0010
0000
0000
0000
,
0100
0000
0000
0000
,
0010
0000
0000
0000
,
1000
0000
0000
0000
,
0100
0000
0000
0000
,
0010
0000
0000
0000
,
0100
0000
0000
0000
,
0110
0000
0000
0000
,
0010
0000
0000
0000
,
0001
0000
0000
0000
,
1000
0000
0000
0000
,
1001
0000
0000
0000
,
1000
0000
0000
0000
,
0010
0000
0000
0000
,
0100
0000
0000
0000
,
0001
0000
0000
0000
,
0010
0000
0000
0000
,
0100
0000
0000
0000
,
1000
0000
0000
0000
,
0001
0000
0000
0000
,
0001
0000
0000
0000
,
0100
0000
0000
0000
,
0001
0000
0000
0000
,
1000
0000
0000
0000
,
0020
0000
0030
0010
,
0020
0030
0000
0000
,
0200
0300
0200
0300
,
0100
0000
0000
0000
,
0001
0000
0001
0000
,
0002
0003
0001
0000
,
1000
0000
1000
0000
,
1000
0000
0000
0000
,
1001
0000
0000
0000
,
0001
0000
0000
0000
,
0010
0000
0000
0000
,
0100
0000
0000
0000
,
0110
0000
0000
0000
,
0100
0000
0000
0000
,
1000
0000
0000
0000
,
0010
0000
0000
0000
,
0110
0000
0000
0000
,
0100
0000
0000
0000
,
0110
0000
0000
0000
,
0010
0000
0000
0000
,
1001
0000
0000
0000
,
1000
0000
0000
0000
,
1001
0000
0000
0000
,
0001
0000
0000
0000
,
2002
0000
0000
0000
,
0000
0000
0000
0000
,
3003
0000
0000
0000
,
0M00
0000
0000
0000
;

//--------------- dance-single - ----------------
#NOTEDATA:;
#STEPSTYPE:dance-single;
#DESCRIPTION:;
#DIFFICULTY:Easy;
#METER:5;
#RADARVALUES:0,0,0,0,0,0,0,0,0,0,0,0,0,0,0,0,0,0,0,0,0,0,0,0,0,0,0,0;
#CHARTNAME:;
#CHARTHASH:1953066607;
#BANNER:;
#CHARTSTYLE:;
#METERF:0.000000;
#CREDIT:;
#NOTES:
0000
0000
0000
0000
,
0000
0000
0000
0000
,
0000
0000
0000
0000
,
0000
0000
0000
0000
,
0001
0001
1000
0000
,
0100
0100
0010
0000
,
0010
0001
0001
0000
,
0100
0000
0001
0000
,
1000
0100
1000
1000
,
0001
0100
0010
0000
,
0010
0010
0010
0000
,
0100
0100
0100
0000
,
0100
0010
0100
0100
,
0001
1000
0100
0000
,
2000
3100
2000
3001
,
1001
0000
0000
2020
0000
0000
3030
0000
,
0120
0001
0100
1030
,
2002
0000
3003
0000
,
1000
0010
1000
0000
,
2000
0000
3100
0000
,
2000
0000
3010
0000
,
0200
0000
0301
0100
,
0010
0100
0001
0000
,
0101
0000
0001
0000
,
0010
0100
0010
0000
,
0100
0100
1000
0100
,
0000
0100
1000
0100
0000
0000
0000
0000
,
0010
0001
0001
0000
,
0000
0010
0001
0010
0000
0000
0000
0000
,
0001
0100
0001
0000
,
1000
0010
1000
0000
,
1000
0100
0100
0010
,
0001
0010
0100
0100
,
1000
0010
0100
0001
,
0002
0000
0203
0000
,
0302
0010
1003
0000
,
2000
3010
2000
3001
,
0000
1000
0000
2000
0000
0000
0000
0000
,
3001
0100
0000
0001
,
0020
0000
0130
0000
,
0100
0010
0200
0010
,
1300
0000
1000
0000
,
0001
0100
0010
0010
,
1000
0100
0010
0000
,
0010
0000
0010
0010
0000
0000
0000
0000
,
0100
0000
0100
0100
0000
0000
0000
0000
,
0010
0010
0100
0010
,
0001
0001
0100
0000
,
0010
1000
0001
0010
,
0011
0000
1100
1000
,
1000
0001
0010
0000
,
0010
0000
0000
0010
0000
0000
0000
0000
,
0001
0100
0010
0000
,
1000
0000
0000
1000
0000
0000
0100
0000
,
0010
0010
0001
0000
,
0100
0000
0000
0100
0000
0000
0000
0000
,
0001
0001
1000
0001
,
1001
0000
0000
0100
,
0100
0010
0100
0010
,
0220
0000
0000
0000
,
0330
0000
0000
0000
,
M000
0000
0000
0000
;

//--------------- dance-single - ----------------
#NOTEDATA:;
#STEPSTYPE:dance-single;
#DESCRIPTION:;
#DIFFICULTY:Medium;
#METER:9;
#RADARVALUES:0,0,0,0,0,0,0,0,0,0,0,0,0,0,0,0,0,0,0,0,0,0,0,0,0,0,0,0;
#CHARTNAME:;
#CHARTHASH:1953393010;
#BANNER:;
#CHARTSTYLE:;
#METERF:0.000000;
#CREDIT:;
#NOTES:
0000
0000
0000
0000
,
0000
0000
0000
0000
,
0000
0000
0000
0000
,
0000
0000
0000
0000
,
1000
0100
1000
0001
1000
0000
0010
0000
,
0020
0000
0030
0200
0000
0000
0000
0000
,
0301
0001
0010
0000
,
0010
0000
0100
2000
0000
0000
3000
0000
,
0001
0000
0001
0000
0100
0010
0100
0000
,
0010
1000
0000
1000
0000
0000
0000
0000
,
0010
0020
0000
0130
0000
0000
0000
0000
,
0200
0000
0001
0301
0000
0000
0000
0000
,
0001
0000
0100
0000
0001
0010
0001
0000
,
0011
0000
0010
0110
0000
0000
0100
0000
,
0000
1000
0100
1000
0000
0000
1000
0010
,
0100
0000
0000
0202
0000
0000
0303
0000
,
0000
0001
0010
0001
0000
0010
0100
1000
,
0020
0000
0130
0110
,
0010
1000
0000
2000
0000
0000
3100
0000
,
0100
0000
0010
0002
0000
0000
0003
0000
,
0020
0000
0100
0130
0000
0000
0000
0100
,
0010
0000
0000
0000
0001
0100
1000
0100
,
0000
0001
0000
0011
0000
0000
0010
0000
,
0200
1000
0000
0300
0000
1000
0100
0010
,
0000
0000
0001
0000
1000
0000
0000
0001
,
0100
0000
0010
0100
0001
0000
0001
0000
,
0000
0010
0010
0200
0000
0000
0310
0000
,
0000
0010
1000
0000
0010
0000
0001
0000
,
0000
0100
0100
0002
0000
0000
0013
0000
,
0020
0000
0230
0000
1300
0000
0000
0100
,
0000
0100
1000
0200
0000
0000
0310
0000
,
0000
0001
0100
0000
0010
0000
0100
0001
,
0000
1000
0010
0000
1000
0000
1000
0000
,
0000
0100
0000
0010
0100
0000
0010
0000
,
0200
0000
1300
0200
0000
0300
0001
0200
,
0000
0300
0010
0010
0000
0000
0001
0000
,
0002
0023
2030
3020
,
0030
0001
0000
0001
2000
0000
3000
0000
,
1000
0000
0010
0100
0000
0001
0100
0002
,
0000
0000
1000
2000
0003
0000
0000
0000
,
3100
0100
0000
0010
0100
0000
0100
0010
,
0000
0001
0010
0002
0000
0000
0000
0000
,
0013
0000
0100
0000
1000
0100
1000
0000
,
1000
0100
0000
0200
0000
0000
0300
0000
,
0020
0000
0100
0130
0000
0000
0000
0000
,
0200
0000
1000
1300
0000
0000
0000
0000
,
0001
0000
0100
0000
0001
0010
0001
0100
,
0001
0100
0000
0101
0000
0000
1001
0000
,
0000
1000
0100
0010
0000
0000
0010
0220
,
0000
0330
0000
0021
0000
0001
0031
0002
,
0000
0000
0103
0000
0100
0001
0000
0001
,
1000
0100
0010
0100
0000
0100
0000
1000
,
0010
0000
0100
0000
0100
0020
0000
0030
,
0000
0010
1000
0010
0000
0010
0200
0000
,
0301
0000
1000
0000
0001
0200
0010
0000
,
0310
0000
1000
0020
0000
0000
1030
0100
,
0000
1000
0100
1000
1100
0000
1001
0000
,
1010
0000
1000
0010
0000
0000
0100
0001
,
0000
0010
0001
0010
0011
0000
1001
0000
,
0202
0000
0000
0000
,
0303
0000
0000
0000
,
000M
0000
0000
0000
;

//--------------- dance-single - ----------------
#NOTEDATA:;
#STEPSTYPE:dance-single;
#DESCRIPTION:;
#DIFFICULTY:Hard;
#METER:11;
#RADARVALUES:0.045882,0.24891,0.032117,0.048176,0.008029,40,36,4,6,3,0,0,0,0,0.045882,0.24891,0.032117,0.048176,0.008029,40,36,4,6,3,0,0,0,0;
#CHARTNAME:;
#CHARTHASH:10;
#BANNER:;
#CHARTSTYLE:;
#METERF:0.000000;
#LASTSECONDHINT:123.597519;
#CREDIT:;
#NOTES:
0000
0000
0000
0000
,
0000
0000
0000
0000
,
0000
0000
0000
0000
,
0000
0000
0000
0000
,
0001
0010
0001
0100
0101
0000
0001
1000
,
0020
0000
0100
0230
0000
0000
0301
0000
,
1000
0000
0000
0000
0000
0000
0001
0000
0010
0000
0100
0000
0020
0000
0000
0000
0000
0000
0130
0000
0000
2100
0000
0000
,
0000
0000
3100
0100
0200
0000
0310
0001
,
0012
0000
1003
0000
0001
0100
0010
0001
,
0010
0020
0000
1030
0000
0000
1010
0000
,
0010
0020
0000
0130
0000
0000
0110
0000
,
0200
0000
0001
0301
0000
0000
0011
0000
,
0200
0000
2300
0000
3100
0001
0100
1000
,
1100
0000
01M0
0101
0000
0100
0010
0100
,
0000
0001
0010
0020
0030
0000
0100
0001
,
1000
0010
0001
2000
0000
3000
0010
1010
,
0000
1000
0100
0001
0010
1000
0100
1000
,
2000
0000
0000
0000
3010
0000
0100
0000
0001
0000
0000
0000
0001
0000
0001
0100
,
0001
0020
0030
0110
0000
0000
0100
0020
,
0230
0000
1300
1100
0000
0000
0100
0010
,
0020
0000
0100
0031
0000
0000
0001
0100
,
2000
0000
0000
3000
0100
0001
0010
0100
,
0000
0001
0010
0200
0000
0000
0310
0000
,
1000
0100
2000
0000
3200
0010
0010
0310
,
0000
0000
0010
0001
0010
0000
0001
1000
,
0100
0000
1000
0010
1010
0000
0120
0000
,
0130
0100
0100
0200
0000
0000
0301
1000
,
0000
1000
0001
0000
0002
0000
0013
0000
,
0000
0100
0100
0200
0000
1300
0100
0010
,
0012
0000
1003
0000
0102
0000
0000
2003
,
0000
3100
1000
0010
0000
0000
0010
0010
,
0100
0001
0100
1000
0200
0000
0301
0010
,
0010
0100
0100
1000
0001
1000
0010
1001
,
0000
0001
0010
0010
0001
0100
0100
0010
,
2000
0000
3100
2000
0000
3000
0001
0100
,
0002
0000
0000
0000
0013
0000
0020
0000
0000
0000
0000
0000
0030
0000
0100
1000
,
0200
0302
0023
2030
,
3000
1010
0000
0M10
0012
0003
0010
0100
,
0020
0030
1000
0020
0000
0031
0010
0020
,
0000
0030
0100
0100
2000
0000
3100
0000
,
1000
0010
0000
1000
0010
0001
0010
1000
,
0000
0001
0100
0010
0100
0001
0100
0010
,
1010
0000
0101
0000
0001
0100
0010
1000
,
0010
0020
0000
0130
0000
0000
1001
0000
,
0021
0000
0130
2000
0000
3000
1100
0000
,
0200
0000
0010
0310
0000
0100
0100
0010
,
0002
0000
0023
0000
0130
0001
0100
1000
,
1100
1000
0000
1010
0000
0100
0001
0010
,
0000
0001
1000
0002
0000
0000
0013
0100
,
1000
0100
0010
0001
1000
0010
0210
0002
,
0000
0303
0002
0000
1003
1000
0002
0103
,
0000
0010
1000
0010
0000
1000
0100
1000
,
2100
0000
0001
0000
0010
0020
0000
3030
,
0000
0100
0100
0001
0000
0000
0200
0000
,
0302
0000
0023
0000
0130
0010
0100
1000
,
0001
0000
1000
0010
0100
0000
0100
1001
,
0000
1000
0100
0001
0010
0000
0010
0000
,
0020
0000
0000
0000
0030
0000
0010
1001
,
0000
0001
0100
1000
0010
0000
0010
0000
,
0022
0000
0000
0000
,
0033
0000
0000
0000
,
M00M
0000
0000
0000
;
