#VERSION:0.83;
#TITLE:パウダースノーランデブー;
#SUBTITLE:;
#ARTIST:虹のコンキスタドール;
#TITLETRANSLIT:Powder Snow Rendezvous;
#SUBTITLETRANSLIT:;
#ARTISTTRANSLIT:Niji no Conquistador;
#GENRE:;
#ORIGIN:;
#CREDIT:;
#BANNER:;
#BACKGROUND:;
#PREVIEWVID:;
#JACKET:;
#CDIMAGE:;
#DISCIMAGE:;
#LYRICSPATH:;
#CDTITLE:;
#MUSIC:Powder Snow Rendezvous.ogg;
#OFFSET:-0.164000;
#SAMPLESTART:50.539997;
#SAMPLELENGTH:13.636356;
#SELECTABLE:YES;
#BPMS:0.000=176.000;
#STOPS:;
#DELAYS:;
#WARPS:;
#TIMESIGNATURES:0.000=4=4;
#TICKCOUNTS:0.000=4;
#COMBOS:0.000=1;
#SPEEDS:0.000=1.000=0.000=0;
#SCROLLS:0.000=1.000;
#FAKES:;
#LABELS:0.000=Song Start;
#BGCHANGES:;
#KEYSOUNDS:;
#ATTACKS:
;

//---------------dance-single - CSP minus rolls in Choruses----------------
#NOTEDATA:;
#CHARTNAME:;
#STEPSTYPE:dance-single;
#DESCRIPTION:CSP minus rolls in Choruses;
#CHARTSTYLE:;
#DIFFICULTY:Hard;
#METER:14;
#RADARVALUES:0.691635,0.827208,0.613812,0.644503,0.072890,631.000000,551.000000,80.000000,84.000000,11.000000,0.000000,0.000000,0.000000,0.000000,0.691635,0.827208,0.613812,0.644503,0.072890,631.000000,551.000000,80.000000,84.000000,11.000000,0.000000,0.000000,0.000000,0.000000;
#CREDIT:;
#NOTES:
// measure 0
0000
0000
0000
0000
,  // measure 1
0000
0000
0000
0000
,  // measure 2
0000
0000
0000
0000
,  // measure 3
0000
0000
0000
0000
,  // measure 4
0000
0000
0000
0000
,  // measure 5
0001
0000
0012
0000
1003
0001
0100
0010
,  // measure 6
M000
0010
0001
0010
0100
1000
0002
0000
,  // measure 7
0203
0000
1300
0100
0002
0000
1003
0100
,  // measure 8
0010
0010
0001
0001
1000
0001
1000
0000
,  // measure 9
0001
0100
0001
0100
0010
1000
0001
0010
,  // measure 10
0M00
0010
1000
0100
0010
0001
1000
0000
,  // measure 11
0001
0010
0001
0010
0100
1000
0001
0100
,  // measure 12
00M0
0100
1000
0010
0100
0010
0001
0000
,  // measure 13
0020
0000
1000
0000
0130
0001
1000
0200
,  // measure 14
0000
0001
0000
1000
0000
0010
0310
0001
,  // measure 15
1000
0010
0001
0000
0001
0010
1000
0000
,  // measure 16
0001
0000
0010
0000
0100
0000
1000
0000
0010
0000
0100
0001
0100
0000
0001
0000
,  // measure 17
1000
0010
1000
0010
0100
0001
0010
0100
,  // measure 18
00M0
0100
0001
0010
0100
1000
0001
0000
,  // measure 19
1000
0100
1000
0100
0010
0001
0100
0010
,  // measure 20
0M00
0010
0001
0100
0010
0100
1000
0000
,  // measure 21
0200
0000
0001
0000
0310
1000
0100
0020
,  // measure 22
0000
0001
0000
1000
0000
0100
0130
1000
,  // measure 23
0001
0100
1000
0000
1000
0100
0001
0000
,  // measure 24
1000
0010
0100
0001
0010
0100
1000
0000
,  // measure 25
0010
0000
0120
0000
1030
0001
0010
0120
,  // measure 26
0000
0000
0001
0000
0031
0000
1000
0000
0010
0000
0100
0001
0100
0000
0001
0000
,  // measure 27
1000
0000
2100
0000
3001
0010
0100
0210
,  // measure 28
0000
1000
1300
0000
0001
0100
1000
0100
,  // measure 29
0001
0000
0210
0000
0301
1000
0100
0010
,  // measure 30
0110
0011
0101
1100
,  // measure 31
0001
1000
0010
0010
0100
0001
0010
1000
,  // measure 32
0M00
1000
0100
0010
0001
0000
1001
0000
,  // measure 33
1000
1000
0001
0100
0010
1000
0100
0001
,  // measure 34
00M0
0001
0010
0100
1000
0010
0000
0210
,  // measure 35
0000
0000
0001
0001
0001
0001
0000
1000
,  // measure 36
0000
0001
0000
0010
0310
0000
1001
0000
,  // measure 37
1020
0000
0032
0000
1003
0100
0001
0010
,  // measure 38
0200
0000
0310
0001
1002
0000
1003
0100
,  // measure 39
0002
0203
2300
3002
,  // measure 40
0103
0010
0100
0001
2000
0010
3M00
0010
,  // measure 41
0011
0001
0010
1000
0001
0100
1000
0010
,  // measure 42
0200
0000
0310
1000
2001
0000
3010
0010
,  // measure 43
0001
0110
1000
1001
,  // measure 44
0001
0000
0010
0000
0100
0000
1000
0000
0001
0000
0010
0001
1000
0001
0100
0001
,  // measure 45
1000
0100
0010
0100
0001
0100
1000
0010
,  // measure 46
0002
0000
1003
0100
0002
0000
1003
0100
,  // measure 47
0101
1100
1010
0011
,  // measure 48
1000
0000
0010
0000
0001
0000
0010
0000
2000
0000
0100
0000
3100
00M0
0100
0000
,  // measure 49
0001
0100
0010
0100
1000
0100
0001
0010
,  // measure 50
2000
0000
3001
0100
2000
0000
3001
0100
,  // measure 51
1100
0101
0011
1010
,  // measure 52
1001
0000
0110
0010
1001
1000
0100
0010
,  // measure 53
0002
0000
1003
0010
0100
0001
0010
0100
,  // measure 54
2000
3200
0302
0203
,  // measure 55
2300
0000
0010
0000
3002
0000
0013
0100
,  // measure 56
2000
0000
0010
0000
3001
0001
0100
0010
,  // measure 57
2000
0000
3001
0010
0100
1000
0010
0100
,  // measure 58
0002
0023
2030
3020
,  // measure 59
0032
0000
1000
0000
0103
1000
0100
0010
,  // measure 60
2000
0000
3100
0010
0020
0000
0031
0000
,  // measure 61
0011
0000
1001
0001
0201
0000
0310
1000
,  // measure 62
1001
0000
0011
0010
0210
0000
1300
0100
,  // measure 63
0110
0000
1001
0000
0101
0100
1100
0100
,  // measure 64
0101
2000
3002
0023
0230
0302
2003
3010
,  // measure 65
0110
0000
1100
1000
2001
0000
3010
0100
,  // measure 66
0101
0001
0011
0010
0210
0000
1300
0010
,  // measure 67
0110
0100
0101
0000
0011
0010
1010
0010
,  // measure 68
0012
0000
1003
0001
0201
0000
0010
0000
,  // measure 69
1300
0000
0100
0000
0010
0000
1000
0000
0001
0000
0010
0100
0010
0000
0001
0000
,  // measure 70
2000
0000
3020
0000
,  // measure 71
0032
0000
0023
0000
,  // measure 72
2030
0000
3002
0000
,  // measure 73
0023
0000
0100
0000
0100
0000
0130
0000
1000
0000
0100
1000
0001
1000
0010
1000
,  // measure 74
0002
0000
0013
1000
0001
0100
1000
0010
,  // measure 75
0200
0000
0310
1000
1002
0000
1003
0010
,  // measure 76
0001
0010
0110
0000
1000
0100
0110
0000
,  // measure 77
1001
0000
0001
0000
0011
0000
0010
0000
0110
0000
0010
0001
1000
0001
0100
0001
,  // measure 78
1000
0100
0001
1000
0010
0100
1000
0010
,  // measure 79
0002
0000
1003
0100
0020
0000
1030
0100
,  // measure 80
0011
0101
1010
1100
,  // measure 81
1000
0100
0001
0100
2000
0010
3M00
0010
,  // measure 82
0001
0100
1000
0001
0010
0100
0001
0010
,  // measure 83
2000
0000
3001
0100
0020
0000
0031
0100
,  // measure 84
1010
0011
0101
1100
,  // measure 85
1010
0000
0110
1000
1001
0000
0001
0010
,  // measure 86
0210
0000
0000
0000
1300
0000
0000
0001
2000
0000
3100
0000
0010
0000
0001
0000
,  // measure 87
0200
0000
0000
0000
0310
0000
0000
1000
0002
0000
0013
0000
0100
0000
1000
0001
,  // measure 88
1000
0000
0000
0000
1100
0000
0000
1000
0010
0000
1000
0000
0100
0000
0002
0000
,  // measure 89
0000
0000
0103
0000
0010
0000
0100
0000
1000
0001
0100
0001
1000
0000
0010
0000
,  // measure 90
2010
0000
3100
00M0
0102
0000
0013
0000
,  // measure 91
1100
0100
0110
1000
2002
0000
3003
0000
,  // measure 92
0000
0000
0000
0000
,  // measure 93
1010
0010
0011
0010
0220
0000
0330
0000
;

//---------------dance-single - This technically qualifies for the theme, too----------------
#NOTEDATA:;
#CHARTNAME:;
#STEPSTYPE:dance-single;
#DESCRIPTION:This technically qualifies for the theme, too;
#CHARTSTYLE:;
#DIFFICULTY:Medium;
#METER:12;
#RADARVALUES:0.549143,0.611415,0.360615,0.659848,0.000000,501.000000,454.000000,47.000000,86.000000,0.000000,0.000000,0.000000,0.000000,0.000000,0.549143,0.611415,0.360615,0.659848,0.000000,501.000000,454.000000,47.000000,86.000000,0.000000,0.000000,0.000000,0.000000,0.000000;
#CREDIT:;
#NOTES:
// measure 0
0000
0000
0000
0000
,  // measure 1
0000
0000
0000
0000
,  // measure 2
0000
0000
0000
0000
,  // measure 3
0000
0000
0000
0000
,  // measure 4
0000
0000
0000
0000
,  // measure 5
0001
0000
1001
0000
1000
0010
0001
0000
,  // measure 6
0010
0100
0010
1000
0100
1000
0002
0000
,  // measure 7
0023
0000
0130
1000
0002
0000
1003
0000
,  // measure 8
0001
0100
1000
0100
0001
1000
0001
0000
,  // measure 9
1000
0100
1000
0010
,  // measure 10
1000
0000
0100
0000
0010
0001
1000
0000
,  // measure 11
0001
0010
0001
0100
,  // measure 12
0001
0000
0010
0000
0100
1000
0010
0000
,  // measure 13
0100
0000
0100
0000
0001
0010
0100
0020
,  // measure 14
0000
0001
0000
0001
0000
0130
0100
1000
,  // measure 15
0002
0013
2000
3010
,  // measure 16
0002
0023
0230
0320
,  // measure 17
0031
0010
0001
0100
,  // measure 18
0001
0000
0010
0000
0100
1000
0001
0000
,  // measure 19
1000
0100
1000
0010
,  // measure 20
1000
0000
0100
0000
0010
0001
0100
0000
,  // measure 21
0010
0000
0010
0000
1000
0100
0010
0200
,  // measure 22
0000
1000
0000
1000
0000
0310
0010
0001
,  // measure 23
2000
3100
0002
0103
,  // measure 24
2000
3200
0320
0032
,  // measure 25
2003
0000
0010
0000
3001
0010
0010
0100
,  // measure 26
0000
0100
1000
0000
0001
1000
0100
0000
,  // measure 27
0010
0000
0001
0000
0010
0001
1000
0001
,  // measure 28
0000
0001
0001
0000
0100
0010
1000
0000
,  // measure 29
0002
0000
0010
0000
2003
0000
3010
0100
,  // measure 30
0101
0101
1100
1100
,  // measure 31
0001
0000
1000
0100
0000
1000
0000
0001
,  // measure 32
0000
0100
0010
0100
0010
0000
1001
0000
,  // measure 33
0001
0010
0000
0100
0000
1000
0000
0001
,  // measure 34
0000
0100
0010
0100
0001
1000
0000
2001
,  // measure 35
0000
0000
3100
0100
0010
0010
0000
1001
,  // measure 36
0000
1001
0000
0100
0020
0000
0030
0000
,  // measure 37
0110
0000
1001
0000
1000
0100
0010
0001
,  // measure 38
2000
0000
3010
0001
0010
0000
0100
0001
,  // measure 39
0010
1100
0010
0101
,  // measure 40
1000
0010
0100
0010
2000
0000
3000
0000
,  // measure 41
0010
0100
0010
0100
0001
0100
0010
1000
,  // measure 42
0002
0000
0013
1000
0010
0000
0100
1000
,  // measure 43
0010
0101
0010
1100
,  // measure 44
0001
0010
0100
1000
0002
0000
1003
0000
,  // measure 45
0001
0100
0001
0100
1000
0100
0001
1000
,  // measure 46
0200
0000
0310
1000
0010
0000
0100
1000
,  // measure 47
0020
0001
0230
1000
,  // measure 48
0310
0010
1000
0100
0010
0001
0001
0001
,  // measure 49
1000
0010
1000
0010
0001
0010
1000
0001
,  // measure 50
0020
0000
0130
0001
0100
0000
0010
0001
,  // measure 51
0200
1000
0320
0001
,  // measure 52
0130
0000
0010
0100
2002
0000
3003
0000
,  // measure 53
0002
0000
1003
0000
0100
0010
0001
0100
,  // measure 54
0020
2030
3200
0320
,  // measure 55
0032
0000
1000
0000
0203
0000
0310
1000
,  // measure 56
0200
0000
0001
0000
0310
0001
0100
0010
,  // measure 57
2000
0000
3001
0000
0100
0010
1000
0100
,  // measure 58
0020
0032
0203
0320
,  // measure 59
2030
0000
0100
0000
3001
0010
0100
0010
,  // measure 60
0002
0000
1003
0010
0200
0000
0310
0000
,  // measure 61
0101
0101
1100
1100
,  // measure 62
0101
0000
1100
0000
0110
0000
0010
0001
,  // measure 63
2000
0000
3020
0000
0031
0010
0100
0001
,  // measure 64
0020
0000
0130
0010
0020
0000
0031
0000
,  // measure 65
1100
1100
0011
1100
,  // measure 66
0101
0000
0101
0000
1010
0000
0010
1000
,  // measure 67
0001
0001
0020
0000
1030
0010
0100
1000
,  // measure 68
0020
0000
0130
0001
0002
0000
1003
0000
,  // measure 69
0001
0100
0010
1000
0100
0010
0001
0100
,  // measure 70
0020
0000
2030
0000
,  // measure 71
3200
0000
0320
0000
,  // measure 72
0032
0000
2003
0000
,  // measure 73
3020
0000
0000
0000
0130
0001
1000
0001
,  // measure 74
1000
0000
0001
0010
0000
0100
0010
0001
,  // measure 75
2000
0000
3010
0001
0010
0000
0100
0001
,  // measure 76
0010
0100
1100
0000
0010
0100
0101
0000
,  // measure 77
0100
0100
0010
0010
0220
0000
0330
0000
,  // measure 78
0001
0100
0010
0100
1000
0100
0001
0100
,  // measure 79
0020
0000
1030
0100
0002
0000
0103
1000
,  // measure 80
1010
0101
0011
1100
,  // measure 81
0001
0100
0010
0100
0002
0000
0003
0000
,  // measure 82
1000
0100
0010
0100
0001
0100
1000
0100
,  // measure 83
0020
0000
0031
0100
2000
0000
3100
0001
,  // measure 84
0011
1100
1010
0101
,  // measure 85
0011
0000
0100
1000
2002
0000
3003
0000
,  // measure 86
0002
0010
2003
0010
,  // measure 87
3002
0100
2003
0100
,  // measure 88
3010
0000
0110
0000
1000
0100
1000
0002
,  // measure 89
0000
0013
0100
0010
0001
0100
0010
1000
,  // measure 90
2002
3003
0220
0330
,  // measure 91
1000
0100
0001
0100
2000
0000
3000
0000
,  // measure 92
0000
0000
0000
0000
,  // measure 93
0001
0010
1000
0010
0220
0000
0330
0000
;

//---------------dance-single - ESP but with Roll tech in choruses----------------
#NOTEDATA:;
#CHARTNAME:;
#STEPSTYPE:dance-single;
#DESCRIPTION:ESP but with Roll tech in choruses;
#CHARTSTYLE:;
#DIFFICULTY:Challenge;
#METER:14;
#RADARVALUES:0.691635,0.827208,0.613812,0.552431,0.072890,631.000000,551.000000,80.000000,72.000000,42.000000,0.000000,12.000000,0.000000,0.000000,0.691635,0.827208,0.613812,0.552431,0.072890,631.000000,551.000000,80.000000,72.000000,42.000000,0.000000,12.000000,0.000000,0.000000;
#CREDIT:;
#NOTES:
// measure 0
0000
0000
0000
0000
,  // measure 1
0000
0000
0000
0000
,  // measure 2
0000
0000
0000
0000
,  // measure 3
0000
0000
0000
0000
,  // measure 4
0000
0000
0000
0000
,  // measure 5
0001
0000
0012
0000
1003
0001
0100
0010
,  // measure 6
M000
0010
0001
0010
0100
1000
0002
0000
,  // measure 7
0203
0000
1300
0100
0002
0000
1003
0100
,  // measure 8
0010
0010
0001
0001
1000
0001
1000
0000
,  // measure 9
0001
0100
0001
0100
0010
1000
0001
0010
,  // measure 10
0M00
0010
1000
0100
0010
0001
1000
0000
,  // measure 11
0001
0010
0001
0010
0100
1000
0001
0100
,  // measure 12
00M0
0100
1000
0010
0100
0010
0001
0000
,  // measure 13
0020
0000
1000
0000
0130
0001
1000
0200
,  // measure 14
0000
0001
0000
1000
0000
0010
0310
0001
,  // measure 15
1000
0010
0001
0000
0001
0010
1000
0000
,  // measure 16
0001
0000
0010
0000
0100
0000
1000
0000
0010
0000
0100
0001
0100
0000
0001
0000
,  // measure 17
1000
0010
1000
0010
0100
0001
0010
0100
,  // measure 18
00M0
0100
0001
0010
0100
1000
0001
0000
,  // measure 19
1000
0100
1000
0100
0010
0001
0100
0010
,  // measure 20
0M00
0010
0001
0100
0010
0100
1000
0000
,  // measure 21
0200
0000
0001
0000
0310
1000
0100
0020
,  // measure 22
0000
0001
0000
1000
0000
0100
0130
1000
,  // measure 23
0001
0100
1000
0000
1000
0100
0001
0000
,  // measure 24
1000
0010
0100
0001
0010
0100
1000
0000
,  // measure 25
0010
0000
0120
0000
1030
0001
0010
0120
,  // measure 26
0000
0000
0001
0000
0031
0000
1000
0000
0010
0000
0100
0001
0100
0000
0001
0000
,  // measure 27
1000
0000
2100
0000
3001
0010
0100
0210
,  // measure 28
0000
1000
1300
0000
0001
0100
1000
0100
,  // measure 29
0001
0000
0210
0000
0301
1000
0100
0010
,  // measure 30
0110
0011
0101
1100
,  // measure 31
0001
1000
0010
0010
0100
0001
0010
1000
,  // measure 32
0M00
1000
0100
0010
0001
0000
1001
0000
,  // measure 33
1000
1000
0001
0100
0010
1000
0100
0001
,  // measure 34
00M0
0001
0010
0100
1000
0010
0000
0210
,  // measure 35
0000
0000
0001
0001
0001
0001
0000
1000
,  // measure 36
0000
0001
0000
0010
0310
0000
1001
0000
,  // measure 37
1020
0000
0032
0000
1003
0100
0001
0010
,  // measure 38
0400
0000
0000
0000
00M0
0000
0000
0000
0010
0300
0000
0000
1000
0000
0000
0000
1002
0000
0000
0000
0000
0000
0000
0000
1003
0000
0000
0000
0100
0000
0000
0000
,  // measure 39
0002
0203
2300
3002
,  // measure 40
0103
0010
0100
0001
2000
0010
3M00
0010
,  // measure 41
0011
0001
0010
1000
0001
0100
1000
0010
,  // measure 42
0400
0000
0000
0000
00M0
0000
0000
0000
0010
0300
0000
0000
0001
0000
0000
0000
2001
0000
0000
0000
0000
0000
0000
0000
3010
0000
0000
0000
0010
0000
0000
0000
,  // measure 43
0001
0110
1000
1001
,  // measure 44
0001
0000
0010
0000
0100
0000
1000
0000
0001
0000
0010
0001
1000
0001
0100
0001
,  // measure 45
1000
0100
0010
0100
0001
0100
1000
0010
,  // measure 46
0400
0000
0000
0000
00M0
0000
0000
0000
0010
0300
0000
0000
0001
0000
0000
0000
0400
0000
0000
0000
000M
0000
0000
0000
1000
0300
0000
0000
0100
0000
0000
0000
,  // measure 47
0101
1100
1010
0011
,  // measure 48
1000
0000
0010
0000
0001
0000
0010
0000
2000
0000
0100
0000
3100
00M0
0100
0000
,  // measure 49
0001
0100
0010
0100
1000
0100
0001
0010
,  // measure 50
0400
0000
0000
0000
00M0
0000
0000
0000
0010
0300
0000
0000
1000
0000
0000
0000
0400
0000
0000
0000
M000
0000
0000
0000
0001
0300
0000
0000
0100
0000
0000
0000
,  // measure 51
1100
0101
0011
1010
,  // measure 52
1001
0000
0110
0010
1001
1000
0100
0010
,  // measure 53
0002
0000
1003
0010
0100
0001
0010
0100
,  // measure 54
2000
3200
0302
0203
,  // measure 55
2300
0000
0010
0000
3002
0000
0013
0100
,  // measure 56
2000
0000
0010
0000
3001
0001
0100
0010
,  // measure 57
2000
0000
3001
0010
0100
1000
0010
0100
,  // measure 58
0002
0023
2030
3020
,  // measure 59
0032
0000
1000
0000
0103
1000
0100
0010
,  // measure 60
2000
0000
3100
0010
0020
0000
0031
0000
,  // measure 61
0011
0000
1001
0001
0201
0000
0310
1000
,  // measure 62
1001
0000
0011
0010
0210
0000
1300
0100
,  // measure 63
0110
0000
1001
0000
0101
0100
1100
0100
,  // measure 64
0101
2000
3002
0023
0230
0302
2003
3010
,  // measure 65
0110
0000
1100
1000
2001
0000
3010
0100
,  // measure 66
0101
0001
0011
0010
0210
0000
1300
0010
,  // measure 67
0110
0100
0101
0000
0011
0010
1010
0010
,  // measure 68
0012
0000
1003
0001
0201
0000
0010
0000
,  // measure 69
1300
0000
0100
0000
0010
0000
1000
0000
0001
0000
0010
0100
0010
0000
0001
0000
,  // measure 70
2000
0000
3020
0000
,  // measure 71
0032
0000
0023
0000
,  // measure 72
2030
0000
3002
0000
,  // measure 73
0023
0000
0100
0000
0100
0000
0130
0000
1000
0000
0100
1000
0001
1000
0010
1000
,  // measure 74
0002
0000
0013
1000
0001
0100
1000
0010
,  // measure 75
0200
0000
0310
1000
1002
0000
1003
0010
,  // measure 76
0001
0010
0110
0000
1000
0100
0110
0000
,  // measure 77
1001
0000
0001
0000
0011
0000
0010
0000
0110
0000
0010
0001
1000
0001
0100
0001
,  // measure 78
1000
0100
0001
1000
0010
0100
1000
0010
,  // measure 79
0004
0000
0000
0000
00M0
0000
0000
0000
0100
0003
0000
0000
0001
0000
0000
0000
0040
0000
0000
0000
000M
0000
0000
0000
1000
0030
0000
0000
0100
0000
0000
0000
,  // measure 80
0011
0101
1010
1100
,  // measure 81
1000
0100
0001
0100
2000
0010
3M00
0010
,  // measure 82
0001
0100
1000
0001
0010
0100
0001
0010
,  // measure 83
4000
0000
0000
0000
00M0
0000
0000
0000
0100
3000
0000
0000
1000
0000
0000
0000
0040
0000
0000
0000
M000
0000
0000
0000
0001
0030
0000
0000
0100
0000
0000
0000
,  // measure 84
1010
0011
0101
1100
,  // measure 85
1010
0000
0110
1000
1001
0000
0001
0010
,  // measure 86
0210
0000
0000
0000
1300
0000
0000
0001
2000
0000
3100
0000
0010
0000
0001
0000
,  // measure 87
0200
0000
0000
0000
0310
0000
0000
1000
0002
0000
0013
0000
0100
0000
1000
0001
,  // measure 88
1000
0000
0000
0000
1100
0000
0000
1000
0010
0000
1000
0000
0100
0000
0002
0000
,  // measure 89
0000
0000
0103
0000
0010
0000
0100
0000
1000
0001
0100
0001
1000
0000
0010
0000
,  // measure 90
1040
0000
0000
0000
0M00
0000
0000
0000
0001
0030
0000
0000
0000
0000
0000
0000
0401
0000
0000
0000
00M0
0000
0000
0000
1000
0300
0000
0000
0000
0000
0000
0000
,  // measure 91
1100
0100
0110
1000
2002
0000
3003
0000
,  // measure 92
MMMM
0000
MMMM
0000
MMMM
MMMM
MMMM
0000
,  // measure 93
1010
0010
0011
0010
0220
0000
0330
0000
;

//---------------dance-double - There's a trick~!----------------
#NOTEDATA:;
#CHARTNAME:;
#STEPSTYPE:dance-double;
#DESCRIPTION:There's a trick~!;
#CHARTSTYLE:;
#DIFFICULTY:Challenge;
#METER:15;
#RADARVALUES:0.653272,0.827208,0.429669,0.521740,0.053709,596.000000,540.000000,56.000000,68.000000,67.000000,0.000000,24.000000,0.000000,0.000000,0.653272,0.827208,0.429669,0.521740,0.053709,596.000000,540.000000,56.000000,68.000000,67.000000,0.000000,24.000000,0.000000,0.000000;
#CREDIT:;
#NOTES:
00000000
00000000
00000000
00000000
,
00000000
00000000
00000000
00000000
,
00000000
00000000
00000000
00000000
,
00000000
00000000
00000000
00000000
,
00000000
00000000
00000000
00000000
,
00001000
00000000
00021000
00000000
00030100
00001000
00000001
00000010
,
00000M00
00000010
00001000
00000100
00000010
00001000
00020000
00000000
,
02030000
00000000
13000000
00100000
00020000
00000000
00031000
00000100
,
00000001
00000001
00000010
00000010
00000100
00001000
00000100
00000000
,
00001000
00000100
00001000
00000100
00000010
00000001
00001000
00000010
,
00000M00
00000010
00000001
00000100
00001000
00010000
00100000
00000000
,
10000000
01000000
10000000
01000000
00100000
00010000
10000000
00100000
,
0M000000
00100000
00010000
00100000
00001000
00010000
00002000
00000000
,
00003200
00000000
00010000
00000000
00001300
00010000
00000100
00002000
,
00000000
00010000
00000000
00000100
00000000
00003001
00000001
00000100
,
00001000
00010000
00100000
00000000
00100000
00010000
00001000
00000000
,
00001000
00010000
01000000
10000000
00100000
01000000
00010000
00000000
,
00010000
01000000
00010000
01000000
00100000
10000000
00010000
00100000
,
0M000000
00100000
10000000
01000000
00010000
00001000
00000010
00000000
,
00000001
00000100
00000001
00000100
00000010
00001000
00000001
00000010
,
00000M00
00000010
00001000
00000010
00010000
00001000
00020000
00000000
,
02030000
00000000
00001000
00000000
03010000
00001000
01000000
00020000
,
00000000
00001000
00000000
01000000
00000000
10030000
10000000
01000000
,
00010000
00001000
00000010
00000000
00000010
00001000
00010000
00000000
,
00010000
00001000
00000100
00000001
00000010
00000100
00001000
00000000
,
00000010
00000000
00000120
00000000
00001030
00000100
00010000
00021000
,
00000000
00000000
01000000
00000000
01030000
00000000
00100000
00000000
00001000
00000000
00010000
00001000
00010000
00000000
00000100
00000000
,
00000010
00000000
00000120
00000000
00000031
00000100
00001000
00012000
,
00000000
00000100
00003100
00000000
00001000
00010000
00100000
10000000
,
01000000
00000000
01200000
00000000
00310000
00100000
00001000
00010000
,
00011000
00001100
00011000
01010000
,
10000000
00000000
01000000
00000000
00010000
0000M000
00010000
00000000
00100000
00000000
01000000
00000000
00010000
00000000
00001000
00000000
,
000M0000
00001000
00000100
00000010
00000001
00000000
00001000
00000000
,
00000010
0000M010
00000001
00000100
00000010
00000100
00001000
00010000
,
0000M000
00010000
00100000
01000000
10000000
00100000
00000000
00020000
,
00000000
00000000
00001000
00001000
00001000
00001000
00000000
01000000
,
00000000
00001000
00000000
00000100
00030100
00000000
00010100
00000000
,
00012000
00000000
00003200
00000000
00010300
00001000
00000010
00010000
,
00004000
000M0000
00003100
00000010
00000002
00000000
00000103
00001000
,
00040000
0000M000
01030000
00000000
00004000
0M000000
00003100
00000000
,
00010000
00001000
00010000
00100000
01000000
00010000
00M00000
00010000
,
00011000
00001000
00010000
01000000
00001000
00010000
00100000
00001000
,
00040000
0000M000
01030000
00100000
20000000
00000000
31000000
00010000
,
00004000
000M0000
00003100
00000000
00040000
00000M00
01030000
00000000
,
00001000
00000000
00010000
00000000
00001000
00000000
00000100
00000000
00000010
00000000
00001000
00000100
00010000
00000100
00001000
00000100
,
00010000
00001000
00000100
00010000
00001000
00000010
00010000
00000100
,
00004000
00000M00
00013000
00100000
20000000
00000000
31000000
00100000
,
00040000
00M00000
00030100
00000000
00004000
00000M00
01003000
00000000
,
00010000
01000000
10000000
01000000
00010000
00100000
00100000
00100000
,
00001000
00010000
01000000
00001000
00010000
00100000
00001000
01000000
,
00040000
0M000000
00031000
00000010
00000002
00000000
00000103
00000010
,
00004000
000000M0
01003000
00000000
00040000
0M000000
00030100
00000000
,
00010100
00000000
00000110
00000010
00001001
00000001
00000100
00000010
,
00002000
00000000
00003100
00001000
00000010
00000100
00001000
00010000
,
00200000
20300000
32000000
03020000
,
00032000
00000000
00000010
00000000
00023000
00000000
00130000
10000000
,
02000000
00000000
03010000
00000000
01000000
10000000
01000000
00100000
,
00020000
00000000
01030000
00010000
00100000
01000000
00010000
00001000
,
00000020
00000032
00000203
00002300
,
00023000
00000000
00100000
00000000
00031000
00000100
00000001
00000010
,
00000200
00000000
00010300
00001000
00002000
00000000
01003000
00000000
,
01100000
00000000
10100000
10000000
20010000
00000000
31000000
00100000
,
00101000
00000000
00011000
00001000
00001200
00000000
00001300
00000100
,
00000101
00000000
00000011
00000000
00000110
00000100
00010100
00010000
,
00010010
00000020
00002030
00003200
00000320
00000230
00000302
00000103
,
00000110
00000000
00000011
00000001
00001002
00000000
00000103
00000010
,
00010010
00010000
00011000
00010000
02010000
00000000
03010000
01000000
,
11000000
10000000
10100000
00000000
01100000
01000000
01001000
00001000
,
00201000
00000000
01300000
10000000
00200000
00000000
01000000
00000000
,
00310000
00000000
00001000
00000000
00010000
00000000
00000100
00000000
00000010
00000000
00000001
00001000
00000001
00000000
00000100
00000000
,
00000020
00000000
00000230
00000000
,
00002300
00000000
02003000
00000000
,
03200000
00000000
00320000
00000000
,
00032000
00000000
00010000
00000000
00010000
00000000
00013000
00000000
00001000
00000000
00010000
00000100
00001000
00000100
00010000
00001000
,
00020000
00000000
00031000
00040000
0000M000
01030000
00100000
10000000
,
04000000
M0000000
03001000
00010000
00000040
000M0000
00000031
00000100
,
00000010
00010000
00011000
00000000
00100000
00001000
00011000
00000000
,
00010100
00000000
00000100
00000000
00000110
00000000
00001000
00000000
00011000
00000000
00010000
00000100
00001000
00000100
00010000
00001000
,
00010000
00001000
00000010
00010000
00000010
00001000
00010000
00000010
,
00004000
000000M0
00013000
01000000
20000000
00000000
30100000
01000000
,
00004000
0M000000
00003001
00000000
00040000
0000000M
10030000
00000000
,
01000000
00100000
00001000
00010000
00000100
00001000
00000M00
00001000
,
00011000
00010000
00100000
00001000
00100000
00010000
00001000
00100000
,
00040000
00M00000
00031000
00000100
00000002
00000000
00000013
00000100
,
00040000
00000M00
10030000
00000000
00004000
M0000000
00003001
00000000
,
00000101
00000000
00000110
00001000
00010010
00000000
00010000
00001000
,
00000200
00010000
00002300
00100000
,
00023000
01000000
00032000
00000010
,
00013000
00000000
00011000
00000000
00010000
01000000
10000000
00400000
,
M0000000
00000000
00301000
00000000
00010000
00000000
00000100
00000000
00000010
00000001
00001000
00000001
00000100
00000000
00001000
00000000
,
00041000
0000M000
01030000
00000000
00014000
000M0000
00003100
00000000
,
00000110
00000100
00010100
00000100
00002200
00000000
00003300
00000000
,
MMMMMMMM
00000000
MMMMMMMM
00000000
MMMMMMMM
MMMM0000
0000MMMM
00000000
,
01100000
01000000
01001000
00001000
00022000
00000000
00033000
00000000
;
