#TITLE:Pompa;
#SUBTITLE:;
#ARTIST:Summer Cem;
#TITLETRANSLIT:;
#SUBTITLETRANSLIT:;
#ARTISTTRANSLIT:;
#GENRE:;
#CREDIT:;
#MUSIC:Pompa.ogg;
#BANNER:Pompa.png;
#BACKGROUND:Pompa-bg.png;
#CDTITLE:;
#SAMPLESTART:45.403;
#SAMPLELENGTH:15.000;
#SELECTABLE:YES;
#OFFSET:-0.017;
#BPMS:0.000=107.000;
#STOPS:;
#BGCHANGES:0.000=Pompa.mp4=1.000=0=0=1,
99999.000=-nosongbg-=1.000=0=0=0=StretchNoLoop====
;
#FGCHANGES:;

//--------------- dance-single - forcednature ----------------
#NOTES:
     dance-single:
     forcednature:
     Beginner:
     1:
     0,0,0,0,0:
0000
0000
0000
0000
,
0000
0000
0000
0000
,
0000
0000
0000
0000
,
0000
0000
0000
0000
,
0000
0000
0000
0000
,
1000
0000
0000
0000
,
0001
0000
0000
0000
,
0010
0000
0000
0000
,
0100
0000
0000
0000
,
1000
0000
0000
0000
,
0001
0000
0000
0000
,
0100
0000
0000
0000
,
0010
0000
0000
0000
,
1000
0000
0000
0000
,
0100
0000
0000
0000
,
0010
0000
0000
0000
,
0001
0000
0000
0000
,
0100
0000
0000
0000
,
0010
0000
0000
0000
,
1000
0000
0000
0000
,
0000
0000
0000
0000
,
1001
0000
0000
0000
,
0001
0000
0000
0000
,
0010
0000
0000
0000
,
0100
0000
0000
0000
,
1001
0000
0000
0000
,
1000
0000
0000
0000
,
0010
0000
0000
0000
,
0100
0000
0000
0000
,
0001
0000
0000
0000
,
0010
0000
0000
0000
,
0100
0000
0000
0000
,
1000
0000
0000
0000
,
0001
0000
0000
0000
,
0100
0000
0000
0000
,
0010
0000
0000
0000
,
1000
0000
0000
0000
,
0100
0000
0000
0000
,
0010
0000
0000
0000
,
0001
0000
0000
0000
,
0000
0000
0000
0000
,
1001
0000
0000
0000
,
1000
0000
0000
0000
,
0010
0000
0000
0000
,
0100
0000
0000
0000
,
1001
0000
0000
0000
,
0001
0000
0000
0000
,
0010
0000
0000
0000
,
0100
0000
0000
0000
,
1001
0000
0000
0000
,
1000
0000
0000
0000
,
0001
0000
0000
0000
,
0100
0000
0000
0000
;

//--------------- dance-single - forcednature ----------------
#NOTES:
     dance-single:
     forcednature:
     Easy:
     3:
     0,0,0,0,0:
0000
0000
0000
0000
,
0000
0000
0000
0000
,
0000
0000
0000
0000
,
0000
0000
0000
0000
,
0000
0000
0000
0000
,
2000
0000
0000
3000
,
0002
0000
0000
0003
,
0200
0000
0000
0300
,
0020
0000
0000
0030
,
1001
1000
0001
0000
,
0010
0100
1000
0000
,
0100
0010
0001
0000
,
0100
0010
1000
0000
,
0100
0100
0100
0000
,
0010
0010
0010
0000
,
0001
0001
0001
0000
,
1000
1000
1000
0000
,
0002
0000
0010
0003
,
2000
0000
0010
3000
,
0002
0000
0100
0003
,
0000
0010
0010
0100
,
1001
0000
0001
0001
,
0100
0000
1000
1000
,
0100
0000
0001
0001
,
0010
0000
0100
0100
,
1001
1000
0010
1000
,
0001
0010
0100
0010
,
0001
1000
0100
1000
,
0010
0000
0000
0010
0000
0000
0010
0000
0000
0010
0000
0000
0010
0000
0000
0000
,
0200
0000
0000
0300
,
0002
0000
0000
0003
,
2000
0000
0000
3000
,
0200
0000
0000
0300
,
0110
0000
0001
1000
,
0001
0000
1000
0010
,
1000
0000
0001
0010
,
0001
0000
0100
0010
,
0100
0000
0001
0001
,
0000
0000
1000
1000
,
0000
0000
0100
0100
,
0000
0000
0020
0030
,
1001
1000
0001
1000
,
0001
0100
0001
0100
,
0010
1000
0010
1000
,
0001
0010
0100
0000
,
1001
0000
1000
0010
,
1000
0000
0001
0010
,
0001
0000
0100
0010
,
0100
0000
0001
1000
,
1001
0001
0010
0001
,
1000
0010
1000
0100
,
0010
0001
1000
0010
,
0100
0000
0000
0100
0000
0000
0100
0000
0000
0100
0000
0000
0001
0000
0000
0000
;

//--------------- dance-single - forcednature ----------------
#NOTES:
     dance-single:
     forcednature:
     Medium:
     7:
     0,0,0,0,0:
0000
0000
0000
0000
,
0000
0000
0000
0000
,
0000
0000
0000
0000
,
0000
0000
0000
0000
,
0000
0000
0000
0000
,
1000
0000
0000
0100
0000
0000
0010
0000
0000
0001
0000
0000
0000
0000
0000
0000
,
0001
0000
0000
0100
0000
0000
0010
0000
0000
1000
0000
0000
0000
0000
0000
0000
,
1000
0000
0000
0001
0000
0000
0010
0000
0000
0001
0000
0000
0000
0000
0000
0000
,
0001
0000
0000
1000
0000
0000
0010
0000
0000
1000
0000
0000
0000
0000
0000
0000
,
1100
0000
0001
0010
0100
1000
0001
0000
,
0100
0000
1000
0100
0001
0010
0100
0000
,
0010
0000
0001
1000
0010
0001
0010
0000
,
0100
0000
0001
1000
0100
0010
0001
0000
,
0101
0000
1100
0000
0001
0010
1000
0000
,
1100
0000
0101
0000
1000
0010
0001
0000
,
0110
0000
1001
0000
0001
0010
1000
0000
,
0001
0100
1000
0000
0010
0100
1000
0000
,
0210
0000
0001
0301
,
0020
0000
1000
1030
,
0002
0000
0010
0013
,
0000
0000
1000
0000
0001
0000
0100
0010
,
0110
0000
0001
0000
1000
0100
0010
0000
,
0101
0000
1000
0000
0001
0010
0100
0000
,
1010
0000
0001
0000
1000
0100
0010
0000
,
0110
0000
0001
1000
0001
0100
0010
0000
,
0110
0000
0010
1000
0001
0001
0010
0000
,
0110
0000
0100
1000
0001
0001
1000
0010
,
0100
0000
0001
1000
0100
0100
0010
0000
,
0001
0000
0000
0101
0000
0000
1000
0000
0000
1100
0000
0000
1001
0000
0000
0000
,
0020
0000
0000
0100
0000
0000
0100
0000
0000
0100
0000
0000
0030
0000
0000
0000
,
2000
0000
0000
0001
0000
0000
0001
0000
0000
0001
0000
0000
3000
0000
0000
0000
,
0200
0000
0000
0010
0000
0000
0010
0000
0000
0010
0000
0000
0300
0000
0000
0000
,
0002
0000
0000
1000
0000
0000
1000
0000
0000
1000
0000
0000
0003
0000
0000
0000
,
1001
0000
1000
0010
0100
0001
0100
0000
,
0010
0000
1000
0001
0010
0100
0010
0000
,
0001
0000
1000
0100
1000
0010
0100
0000
,
0001
0000
0010
0100
1000
0100
0010
0000
,
0001
0000
0000
0100
0000
0000
0001
0000
0000
1000
0000
0000
0000
0000
0000
0000
,
1000
0000
0000
0100
0000
0000
1000
0000
0000
0001
0000
0000
0000
0000
0000
0000
,
0001
0000
0000
0010
0000
0000
0001
0000
0000
1000
0000
0000
0010
0000
0000
0000
,
0000
0000
0100
0000
0100
0000
0000
0001
0000
1000
0000
0000
0100
0000
0000
0000
,
0110
0000
1000
0000
0001
0100
0010
0000
,
1010
0000
0001
0000
1000
0100
0010
0000
,
1100
0000
0001
0000
0100
0010
1000
0000
,
0011
0000
1000
0000
0001
0000
0010
0100
,
0110
0000
1000
0000
0001
0100
0010
0000
,
1000
0000
0001
0000
0010
0100
1000
0000
,
0001
0000
0100
0000
0010
1000
0001
0000
,
0010
0000
0100
1000
0010
0100
0001
0000
,
1001
0000
1000
0100
0010
0010
0001
0000
,
0101
0000
0001
1000
0010
0010
0100
0001
,
1000
0000
0100
0010
0001
0001
1000
0000
,
0001
0000
0000
0011
0000
0000
1000
0000
0000
1010
0000
0000
0100
0000
0010
0000
;

//--------------- dance-single - forcednature ----------------
#NOTES:
     dance-single:
     forcednature:
     Hard:
     10:
     0,0,0,0,0:
0000
0000
0000
0000
,
0000
0000
0000
0000
,
0000
0000
0000
0000
,
0000
0000
0000
0000
,
0000
0000
0000
0000
,
0102
0000
0000
0100
0000
0000
1000
0000
0000
0010
0000
0000
0003
0000
0000
0000
,
2000
0000
0000
0100
0000
0000
0100
0000
0000
3001
0000
0000
0110
0000
0000
0000
,
1002
0000
0000
0100
0000
0000
1000
0000
0000
0010
0000
0000
0003
0000
0000
0000
,
2000
0000
0000
0100
0000
0000
0001
0000
3010
0000
0010
0000
0110
0000
0000
0000
,
0001
0000
0000
0001
0100
0000
0010
0000
1000
0000
0100
0010
0100
0000
0001
0000
,
0100
0000
0000
0100
1000
0000
0001
0000
1000
0000
0010
0100
0010
0000
0001
0000
,
0010
0000
0000
0010
1000
0000
0001
0000
0010
0000
0100
0001
0100
0000
1000
0000
,
0001
0000
0000
0001
0100
0000
0010
0000
1000
0000
1000
0001
1000
0000
0100
0000
,
0110
0000
0010
0001
1000
0000
0010
0000
0100
0000
0010
1000
0002
0000
0000
0000
,
0013
0000
0000
0010
0100
0000
1000
0000
0001
0000
0100
0010
0200
0000
0000
0000
,
0301
0000
0000
0001
0010
0000
0100
0000
1000
0000
0010
0100
0000
0001
0100
0000
,
0010
0000
1000
0100
0000
0001
0100
0000
0010
0000
0001
1000
0020
0000
0000
0000
,
0230
0000
0000
0001
0000
0000
0001
0000
0000
0001
0000
0000
0300
0000
0000
0000
,
0020
0000
0000
1000
0000
0000
1000
0000
0000
1000
0000
0000
0030
0000
0000
0000
,
0002
0000
0000
0100
0000
0000
0100
0000
0000
1000
0000
0000
0013
0000
0001
0000
,
0000
0000
0100
0100
0010
0010
1000
0001
,
1001
0000
0000
0000
1100
0000
0001
0000
0010
0100
0000
1000
0001
0000
0100
0000
,
0110
0000
0000
0000
0101
0000
1000
0000
0010
0100
0000
0001
1000
0000
0100
0000
,
0011
0000
0000
0000
1010
0000
0001
0000
1000
0010
0000
0100
0001
0000
0010
0000
,
0110
0000
0000
0000
1100
0000
0001
1000
0001
0000
0100
0001
0010
0000
0100
0000
,
0110
0000
0000
0010
0001
0000
1000
0000
0001
0100
1000
0000
0100
0000
0010
0000
,
1001
0000
0000
0001
0010
0000
0001
0000
1000
0100
0001
0000
0100
0000
0010
0000
,
0110
0000
0000
0100
1000
0000
0001
0000
1000
0010
0001
0000
0010
0000
0100
0000
,
0101
0000
0000
0011
0000
0000
1100
0000
0000
1010
0000
0000
0100
0000
0010
0000
,
2001
0000
0000
0100
0000
0000
0100
0000
0000
0001
0000
0000
3000
0000
0000
0000
,
0002
0000
0000
0100
0000
0000
0100
0000
0000
1000
0000
0000
0003
0000
0000
0000
,
0120
0000
0000
1000
0000
0000
0100
0000
0000
0001
0000
0000
0030
0000
0000
0000
,
0200
0000
0000
0001
0000
0000
0010
0000
0000
1300
0000
0000
0110
0000
0000
0000
,
1001
0000
0000
0001
0100
0000
0010
1000
0001
0000
1000
0100
0010
0000
0001
0000
,
0101
0000
0000
0000
0001
0000
1000
0010
0100
0000
0001
1000
0100
0000
0010
0000
,
0011
0000
0000
0000
1000
0000
0001
0010
0100
0000
1000
0001
0100
0000
0010
0000
,
0110
0000
0000
0001
1000
0000
0100
0000
0010
0001
1000
0001
0100
0000
0010
0000
,
1000
0000
0000
0100
1000
0000
0001
0000
1000
0010
0000
0000
MMMM
0000
0000
0000
,
0001
0000
0000
0010
0001
0000
1000
0000
0001
0100
0000
0000
MMMM
0000
0000
0000
,
0100
0000
0000
1000
0100
0000
0010
0000
0100
0001
0000
0000
0020
0000
0000
0000
,
0030
0000
0001
0000
0001
0000
1000
0100
0000
1000
0000
0001
0100
0000
0010
0000
,
1001
0000
1000
0000
0100
0000
0000
0000
0010
0001
0000
0010
0001
0000
0000
0000
,
0001
0000
0001
0000
0100
0000
0001
0000
1000
0010
0000
1000
0010
0000
0000
0000
,
1000
0000
0001
0000
0010
0000
0100
0000
1000
0001
0000
1000
0001
0000
0100
0000
,
0010
0000
0100
0100
0001
1000
0100
0010
,
0110
0000
0000
0000
1100
0000
0001
0000
1000
0010
0000
0001
0010
0000
0100
0000
,
0101
0000
0000
0000
1100
0000
0001
0000
0010
1000
0000
0010
0100
0000
1000
0000
,
0011
0000
0000
0000
1010
0000
0001
0000
0100
0010
0000
1000
0100
0000
0001
0000
,
0110
0000
0000
0000
1001
0000
1000
0010
1000
0000
0001
0010
0100
0000
0010
0000
,
0110
0000
0000
0100
1000
0000
0010
0000
1000
0100
0001
0000
0100
0000
0010
0000
,
0101
0000
0000
0001
1000
0000
0010
0000
0001
0010
1000
0000
0100
0000
0010
0000
,
1001
0000
0000
1000
0100
0000
0010
0000
0001
0100
1000
0000
0100
0000
0010
0000
,
1010
0000
0000
0101
0000
0000
0011
0000
0000
1100
0000
0000
0010
0000
0100
0000
;

//--------------- dance-double - forcednature ----------------
#NOTES:
     dance-double:
     forcednature:
     Easy:
     4:
     0,0,0,0,0:
00000000
00000000
00000000
00000000
,
00000000
00000000
00000000
00000000
,
00000000
00000000
00000000
00000000
,
00000000
00000000
00000000
00000000
,
00000000
00000000
00000000
00000000
,
00002000
00000000
00000000
00003000
,
02000000
00000000
00000000
03000000
,
00020000
00000000
00000000
00030000
,
20000000
00000000
00000000
30000000
,
10010000
00000000
00010000
00100000
,
00001000
00000000
00010000
00000010
,
00001000
00000000
00000001
00000010
,
00000100
00000000
00000010
00000100
,
00001000
00001000
00001000
00000000
,
00000010
00000010
00000010
00000000
,
00010000
00010000
00010000
00000000
,
00001000
00001000
00001000
00000000
,
00022000
00000000
00000000
00033000
,
02000000
00000000
00000000
03000000
,
00020000
00000000
00000000
00030000
,
00000000
00100000
00100000
00000000
,
10010000
00000000
10000000
01000000
,
00100000
00000000
00010000
01000000
,
00001000
00000000
00010000
00000100
,
00001000
00000000
00000001
00000000
,
00000110
00000000
00001000
00000001
,
00000010
00000000
00000100
00010000
,
00001000
00000000
01000000
00010000
,
00100000
00000000
00000000
00100000
00000000
00000000
00100000
00000000
00000000
00100000
00000000
00000000
00100000
00000000
00000000
00000000
,
02000000
00000000
00000000
03000000
,
20000000
00000000
00000000
30000000
,
00020000
00000000
00000000
00030000
,
02000000
00000000
00000000
03000000
,
00011000
00000000
00010000
00000100
,
00001000
00000000
00000001
00000100
,
00000010
00000000
00001000
00000100
,
00010000
00000000
00001000
01000000
,
00010000
00000000
10000000
01000000
,
00100000
00000000
00010000
01000000
,
00001000
00000000
00010000
00000100
,
00000000
00000010
00000010
00000010
,
00000110
00001000
00000001
00000000
,
00000100
00000010
00001000
00000000
,
00000100
00010000
00001000
00000000
,
00000000
01000000
01000000
00100000
,
01100000
00000000
10000000
00010000
,
00100000
00000000
00001000
00010000
,
00000010
00000000
00001000
00000001
,
00000010
00000000
00000100
00001000
,
00001001
00000001
00000100
00000010
,
00001000
00000100
00010000
00001000
,
01000000
00010000
10000000
01000000
,
00100000
00000000
00000000
00100000
00000000
00000000
00100000
00000000
00000000
00100000
00000000
00000000
00010000
00000000
00000000
00000000
;

//--------------- dance-double - forcednature ----------------
#NOTES:
     dance-double:
     forcednature:
     Medium:
     7:
     0,0,0,0,0:
00000000
00000000
00000000
00000000
,
00000000
00000000
00000000
00000000
,
00000000
00000000
00000000
00000000
,
00000000
00000000
00000000
00000000
,
00000000
00000000
00000000
00000000
,
00001000
00000000
00000000
01000000
00000000
00000000
00010000
00000000
00000000
00100000
00000000
00000000
00000000
00000000
00000000
00000000
,
00001000
00000000
00000000
00010000
00000000
00000000
00000100
00000000
00000000
00001000
00000000
00000000
00000000
00000000
00000000
00000000
,
00000010
00000000
00000000
00010000
00000000
00000000
00001000
00000000
00000000
00100000
00000000
00000000
00000000
00000000
00000000
00000000
,
00010000
00000000
00000000
10000000
00000000
00000000
01000000
00000000
00000000
00100000
00000000
00000000
00000000
00000000
00000000
00000000
,
01100000
00000000
01000000
00000000
10000000
00010000
10000000
00000000
,
00100000
00000000
01000000
00000000
00010000
00100000
00010000
00000000
,
00001000
00000000
00000100
00000000
00001000
00000010
00001000
00000000
,
00000001
00000000
00000100
00000000
00000010
00001000
00000010
00000000
,
00010000
00001000
00010000
00000000
00001000
00010000
00001000
00000000
,
01000000
00000000
00010000
00000000
01000000
00010000
01000000
00000000
,
00100000
00000000
10000000
00000000
00100000
00100000
00100000
00000000
,
00010000
00010000
00010000
00000000
00001000
00001000
00001000
00000000
,
00000220
00000000
00000000
00000330
,
00000002
00000000
00000000
00000003
,
00000200
00000000
00000000
00000300
,
00000000
00000000
00000010
00000010
00001000
00001000
00000001
00000010
,
00000110
00000000
00000100
00000000
00001000
00000001
00000100
00000000
,
00000010
00000000
00010000
00000000
00001000
01000000
00010000
00000000
,
00100000
00000000
00001000
00000000
01000000
00010000
10000000
00000000
,
01000000
00000000
00100000
00000000
00010000
01000000
00001000
00000000
,
00011000
00000000
00010000
00000100
00001000
00000000
00000010
00001000
,
00000100
00000000
00000010
00000001
00000100
00000001
00000010
00000100
,
00001000
00000000
00000010
00010000
00001000
00000000
00100000
00001000
,
00010000
00000000
00000000
00100000
00000000
00000000
10000000
00000000
00000000
01000000
00000000
00000000
00010000
00000000
00000000
00000000
,
00001000
00000000
00000000
00001000
00000000
00000000
00000100
00000000
00000000
00000100
00000000
00000000
00000000
00000000
00000000
00000000
,
00000001
00000000
00000000
00000001
00000000
00000000
00000010
00000000
00000000
00000010
00000000
00000000
00000000
00000000
00000000
00000000
,
00000100
00000000
00000000
00000100
00000000
00000000
00010000
00000000
00000000
00010000
00000000
00000000
00000000
00000000
00000000
00000000
,
00001000
00000000
00000000
00001000
00000000
00000000
01000000
00000000
00000000
01000000
00000000
00000000
00000000
00000000
00000000
00000000
,
01010000
00000000
10000000
00100000
00010000
00100000
01000000
00000000
,
00010000
00000000
00100000
01000000
00010000
00001000
00000010
00000000
,
00000100
00000000
00001000
00000001
00000100
00000010
00001000
00000000
,
00000100
00000000
00010000
00001000
01000000
00010000
00100000
00000000
,
01000000
00000000
00000000
00010000
00000000
00000000
00001000
00000000
00000000
00000010
00000000
00000000
00000001
00000000
00000000
00000000
,
00000100
00000000
00000000
00001000
00000000
00000000
00010000
00000000
00000000
00100000
00000000
00000000
10000000
00000000
00000000
00000000
,
01000000
00000000
00000000
00010000
00000000
00000000
00001000
00000000
00000000
00000010
00000000
00000000
00000001
00000000
00000000
00000000
,
00000000
00000100
00000100
00001000
00010000
01000000
00100000
00000000
,
10010000
00000000
10000000
01000000
00100000
00010000
01000000
00000000
,
00001000
00000000
00010000
00000100
00001000
00000010
00010000
00000000
,
00001000
00000000
00000010
00000100
00001000
00000100
00000010
00000000
,
00001001
00000000
00000001
00000100
00000010
00001000
00000010
00010000
,
00001000
00000000
00100000
00000000
00010000
01000000
00100000
00000000
,
10000000
00000000
01000000
00000000
00100000
00010000
01000000
00000000
,
00001000
00000000
00010000
00000000
00000100
00001000
00000010
00000000
,
00000100
00000000
00000001
00000010
00000100
00001000
00000010
00000000
,
00000110
00000000
00000100
00000001
00001000
00000100
00010000
00000000
,
00001000
00000000
01000000
00010000
00100000
01000000
10000000
01000000
,
00100000
00000000
00010000
10000000
00100000
01000000
00010000
00000000
,
00100000
00000000
00000000
00001000
00000000
00000000
00010000
00000000
00000000
00000010
00000000
00000000
00000100
00000000
00000100
00000000
;

//--------------- dance-double - forcednature ----------------
#NOTES:
     dance-double:
     forcednature:
     Hard:
     10:
     0,0,0,0,0:
00000000
00000000
00000000
00000000
,
00000000
00000000
00000000
00000000
,
00000000
00000000
00000000
00000000
,
00000000
00000000
00000000
00000000
,
00000000
00000000
00000000
00000000
,
00021000
00000000
00000000
00001000
00000000
00000000
00000100
00000000
00000000
00000010
00000000
00000000
00030000
00000000
00000000
00000000
,
00002000
00000000
00000000
00010000
00000000
00000000
01000000
00000000
00000000
00103000
00000000
00000000
00110000
00000000
00000000
00000000
,
12000000
00000000
00000000
00010000
00000000
00000000
10000000
00000000
00000000
00100000
00000000
00000000
03000000
00000000
00000000
00000000
,
00200000
00000000
00000000
01000000
00000000
00000000
00010000
00000000
00301000
00000000
00001000
00000000
00011000
00000000
00000000
00000000
,
00010000
00000000
00000000
00010000
00000010
00000000
00001000
00000000
00000100
00000000
00000010
00000001
00000010
00000000
00000100
00000000
,
00010000
00000000
00000000
00010000
00001000
00000000
01000000
00000000
00100000
00000000
00010000
00001000
00010000
00000000
00000100
00000000
,
00001000
00000000
00000000
00001000
00100000
00000000
01000000
00000000
00010000
00000000
00100000
01000000
00100000
00000000
00010000
00000000
,
10000000
00000000
00000000
10000000
00100000
00000000
00010000
00000000
00001000
00000000
00001000
00000010
00000100
00000000
00001000
00000000
,
00000001
00000000
00000100
00001000
00010000
00000000
00100000
00000000
10000000
00000000
01000000
00010000
00002000
00000000
00000000
00000000
,
00003010
00000000
00000000
00000010
00000100
00000000
00001000
00000000
00000001
00000000
00000100
00001000
00020000
00000000
00000000
00000000
,
00130000
00000000
00000000
00100000
01000000
00000000
00010000
00000000
10000000
00000000
01000000
00010000
00000000
00001000
00010000
00000000
,
00000010
00000000
00000100
00001000
00000000
00010000
00001000
00000000
00100000
00000000
00010000
10000000
00200000
00000000
00000000
00000000
,
02300000
00000000
00000000
00010000
00000000
00000000
00010000
00000000
00000000
00001000
00000000
00000000
03000000
00000000
00000000
00000000
,
00000200
00000000
00000000
00001000
00000000
00000000
00001000
00000000
00000000
00010000
00000000
00000000
00000300
00000000
00000000
00000000
,
00020000
00000000
00000000
00100000
00000000
00000000
00001000
00000000
00000000
00000100
00000000
00000000
00031000
00000000
00010000
00000000
,
00000000
00000000
00100000
00100000
10000000
10000000
01000000
00010000
,
00011000
00000000
00000000
00000000
00000100
00000000
00000001
00000000
00000100
00000010
00000000
00000001
00001000
00000000
00000010
00000000
,
00010000
00000000
00000000
00000000
00000100
00000000
00010000
00000000
00001000
01000000
00000000
00010000
10000000
00000000
01000000
00000000
,
00100000
00000000
00000000
00000000
00001000
00000000
00000010
00000000
00000100
00001000
00000000
00000001
00000100
00000000
00000010
00000000
,
00001000
00000000
00000000
00000000
00010000
00000000
01000000
00100000
01000000
00000000
00010000
10000000
01000000
00000000
00100000
00000000
,
01000000
00000000
00000000
01000000
00010000
00000000
00001000
00000000
00000010
00000100
00001000
00000000
00000010
00000000
00000100
00000000
,
00000001
00000000
00000000
00000001
00000010
00000000
00000100
00000000
00010000
00001000
00000100
00000000
00000010
00000000
00001000
00000000
,
00010000
00000000
00000000
00010000
01000000
00000000
00100000
00000000
10000000
01000000
00010000
00000000
00001000
00000000
00000010
00000000
,
00000001
00000000
00000000
00001000
00000000
00000000
00010000
00000000
00000000
10000000
00000000
00000000
00100000
00000000
01000000
00000000
,
20010000
00000000
00000000
32000000
00000000
00000000
03020000
00000000
00000000
00032000
00000000
00000000
00003010
00000000
00000000
00000000
,
00000002
00000000
00000000
00000203
00000000
00000000
00002300
00000000
00000000
00023000
00000000
00000000
00130000
00000000
00000000
00000000
,
20000000
00000000
00000000
30200000
00000000
00000000
00320000
00000000
00000000
00032000
00000000
00000000
00003100
00000000
00000000
00000000
,
00000002
00000000
00000000
00000023
00000000
00000000
00002030
00000000
00000000
00023000
00000000
00000000
01030000
00000000
00000000
00000000
,
01100000
00000000
00000000
00100000
00010000
00000000
10000000
00100000
01000000
00000000
00010000
01000000
00001000
00000000
00010000
00000000
,
00000100
00000000
00000000
00000000
00001000
00000000
00000010
00000100
00000001
00000000
00000010
00000100
00001000
00000000
00000010
00000000
,
00010000
00000000
00000000
00000000
00001000
00000000
00100000
00010000
01000000
00000000
00100000
10000000
00010000
00000000
00100000
00000000
,
01000000
00000000
00000000
01000000
00010000
00000000
00001000
00000000
00000010
00000100
00001000
00000100
00010000
00000000
00001000
00000000
,
01000000
00000000
00000000
00000100
00000000
00000000
00100000
00000000
00000000
00000010
00000000
00000000
MMMM1001
00000000
00000000
00000000
,
00000100
00000000
00000000
01000000
00000000
00000000
00000010
00000000
00000000
00100000
00000000
00000000
1001MMMM
00000000
00000000
00000000
,
01000000
00000000
00000000
00000010
00000000
00000000
00100000
00000000
00000000
00000100
00000000
00000000
MMMM1001
00000000
00000000
00000000
,
00000000
00000000
00000001
00000000
00000001
00000000
00000100
00001000
00000000
00010000
00000000
00100000
10000000
00000000
00010000
00000000
,
10010000
00000000
10000000
00000000
01000000
00000000
00000000
00000000
00010000
00001000
00000000
00010000
00001000
00000000
00000010
00000000
,
00000100
00000000
00000100
00000000
00001000
00000000
00000001
00000000
00000100
00001000
00000000
00000100
00001000
00000000
00010000
00000000
,
00100000
00000000
10000000
00000000
00010000
00000000
10000000
00000000
01000000
00010000
00000000
01000000
00010000
00000000
00001000
00000000
,
00000010
00000000
00000001
00000001
00000100
00001000
00010000
00100000
,
01100000
00000000
00000000
00000000
10000000
00000000
01000000
00000000
00100000
00010000
00000000
00100000
00001000
00000000
00010000
00000000
,
00100000
00000000
00000000
00000000
01000000
00000000
00001000
00000000
00010000
00000100
00000000
00001000
00000100
00000000
00000010
00000000
,
00000001
00000000
00000000
00000000
00000100
00000000
00001000
00000000
00010000
00001000
00000000
01000000
00010000
00000000
00100000
00000000
,
01000000
00000000
00000000
00000000
00010000
00000000
00000100
00001000
00000100
00000000
00000010
00000001
00001000
00000000
00000010
00000000
,
00010000
00000000
00000000
00010000
00100000
00000000
10000000
00000000
00010000
00100000
01000000
00000000
00010000
00000000
00001000
00000000
,
00000100
00000000
00000000
00000100
00000010
00000000
00001000
00000000
00000001
00000010
00001000
00000000
00010000
00000000
00100000
00000000
,
10000000
00000000
00000000
10000000
00010000
00000000
00100000
00000000
00001000
00000010
00000100
00000000
00001000
00000000
00000001
00000000
,
00000100
00000000
00000000
00010000
00000000
00000000
01000000
00000000
00000000
00001000
00000000
00000000
00000010
00000000
00000110
00000000
;
