#VERSION:0.83;
#TITLE:Pleiades;
#SUBTITLE:;
#ARTIST:春猿火;
#TITLETRANSLIT:;
#SUBTITLETRANSLIT:;
#ARTISTTRANSLIT:Harusaruhi;
#GENRE:;
#CREDIT:;
#MUSIC:Pleiades.ogg;
#BANNER:Pleiades.png;
#BACKGROUND:Pleiades-bg.png;
#JACKET:Pleiades-jacket.png;
#CDTITLE:;
#SAMPLESTART:48.416;
#SAMPLELENGTH:12.000;
#SELECTABLE:YES;
#OFFSET:-0.416;
#BPMS:0.000=160.000;
#STOPS:;
#BGCHANGES:;
#FGCHANGES:;

//--------------- dance-single - XO+ FS- ----------------
#NOTEDATA:;
#STEPSTYPE:dance-single;
#DESCRIPTION:XO+ FS-;
#DIFFICULTY:Hard;
#METER:15;
#RADARVALUES:0,0,0,0,0;
#NOTES:
0000
0000
0000
0000
,
0000
0000
0000
0000
,
0000
0000
0000
0000
,
0000
0000
0000
0000
,
0000
0000
0000
0000
,
0000
0000
0000
0000
,
0000
0000
0000
0000
,
0000
0000
0000
0000
0000
0000
0000
0000
0000
0000
0000
0000
1000
0000
0001
0010
,
0100
0000
1000
0000
0100
00M0
0100
0000
0001
0000
0100
0010
0100
0000
0001
0010
,
0100
0000
1000
0000
0010
0100
000M
0100
1000
0000
0001
0010
0100
0000
0010
0000
,
1000
0010
0000
0001
1000
0010
1000
0000
0100
0010
0001
0000
1000
0000
0100
1000
,
0001
0000
0001
0010
0000
0000
0100
1000
0010
0000
1000
0000
0100
0000
1000
0010
,
0001
0000
0010
0000
0100
0001
1000
0000
0100
00M0
0100
0001
0000
1000
0010
0M00
,
0010
0001
0000
0000
1000
0000
0100
0010
1000
0000
0010
0001
0000
1000
0010
0000
,
0100
0001
0000
0000
1000
0000
0100
1000
0010
0000
0100
2000
0000
0000
0000
0000
,
3100
0001
0010
0100
0001
0100
1000
0000
,
1100
0000
0000
0100
0010
0001
1000
0010
1000
0100
0000
1000
,
0001
0100
0001
1000
0100
1000
0010
0000
0000
0100
0000
0000
,
0101
0000
0000
0001
0100
0001
1000
0100
1000
0010
0000
1000
,
0001
0010
0001
1000
0010
1000
0100
0000
0000
0010
0000
0000
,
0011
0000
0000
0000
0001
0000
0001
0000
1000
0000
0010
0100
0001
0000
1000
0100
,
0010
0000
0100
1000
0000
0001
0010
0001
0100
0000
0010
1000
0001
0000
0010
0000
,
0110
0000
0100
0000
1000
0001
0100
0001
0010
0000
0100
0000
0010
0001
1000
0010
,
0000
0000
0100
0001
1000
0100
0000
1000
0010
0000
0100
0000
0001
0000
0000
0000
,
0010
0000
0001
1000
0020
0000
0230
0000
,
2300
0000
3200
0000
0001
0000
0301
1000
,
0100
0010
0001
1000
0010
1000
0100
0010
,
2000
3020
0032
0203
,
0310
0000
1000
0001
0010
0001
0010
0100
,
0002
0000
0203
0000
1300
0001
0100
0010
,
1000
1000
0100
0100
0010
0010
0001
0001
,
0400
0340
4030
3040
0034
0043
0430
0304
,
1003
0100
0000
0000
0001
0000
0000
0100
0010
0001
0000
0000
0200
0000
0000
0000
,
0310
0001
0000
0000
0010
1000
0000
0000
0100
0001
0000
0000
0200
0000
0000
0000
,
1300
0001
0000
0000
0100
0000
0010
0000
0002
0000
0000
0000
0013
0000
0000
0000
,
0100
0001
0100
0001
0101
0100
0020
0000
,
0031
0000
0010
0000
0000
0000
0000
0000
1000
0000
0000
0100
0000
0000
0000
0000
0001
0000
0100
0000
0000
0000
0000
0000
0020
0000
0000
0000
0000
0000
0000
0000
,
0031
0000
0000
0000
0000
1000
0000
0000
0000
0000
0000
0000
0000
0000
0000
0000
0010
0000
0000
0000
0000
0000
0000
0000
0100
0000
0000
0000
0000
0000
0000
0000
2000
0000
0000
0000
0000
0000
0000
0000
0000
0000
0000
0000
0000
0000
0000
0000
3200
0000
0000
0000
0000
0000
0000
0000
0000
0000
0000
0000
0300
0000
0000
0000
,
0101
0000
1000
0001
0010
1000
0020
0000
,
0130
1000
0001
0100
0101
1000
0001
0010
,
0110
0000
1000
0000
0001
0000
0100
0000
0101
0000
0000
0001
0100
0000
0010
0000
,
1000
0004
0013
0100
0110
1000
0001
0100
,
0010
1000
0001
0000
1000
0000
0100
0000
1100
0000
0001
0000
0010
0000
0001
0000
,
1000
0000
0000
0010
0100
0000
0001
0000
0101
0000
0100
0000
0010
0000
1000
0000
,
0100
0000
1000
0000
0100
0000
1000
0000
1010
0000
0000
0010
0100
0000
0001
0000
,
1000
0400
0310
0001
0102
0000
0100
0000
,
0013
0100
1000
0000
0001
0000
0010
0000
0110
0000
0000
0001
1000
0000
0010
0000
,
0100
0000
0000
0001
0010
0001
0010
0000
0110
0000
0100
0000
1000
0000
0001
0000
,
0100
0010
1000
0100
0001
0100
1000
0010
,
0100
0000
1001
0000
1100
1000
0001
0100
,
0010
0000
0000
1000
0001
0000
0010
0000
0100
0000
0010
0000
0001
0000
1000
0000
,
0010
0000
0000
0001
0000
0000
0010
0000
1000
0000
0001
0000
1000
0000
0100
0000
,
0010
0001
1000
0000
0100
0000
1000
0000
0100
0000
0000
0010
0000
0000
0100
0000
,
0010
0000
0000
1000
0000
0000
0010
0000
0001
0000
0100
0001
1000
0000
0001
0000
,
0100
0010
1000
0400
0301
0100
1000
0010
,
0100
0000
0000
1000
0000
0000
0100
0000
0001
0000
1000
0000
0100
0000
0010
0000
,
1000
0010
0001
0100
2000
0000
3100
0001
,
0010
0000
0000
0100
0000
0000
0001
0000
0400
0000
0300
0000
1000
0000
0000
0000
,
1001
0001
0100
0010
0002
0000
0013
1000
,
0001
0000
0040
0000
0230
0000
0000
0000
0302
0000
0000
0000
0203
0000
0000
0300
,
1100
1000
0010
1000
0100
0010
0200
0000
,
0301
0000
0100
0010
4000
3010
0001
1000
,
1100
0100
0010
0001
0100
0010
0001
0000
,
0010
4000
3010
0100
2000
0000
3200
0000
,
0301
1000
0100
0000
0010
0000
0001
0000
0100
0000
0010
0000
1000
0000
0001
0000
,
0010
0000
0000
0001
1000
0100
0010
0000
1000
0000
0010
0000
0001
0000
0000
0000
,
0011
0000
0020
0000
0230
0000
1300
0001
,
0200
0000
0302
0010
2003
0000
3200
0000
,
0302
0000
0103
1000
0020
0000
0230
0000
,
2300
3100
0002
1003
,
1010
0000
0020
0000
0230
0000
0301
1000
,
0200
0000
2300
0010
3002
0000
0203
0000
,
0301
0100
0010
0001
0010
0100
1000
0100
,
0001
0010
0400
0000
1300
0001
0400
0000
,
1301
0000
0000
0000
0001
0000
1000
0100
0010
0000
0100
0000
1000
0000
0010
0100
,
1000
0000
0000
0000
0100
0001
0100
0000
0010
1000
0001
0000
0010
0000
0000
0000
,
0011
0000
0001
0010
0000
0100
1000
0000
0001
0100
0000
0010
1000
0000
0001
0010
,
0000
0100
1000
0000
0001
0100
0000
0010
1000
0010
1000
0000
0001
0010
0001
0010
,
1000
0000
0000
0000
0010
0001
0000
0001
0100
0000
0010
1000
0100
0000
0010
0001
,
0100
0000
0010
1000
0100
0000
0100
0000
0010
0001
1000
0010
0001
0000
0010
0000
,
1010
0000
1000
0100
1000
0000
0100
1000
0010
0000
0100
0001
1000
0000
0100
0010
,
0001
1000
0010
0000
0100
0001
1000
0000
0010
0100
0001
0100
1000
0000
0100
0000
,
0101
0000
0100
0010
1000
0001
0010
0100
,
0110
0010
0011
0001
0101
0100
0110
0010
,
1010
0000
1000
0001
0010
0100
1000
0010
,
1010
1000
1001
0001
0011
0010
0110
0000
,
1001
0000
0001
1000
0100
0010
0001
1000
,
0010
0M00
0010
0000
0001
0000
0100
0000
1000
0000
0100
0000
0010
0000
1000
0000
,
1100
0100
0010
0001
0100
0010
1000
0100
,
0001
0100
0010
0001
1001
0100
1001
0010
,
1001
0000
0001
1000
,
0000
1000
0100
0000
,
1000
0000
0010
0000
,
0200
0000
0000
0000
,
0300
0000
0000
0000
;

//--------------- dance-single - XO+ FS ----------------
#NOTEDATA:;
#STEPSTYPE:dance-single;
#DESCRIPTION:XO+ FS;
#DIFFICULTY:Challenge;
#METER:17;
#RADARVALUES:0,0,0,0,0;
#NOTES:
0000
0000
0000
0000
,
0000
0000
0000
0000
,
0000
0000
0000
0000
,
0000
0000
0000
0000
,
0000
0000
0000
0000
,
0000
0000
0000
0000
,
0000
0000
0000
0000
,
0000
0000
0000
0000
0000
0000
0000
0000
0000
0000
0000
0000
0000
0000
0000
0000
0000
0000
0000
0000
0000
0000
0000
0000
0000
0000
0000
0000
0000
0000
0000
0000
0000
0000
0000
0000
0000
0000
0000
0000
0000
0000
0000
0000
0000
0000
0000
0000
1000
0000
0000
0000
0000
0100
0000
0000
0010
0000
0000
0000
0001
0000
0000
0000
,
0100
0000
0001
0000
0100
00M0
0100
0000
1000
0001
0100
0010
0100
0000
0001
0010
,
0100
0000
1000
0000
0010
0100
000M
0100
1000
0000
0001
0010
0100
0000
0010
0000
,
0011
0010
0M00
0010
1000
0001
0100
00M0
0100
1000
0100
00M0
0100
0001
0100
0010
,
0001
0000
0010
1000
0001
0000
0010
0100
1000
0000
0010
0000
0100
0000
0001
0010
,
1000
0000
0010
0100
1000
0010
0100
0000
1001
0000
0001
0100
00M0
0100
1000
0000
,
1000
0010
0M00
0010
0001
0100
0010
1000
0100
00M0
0100
0001
0000
1000
0010
0M00
,
0010
0001
0000
0000
0001
0010
0100
1000
0010
0000
0100
2000
0000
0000
0000
0000
,
3100
0001
1000
0000
0001
0000
0010
0000
1000
0000
0010
0100
1000
0000
0000
0000
,
1100
0000
0000
0001
0000
0000
1000
0000
0100
0000
0010
0000
0001
0000
0100
0000
0010
0000
0001
0000
0000
0000
0010
0000
,
1000
0001
0010
0001
0010
0100
0001
0000
0000
0100
0000
0000
,
1000
0000
0000
0010
0000
0000
0100
0000
0000
0000
0000
0000
0001
0000
0000
0000
0100
0000
0000
0000
0010
0000
0000
0000
1000
0000
0000
0000
0100
0000
0000
0000
0010
0000
0000
0000
1000
0000
0000
0000
0000
0000
0000
0000
0010
0000
0000
0000
,
0001
1000
0010
1000
0010
0100
1000
0000
0000
0100
0000
0000
,
0101
0000
0001
0000
0010
0000
0001
0000
0100
0010
1000
0001
0010
0M00
0010
1000
,
0100
00M0
0100
0001
0000
1000
0100
1000
0010
0M00
0010
0100
0001
0000
0100
0000
,
1100
0000
0001
1000
0010
0100
0010
1000
0100
00M0
0100
0000
0001
1000
0100
0010
,
0000
0000
0001
1000
0010
0100
000M
0100
0010
0000
0001
0000
0100
0000
0000
0000
,
0010
0000
1000
0001
0020
0000
0230
0000
,
0302
0000
0203
0000
1000
0000
1300
0001
,
0100
0010
1000
0001
0010
0001
0100
0010
,
0002
0023
2030
3200
,
0310
0000
0001
1000
0010
1000
0010
0100
,
2000
0000
3200
0000
0301
1000
0100
0010
,
0001
0001
0100
0100
0010
0010
1000
1000
,
0400
0340
0034
0043
4030
3040
0430
4300
,
3001
0100
0000
0000
1000
0000
0000
0001
0010
0100
0000
0000
2000
0000
0000
0000
,
3100
0001
0000
0000
1000
0100
0000
0000
0001
1000
0000
0000
0020
0000
0000
0000
,
0130
1000
0000
0000
0010
0000
0100
0000
2000
0000
0000
0000
3200
0000
0000
0000
,
0310
1000
0100
1000
1100
0100
0020
0000
,
1030
0000
0010
0000
0000
0000
0000
0000
0001
0000
0000
0100
0000
0000
0000
0000
1000
0000
0001
0000
0000
0000
0000
0000
0020
0000
0000
0000
0000
0000
0000
0000
,
1030
0000
0000
0000
0000
0001
0000
0000
0000
0000
0000
0000
0000
0000
0000
0000
0010
0000
0000
0000
0000
0000
0000
0000
0100
0000
0000
0000
0000
0000
0000
0000
0002
0000
0000
0000
0000
0000
0000
0000
0000
0000
0000
0000
0000
0000
0000
0000
0203
0000
0000
0000
0000
0000
0000
0000
0000
0000
0000
0000
0300
0000
0000
0000
,
1100
0000
0001
1000
0010
0001
2000
0000
,
3100
0001
1000
0100
1100
0001
1000
0010
,
0110
0000
0001
0000
1000
0000
0100
0000
1100
0000
0000
1000
0100
0000
0010
0000
,
0001
4000
3010
0100
0110
0001
1000
0100
,
0010
0001
1000
0000
0001
0000
0100
0000
0101
0000
1000
0000
0010
0000
1000
0000
,
0001
0000
0000
0010
0100
0000
1000
0000
1100
0000
0100
0000
0010
0000
0001
0000
,
0100
0000
0001
0000
0100
0000
0001
0000
0011
0000
0000
0010
0100
0000
1000
0000
,
0001
0400
0310
1000
2100
0000
0100
0000
,
3010
0100
0001
0000
1000
0000
0010
0000
0110
0000
0000
1000
0001
0000
0010
0000
,
0100
0000
0000
1000
0010
1000
0010
0000
0110
0000
0100
0000
0001
0000
1000
0000
,
0100
0010
0001
0100
1000
0100
0001
0010
,
0100
0000
1001
0000
0101
0001
1000
0100
,
0010
0000
0000
0001
1000
0000
0010
0000
0100
0000
0010
0000
1000
0000
0001
0000
,
0010
0000
0000
1000
0000
0000
0010
0000
0001
0000
1000
0000
0001
0000
0100
0000
,
0010
1000
0001
0000
0100
0000
0001
0000
0100
0000
0000
0010
0000
0000
0100
0000
,
0010
0000
0000
0001
0000
0000
0010
0000
1000
0000
0100
1000
0001
0000
1000
0000
,
0100
0010
0001
0400
1300
0100
0001
0010
,
0100
0000
0000
0001
0000
0000
0100
0000
1000
0000
0001
0000
0100
0000
0010
0000
,
0001
0010
1000
0100
0002
0000
0103
1000
,
0010
0000
0000
0100
0000
0000
1000
0000
0400
0000
0300
0000
0001
0000
0000
0000
,
1001
1000
0100
0010
2000
0000
3010
0001
,
1000
0000
0040
0000
0230
0000
0000
0000
2300
0000
0000
0000
3200
0000
0000
0300
,
0101
0001
0010
0001
0100
0010
0200
0000
,
1300
0000
0100
0010
0004
0013
1000
0001
,
0101
0100
0010
1000
0100
0010
1000
0000
,
0010
0004
0013
0100
0002
0000
0203
0000
,
1300
0001
0100
0000
0010
0000
1000
0000
0100
0000
0010
0000
0001
0000
1000
0000
,
0010
0000
0000
1000
0001
0100
0010
0000
0001
0000
0010
0000
1000
0000
0000
0000
,
1010
0000
0020
0000
0230
0000
0301
1000
,
0200
0000
2300
0010
3002
0000
0203
0000
,
2300
0000
3100
0001
0020
0000
0230
0000
,
0302
0103
2000
3001
,
0011
0000
0020
0000
0230
0000
1300
0001
,
0200
0000
0302
0010
2003
0000
3200
0000
,
1300
0100
0010
1000
0010
0100
0001
0100
,
1000
0010
0400
0000
0301
1000
0400
0000
,
1301
0000
0000
0000
1000
0000
0010
1000
0100
00M0
0100
0000
0001
0000
0010
0001
,
0100
0000
0001
0000
1000
0100
0010
0100
0001
0100
1000
0000
0010
0000
0100
0000
,
0110
0000
0001
0010
0M00
0010
1000
0000
1000
0100
00M0
0100
0001
0000
0001
0010
,
0M00
0010
1000
0000
1000
0100
00M0
0100
0010
1000
0001
0010
0100
1000
0010
0100
,
1000
0000
0000
0000
0100
0001
0000
0010
1000
0000
0010
0001
0100
00M0
0100
0010
,
1000
0000
0010
0001
1000
0010
0100
0001
0010
0001
0100
0010
0001
0000
0010
0000
,
1010
0000
1000
0001
0010
0100
0010
0100
0001
0000
0100
0010
0001
0100
0010
1000
,
0010
0100
1000
0000
0100
0001
0010
0100
0001
1000
0010
0001
0100
0000
0001
0000
,
0011
0000
0010
0100
1000
0001
0100
0010
,
0110
0100
0101
0001
0011
0010
0110
0100
,
1100
0000
1000
0001
0100
0010
1000
0100
,
1100
1000
1001
0001
0101
0100
0110
0000
,
1001
0000
0001
1000
0010
0100
0001
1000
,
0100
00M0
0100
0000
0001
0000
0010
0000
1000
0000
0010
0000
0100
0000
1000
0000
,
1010
0010
0100
0001
0010
0100
1000
0010
,
0001
0010
0100
0001
1001
0010
1001
0100
,
1001
0000
0001
1000
,
0000
1000
0010
0000
,
1000
0000
0100
0000
,
0020
0000
0000
0000
,
0030
0000
0000
0000
;

//--------------- dance-single - NOT FOR JUDGING - BIG TECH CHART ----------------
#NOTEDATA:;
#STEPSTYPE:dance-single;
#DESCRIPTION:NOT FOR JUDGING - BIG TECH CHART;
#DIFFICULTY:Edit;
#METER:12;
#RADARVALUES:0,0,0,0,0;
#CHARTNAME:never played monark but the song slaps;
#CREDIT:DDDAAA;
#NOTES:
0000
0000
0000
0000
,
0000
0000
0000
0000
,
0000
0000
0000
0000
,
0000
0000
0000
0000
,
0000
0000
0000
0000
,
0000
0000
0000
0000
,
0000
0000
0000
0000
,
0000
0000
0000
0000
0000
0000
0000
0000
0000
0000
0000
0000
0000
0000
0000
0000
0000
0000
0000
0000
0000
0000
0000
0000
0000
0000
0000
0000
0000
0000
0000
0000
0000
0000
0000
0000
0000
0000
0000
0000
0000
0000
0000
0000
0000
0000
0000
0000
1000
0000
0000
0000
0000
0100
0000
0000
0010
0000
0000
0000
0001
0000
0000
0000
,
0100
0000
010M
0000
0010
0000
001M
0000
1000
0100
0010
0001
0100
0000
010M
1000
,
0100
0000
M100
0000
0001
0010
0000
001M
0100
0000
0001
1000
0100
0000
M100
0000
,
0011
0100
010M
1000
0001
0010
0100
0000
M100
0001
0100
0010
1000
0001
0010
0100
,
0010
0000
001M
1000
0010
0000
M010
0001
0100
0000
010M
0000
0010
0000
001M
1000
,
0101
0000
M100
0001
1000
0100
0010
0000
001M
0000
1000
0100
0000
M100
0001
0000
,
1000
0100
0010
0000
M010
0100
0001
1000
0100
0000
M100
0010
0000
1000
0100
0000
,
0010
001M
1000
0000
0001
0010
0100
1000
0010
0000
M010
0002
0000
0000
0000
0003
,
0001
1000
0100
0000
0010
0000
0001
0000
0100
0000
0010
0100
0001
0000
0000
0000
,
1101
0000
0000
1000
0000
0000
0010
0000
0100
0000
0001
0000
0010
0000
0100
0000
0010
0000
1000
0000
0M00
0000
1000
0000
,
0010
0000
0000
0000
0100
0000
0000
0000
0001
0000
0000
0000
0010
0000
0000
0000
0001
0000
0000
0000
0100
0000
0000
0000
1000
0000
0000
00M0
0000
0000
1000
0000
0000
0000
0000
0000
0001
0000
0000
0000
0000
0000
0010
0000
0000
0000
0000
0000
,
0101
0000
0000
1000
0000
0000
0001
0000
0000
0000
0000
0000
0010
0000
0000
0000
0100
0000
0000
0000
1000
0000
0000
0000
0010
0000
0000
0000
0100
0000
0000
0000
0010
0000
0000
0000
0001
0000
0000
0000
0M00
0000
0000
0000
0001
0000
0000
0000
,
0010
0000
0000
0000
0100
0000
0000
0000
1000
0000
0000
0000
0010
0000
0000
0000
1000
0000
0000
0000
0100
0000
0000
0000
0001
0000
0000
00M0
0000
0000
0001
0000
0000
0000
0000
0000
1100
0000
0000
0000
0000
0000
0010
0000
0000
0000
0000
0000
,
1011
0000
1000
0000
0100
0000
M100
0000
0001
0010
0100
1000
0100
0000
M100
0001
,
0100
0000
010M
0010
0001
1000
0010
1000
0100
0000
M100
0001
0010
0000
001M
0000
,
1100
0000
010M
1000
0001
0100
0010
1000
0100
0000
M100
0000
0001
0010
0100
0010
,
0000
0000
001M
1000
0100
0010
0000
001M
1100
0000
0011
0000
2000
0000
0000
0000
,
3100
0000
0010
0001
0200
0000
0320
0000
,
0032
0000
0023
0000
1000
0000
0130
0001
,
0010
0100
1000
0001
0100
0010
1000
0010
,
0002
0023
2030
3200
,
1300
0000
0001
0100
0010
1000
0100
0010
,
2000
0000
3020
0000
0031
1000
0010
0100
,
0001
1000
0100
0010
0001
1000
0010
0100
0001
0100
0010
1000
0001
0010
0100
1000
,
0040
0430
0304
0403
4300
3400
0304
4003
,
3010
0000
0001
0000
0000
0M00
0000
0000
0001
0000
0000
0000
0000
0000
1000
0000
0010
0000
0001
0000
0000
0M00
0000
0000
0001
0000
0000
0000
0000
0000
0000
0000
,
0100
0000
1000
0000
0000
00M0
0000
0000
1000
0000
0010
0000
0000
0000
0000
0000
101M
0000
0001
0000
0000
0000
0000
0000
1000
0000
0000
0000
0000
0000
0000
0000
,
0100
0000
0001
0000
0000
00M0
0000
0000
0001
0000
0000
0000
0010
0000
0000
0000
2000
0000
0000
0000
0M00
0000
3000
0000
2000
0000
0000
0000
0000
0000
0000
0000
,
3001
0100
0010
1000
0101
0010
0002
0000
,
0013
0000
1000
0000
0000
0M00
0000
0000
1000
0000
0000
0001
0000
0000
0000
0000
0010
0000
1000
0000
0000
0M00
0000
0000
1000
0000
0000
0000
0000
0000
0000
0000
,
0100
0000
0000
0000
0000
0001
0000
0000
0000
0000
00M0
0000
0000
0000
0000
0000
0001
0000
0000
0000
0000
0000
0000
0000
0010
0000
0000
0000
0000
0000
0000
0000
M011
0000
0000
0000
0000
0000
0000
0000
1000
0000
0000
0000
0000
0000
0000
0000
0100
0000
0000
0000
0000
0000
0000
0000
0010
0000
0000
0000
0000
0000
0000
0000
,
2000
0000
0M00
3000
1000
0000
0010
0000
1100
0000
0010
0000
0002
0000
0M00
0003
,
0001
1000
0010
1000
0101
0010
0001
1000
,
1001
0000
0001
0000
0100
0000
0002
0000
2013
0000
3001
0200
0301
0000
0200
0000
,
0320
0000
0000
1030
0001
0010
0100
0000
0000
2000
0000
0000
3012
0000
0000
0103
0000
0000
0001
0000
0000
0010
0000
0000
,
0100
1000
0001
0000
0100
0000
0001
0000
2010
0000
3001
0000
1000
0000
0020
0000
,
0230
0000
0301
0020
0031
0000
0020
0000
0132
0000
0013
0000
0002
0000
1003
0000
,
0010
0000
0100
0000
0001
0000
0020
0000
0132
0000
1003
0200
1300
0000
0200
0000
,
0320
0000
0000
0031
1000
0010
0100
0000
0000
0002
0000
0000
2013
0000
0000
3001
0000
0000
0100
0000
0000
0010
0000
0000
,
1000
0001
0010
0000
0100
0000
2000
0000
3012
0000
0103
0020
1030
0000
0200
0000
,
0320
0000
0032
0000
1003
0010
2000
0000
3102
0000
1003
0000
0010
0000
0100
0000
,
0101
0001
1000
0100
1100
1000
1001
0001
,
0100
0000
1010
0001
0100
0010
0100
0001
,
1010
0000
0000
0100
1000
0000
0001
0000
0100
0000
0010
0000
1000
0000
0001
0000
,
0010
0000
0000
0100
1000
0001
0010
0000
0000
0001
0010
0100
1000
0000
0000
0001
0000
0000
0100
0000
0000
0001
0000
0000
,
1100
0000
0010
0000
0100
0000
0001
0000
0010
0000
0100
1000
0001
0000
0100
0000
,
0010
0000
1000
0000
0001
0010
0001
0000
0100
0000
0001
1000
0100
0000
M100
0000
,
0011
0000
0000
0100
0000
0000
0001
0000
0000
0010
0001
1000
0010
0000
0000
1000
0000
0000
0100
0000
0000
M100
0000
0000
,
0001
0000
0000
0010
0100
0010
0001
0000
0000
0100
0010
1000
0001
0000
0000
0010
0000
0000
0100
0000
0000
1000
0000
0000
,
0011
1000
0010
0000
0100
0000
0001
0000
0010
0000
001M
0000
0100
0000
0001
0000
,
1000
0000
0000
0000
0000
0000
0100
0000
0000
0010
0000
0000
0100
0000
0000
1000
0000
0000
0001
0000
0000
0000
0000
0000
0010
0000
0001
0000
1000
0000
0100
0000
0000
0000
0000
0000
MMMM
0000
0000
0000
0000
0000
0000
0000
0000
0000
0000
0000
,
1101
1000
0010
1000
0100
0010
0001
1000
,
0010
0000
0000
1000
0010
0100
0001
0000
0000
1000
0100
0010
0001
0000
0000
0100
0000
0000
0010
0000
0000
1000
0000
0000
,
1011
0001
0010
0001
0100
0001
1000
0100
,
0010
0000
0000
0000
0000
0000
0001
0000
0000
0000
0000
0000
0100
0000
0000
0010
0000
0000
1000
0000
0000
0000
0000
0000
0100
0000
0010
0000
0001
0000
1000
0000
0000
0000
0000
0000
0010
0000
0000
0000
0000
0000
1000
0000
0000
0000
0000
0000
,
0101
0010
0100
1000
0010
1000
0100
0010
,
0001
0000
0000
1000
0010
0100
0010
0000
0000
1000
0001
0010
0100
0000
0000
1000
0000
0000
0001
0000
0000
0010
0000
0000
,
0101
1000
0001
0000
0100
0000
0001
0000
0010
0000
0100
0000
1000
0000
0001
0000
,
0100
0000
0000
0000
0000
0000
0000
0000
0000
010M
0000
0000
1000
0000
0000
0100
0000
0000
0010
0000
0000
0000
0000
0000
001M
0000
1000
0000
0010
0000
1000
0000
0000
0000
0000
0000
0001
0000
0000
0000
0000
0000
0000
0000
0000
0000
0000
0000
,
1001
0000
2000
0000
3020
0000
0230
0302
,
0023
0000
0032
2003
3010
0000
0200
0000
,
0302
0010
1003
0020
0100
1030
0002
0010
,
0203
0000
0000
0000
0010
0000
0000
0000
0302
0000
0000
0000
1000
0000
0000
0003
,
1001
0000
0001
0000
0020
0000
0130
0000
2000
0000
3001
0000
0200
0000
0320
1030
,
0002
0013
0002
2003
3001
0010
0002
1003
,
0010
0010
0100
0100
0001
0001
0010
0010
,
0400
4300
3004
0403
0340
4030
3004
0043
0034
4003
3400
0340
0034
4003
3400
4300
,
3011
0000
0000
0000
0100
0000
010M
1000
0010
0000
M010
0000
0100
0000
M100
0001
,
0010
0000
001M
0000
1000
0001
0010
0100
0010
001M
1000
0000
0100
0000
M100
0000
,
0011
0000
0100
1000
00M0
1000
0010
0000
M010
0001
0000
0100
1000
00M0
1000
0100
,
0000
M100
0001
0000
0010
1000
0M00
1000
0100
0010
0001
1000
0100
M100
0010
M010
,
0101
0000
0000
0000
1000
0010
0000
M010
0001
0000
1000
0010
0001
0M00
0001
0100
,
1000
00M0
1000
0010
0100
010M
0010
001M
1000
0001
0100
0010
0001
0M00
0001
0000
,
1100
0000
0001
0010
0100
0010
0001
0010
1000
0M00
1000
0100
0010
001M
0100
010M
,
1000
0010
0001
0M00
0001
0100
0010
M010
0101
0010
0001
0010
1000
0M00
1000
0000
,
1011
0000
0001
0010
0001
1000
0001
0010
,
0101
M100
0011
M010
0101
1000
0011
M010
,
0111
0000
1000
0010
1000
0001
1000
0010
,
1100
010M
1010
001M
1100
0001
1010
0001
,
1101
0000
0001
0100
0001
1000
0100
1000
,
0010
M010
0100
M100
0011
1000
0100
1000
,
1011
0001
1000
0001
0100
0010
1000
0001
,
0010
0001
0100
0001
1010
0100
1010
0001
,
1000
0000
0100
1000
,
0000
1000
0010
0000
,
1000
0000
0100
0000
,
0020
0000
0000
0000
,
0030
0000
0000
0000
;
