#VERSION:0.83;
#TITLE:Play the Chiptek;
#SUBTITLE:;
#ARTIST:she;
#TITLETRANSLIT:;
#SUBTITLETRANSLIT:;
#ARTISTTRANSLIT:;
#GENRE:;
#CREDIT:;
#MUSIC:Play the Chiptek.ogg;
#BANNER:Play the Chiptek-bn.png;
#BACKGROUND:Play the Chiptek-bg.png;
#CDTITLE:;
#SAMPLESTART:37.993;
#SAMPLELENGTH:15.000;
#SELECTABLE:YES;
#OFFSET:1.382;
#BPMS:0.000=128.000;
#STOPS:;
#LASTSECONDHINT:119.493;
#BGCHANGES:;
#FGCHANGES:;

//--------------- dance-single - ----------------
#NOTEDATA:;
#STEPSTYPE:dance-single;
#DESCRIPTION:;
#DIFFICULTY:Hard;
#METER:12;
#RADARVALUES:0,0,0,0,0;
#CREDIT:Talkion;
#NOTES:
0000
0000
0000
0000
,
0000
0000
0000
0000
,
0000
0000
0000
0000
,
0000
0000
0000
0000
,
0000
0000
0000
0000
,
1000
0000
1000
0000
0010
0000
0100
0010
,
1000
0000
1000
0001
0010
0001
2000
0100
,
3001
0000
0001
0000
0010
0000
0100
0010
,
0001
0000
0001
1000
0010
1000
0001
0000
,
0200
0010
0000
0302
1000
0000
0013
0010
,
0200
1000
0000
0320
0001
0000
0130
0100
,
2000
0001
0000
3010
0020
0000
0130
0001
,
0000
0000
0000
0000
,
1000
0100
1002
0000
0103
0100
0010
1000
,
0001
0010
0100
0010
0002
1000
0103
0000
,
0101
0000
0001
1000
0100
0100
0010
0001
,
0200
0000
0000
1000
0000
0000
0301
0000
0100
0000
0010
0000
2000
0000
0000
0000
,
3001
0100
2001
0000
3100
0100
0010
0001
,
1000
0010
0100
0010
2000
0001
3100
0000
,
1100
0000
1000
0001
0100
0100
0020
0000
,
1030
0001
1000
0000
0200
0000
0000
0000
0320
0000
0001
0000
0130
0000
0000
0000
,
1100
0100
0001
0000
1100
0100
0010
1000
,
0000
0000
1010
0000
0010
0000
0001
1000
0001
0000
0100
0000
0200
0000
0000
0000
,
0301
0000
0010
0000
2001
0000
0000
0000
3010
0000
0100
0010
0000
0100
0010
0000
,
1000
0100
0001
0100
2000
0000
3001
0000
,
0101
0100
1000
0000
0101
0100
0010
0001
,
0000
0000
0011
0000
0010
0000
1000
0001
1000
0000
0100
0000
0200
0000
0000
0000
,
1300
0000
0010
0000
1002
0000
0000
0000
0013
0000
0100
0010
0000
0100
0010
0000
,
0001
0100
0010
0001
0010
0100
0002
0010
,
1003
0010
0001
0000
1010
0010
0100
1000
,
0000
0000
1100
0000
0100
0000
0001
1000
0001
0000
0010
0000
0020
0000
0000
0000
,
0031
0000
1000
0000
0100
0000
1000
0000
0001
0100
0000
0001
0100
0000
0010
0000
,
1000
0100
0001
0100
2000
0000
3001
0000
,
0100
0100
0010
0000
2000
0000
3100
0001
,
0000
0101
0100
2000
0000
3001
0010
0001
,
1002
0100
0100
0100
,
0003
0000
0000
0000
0000
0000
0001
0010
,
2000
0000
0000
0000
0000
0000
3010
0002
,
0000
0103
2001
0000
3100
0010
0001
1000
,
0010
0100
0010
2000
0000
0000
3001
0002
,
0000
0013
0100
0002
0000
0103
0010
0001
,
1000
0010
0100
0010
1000
0001
0020
0000
,
0000
0130
1000
0002
0000
0000
0103
0200
,
0000
0310
1002
0000
0000
0000
0000
0003
,
0000
0010
0000
0000
0001
1000
0000
0000
0020
0000
0000
0000
0130
0000
0001
0000
,
1000
0000
0100
0000
0010
0000
0100
0000
0002
0000
0000
0103
0000
0000
0100
0010
,
0001
0000
1000
0000
1010
0000
0010
0000
0002
0000
0000
0013
0000
0000
0010
0100
,
0001
0000
1000
0000
1100
0000
0100
0000
0002
0000
0000
0103
0000
0000
0100
0010
,
0001
0000
1000
0000
0100
0000
1000
0000
0002
0000
0000
0103
0000
0000
0010
0100
,
0001
0000
1000
0000
0100
0000
0010
0000
2000
0000
0000
3010
0000
0000
0010
0100
,
1000
0000
0001
0000
0101
0000
0100
0000
2000
0000
0000
3100
0000
0000
0100
0010
,
1000
0000
0001
0000
0011
0000
0010
0000
2000
0000
0000
3010
0000
0000
0010
0100
,
1000
0000
0001
0000
0010
0000
0001
0000
2000
0000
0000
3010
0000
0000
0100
0010
,
1000
0000
0001
0000
0010
0000
0100
0000
0002
0000
0000
0103
0000
0000
0100
0010
,
0001
1000
0020
0000
0032
2003
3100
0002
,
0000
0000
1003
0000
1100
0000
0100
0000
0002
0000
0000
0103
0000
0000
0100
0010
,
0001
1000
0020
0000
0031
0001
0010
1000
,
0001
0000
0010
0000
0100
0000
0010
0000
2000
0000
0000
3010
0000
0000
0010
0100
,
1000
0001
0200
0000
2300
3002
0013
2000
,
0000
0000
3001
0000
0011
0000
0010
0000
2000
0000
0000
3010
0000
0000
0010
0100
,
1000
0000
0001
0000
0010
0000
0001
0000
1000
0000
0010
0000
0100
0000
1000
0100
,
0001
0000
0000
0000
;

//--------------- dance-single - ----------------
#NOTEDATA:;
#STEPSTYPE:dance-single;
#DESCRIPTION:;
#DIFFICULTY:Challenge;
#METER:14;
#RADARVALUES:0,0,0,0,0;
#CREDIT:Talkion;
#NOTES:
0000
0000
0000
0000
,
0000
0000
0000
0000
,
0000
0000
0000
0000
,
0000
0000
0000
0000
,
0000
0000
0000
0000
,
1000
0001
0000
0000
1000
0000
0000
0000
0100
0000
0000
0000
0010
0000
0001
0000
,
1000
0001
0000
0000
1000
0000
0010
0000
1000
0000
0200
0000
1000
0000
0310
0000
,
0001
1000
0000
0000
0001
0000
0000
0000
0100
0000
0000
0000
0010
0000
1000
0000
,
0001
1000
0000
0000
0001
0000
0010
0000
0001
0000
0100
0000
0001
0000
0000
0000
,
1000
0010
1000
0000
0001
0000
1000
0010
1000
0000
0001
0000
0010
0100
1000
0000
,
0001
0010
0001
0000
2000
0000
0000
0000
3010
0000
0010
0000
0200
0000
0000
0000
,
0301
0100
0001
0000
1000
0000
0001
0100
0020
0000
0000
0000
1030
0001
0010
0100
,
0000
0000
0000
0000
,
1000
0001
0010
0001
0200
0000
0310
0000
1000
0000
1000
0000
0010
0100
0001
0000
,
1000
0100
0010
0100
1000
0000
0002
0000
1000
0000
0103
0000
0010
0100
0001
0000
,
1000
0001
0010
0100
0000
1000
0001
0000
0100
0000
0100
0000
0010
1000
0001
0000
,
1000
0000
0100
0002
0000
0103
1000
0000
0001
0000
0100
0001
0020
0000
0030
0000
,
0001
1000
0010
1000
0200
0000
0310
0000
0001
0000
0001
0000
0010
0100
1000
0000
,
0001
0100
0010
0100
0001
0000
2000
0000
0001
0000
3100
0000
0010
0100
1000
0000
,
0001
1000
0010
0100
0000
0001
1000
0000
0100
0000
0100
0000
0020
0000
0000
0000
,
0030
1000
0010
0001
0000
1000
0010
0100
0002
0000
0010
0000
1003
0000
0000
0000
,
1100
0000
0100
0000
0001
0000
0000
0000
1100
0000
1000
0100
0000
0100
0002
0000
,
0000
0103
1000
0000
0001
0100
0010
1000
0000
0000
0010
0100
0002
0000
0000
0000
,
1003
0000
0100
0000
1002
0000
0000
0000
0013
0100
0000
0010
0000
0010
0001
0000
,
1000
0010
0100
0000
0001
0100
0010
0000
2000
0000
3100
0010
0001
0000
0000
0000
,
0010
0100
1000
0000
1001
0000
0000
0000
0101
0000
0001
0100
0000
0100
2000
0000
,
0000
3100
0001
0000
1000
0100
0010
0001
0000
0000
0010
0100
2000
0000
0000
0000
,
3001
0000
0010
0000
2001
0000
0000
0000
3010
0100
0000
0010
0000
0010
1000
0000
,
0001
0010
0100
0000
1000
0100
0010
0000
0002
0000
0103
0010
1000
0000
2100
0000
,
3001
0000
0010
0000
1000
0000
0000
0000
0011
0000
0001
0010
0000
0010
2000
0000
,
0000
3010
0001
0000
1000
0010
0100
0001
0000
0000
0100
0010
1000
0000
0001
0010
,
0100
0010
0002
0000
1003
0000
0001
0000
0100
0010
0000
0100
0000
0100
0001
0000
,
1000
0100
0010
0000
0001
0010
0100
0000
2000
0000
3010
0100
0001
0000
0000
0000
,
1000
0100
0010
0000
0001
1000
0001
0000
0200
0000
0000
0000
0310
0100
1000
0000
,
0000
0000
1100
0000
0100
0000
0002
0000
0000
0000
1003
0100
0010
0000
0001
0000
,
1002
0100
0100
0100
,
0003
0000
0000
0000
0000
0000
0000
0000
0000
0000
0000
0000
0001
1000
0100
0010
,
2000
0000
0000
0000
0000
0000
3010
0002
,
0000
0000
0103
0000
2001
0000
3100
0010
0001
0000
0010
0000
0100
0000
2000
0000
,
0000
3010
1002
0023
0000
0000
0130
0200
,
0000
1300
0010
0002
0000
0013
1000
0100
,
0010
0001
1000
0010
0100
0010
2000
0000
,
0000
3001
0010
0200
0000
0000
1300
2000
,
0000
3010
1002
0000
0000
0000
0000
0003
,
0000
0010
0000
0000
0001
1000
0000
0000
0020
0000
0000
0000
0130
0000
0001
0000
,
1000
0001
0010
0001
1000
0100
0010
0000
0200
0001
0000
0310
0000
0000
0001
0010
,
0000
0010
0100
0000
1002
0000
0103
0010
0200
1000
0000
0310
0000
0000
1000
0010
,
0000
0010
0100
0000
2001
0000
3100
0000
0020
1000
0000
0130
0000
0000
1000
0100
,
0000
0100
0010
0000
0001
0100
0010
0000
2000
0010
0000
3001
0000
1000
0100
0010
,
0001
1000
0010
1000
0001
0100
0010
0000
0200
1000
0000
0310
0000
0000
1000
0010
,
0000
0010
0100
0000
2001
0000
3100
0010
0200
0001
0000
0310
0000
0000
0001
0010
,
0000
0010
0100
0000
1002
0000
0103
0000
0020
0001
0000
0130
0000
0000
0001
0100
,
0000
0100
0010
0000
1000
0100
0010
0000
0002
0010
0000
1003
0000
0001
0100
0010
,
1000
0001
0010
0001
1000
0100
0010
0000
0200
0001
0000
0310
0000
0000
0001
1000
,
0100
1000
0001
0000
0200
0000
1000
0000
0320
0000
0001
0000
0130
0000
0002
0000
,
0000
0000
0013
0000
2001
0000
3100
0000
0020
1000
0000
0130
0000
0000
1000
0001
,
0010
0001
1000
0000
0020
0000
0001
0000
0130
0000
0100
0000
0001
0000
1000
0100
,
0010
0001
1000
0001
0100
0000
0010
0000
0200
1000
0000
0310
0000
0000
1000
0001
,
0100
0001
1000
0000
0200
0000
0001
0000
0320
0000
1000
0000
0130
0000
2000
0000
,
0000
0000
3010
0000
1002
0000
0103
0000
0020
0001
0000
0130
0000
0000
0001
1000
,
0010
1000
0001
0000
0010
0100
1000
0000
0100
0010
0002
0000
0103
0000
1000
0100
,
0001
0000
0000
0000
;
