#VERSION:0.83;
#TITLE:Play Dice!;
#SUBTITLE:;
#ARTIST:Hakos Baelz, Camellia;
#TITLETRANSLIT:;
#SUBTITLETRANSLIT:;
#ARTISTTRANSLIT:;
#GENRE:;
#CREDIT:;
#MUSIC:Play Dice.ogg;
#BANNER:Play Dice.png;
#BACKGROUND:Play Dice-bg.png;
#CDTITLE:;
#SAMPLESTART:23.196;
#SAMPLELENGTH:11.586;
#SELECTABLE:YES;
#OFFSET:-0.024;
#BPMS:0.000=145.000;
#STOPS:;
#SCROLLS:0.000=1.000;
#JACKET:Play Dice-jacket.png;
#BGCHANGES:;
#FGCHANGES:;

//--------------- dance-single - FS+ XO JA JU DS- SS- ----------------
#NOTEDATA:;
#STEPSTYPE:dance-single;
#DESCRIPTION:FS+ XO JA JU DS- SS-;
#DIFFICULTY:Hard;
#METER:15;
#RADARVALUES:0,0,0,0,0;
#NOTES:
0000
0000
0000
0000
,
0000
0000
0000
0000
,
0000
0000
0000
0000
,
0000
0000
0000
0000
,
0000
0000
0000
0000
0000
0000
0000
0000
0000
0000
0000
0000
0001
0010
0M00
0010
,
1000
0000
0001
0000
1000
0100
00M0
0100
0001
0000
1000
0000
0100
0000
1000
0000
,
0010
0000
0000
0100
0000
0000
1000
0000
0100
0000
0001
0000
0010
0000
0100
0000
,
0001
0100
0010
0001
1000
0010
1000
0100
,
1000
0000
1000
0010
0M00
0010
0001
0000
0100
0000
0001
0000
1000
0010
0M00
0010
,
0001
0000
1000
0000
0001
0100
00M0
0100
1000
0000
0001
0000
0100
0000
0001
0000
,
0010
0000
0000
0100
0000
0000
0001
0000
0100
0000
1000
0000
0010
0000
0100
0000
,
0110
0010
1000
0001
1001
1000
0100
0010
,
0011
0000
0002
0000
0000
0000
0000
0000
0000
0000
0000
0000
0003
0000
0000
M000
,
MMMM
MMMM
0MMM
00MM
000M
1000
1001
0000
,
0001
0000
1000
0001
0010
0000
0100
0000
1000
0000
0001
0100
00M0
0100
1000
0000
,
0001
0000
1000
0001
0100
0000
0010
0000
1000
0000
0001
0010
0M00
0010
1000
0000
,
0100
0000
1000
0001
0100
0000
0010
0000
1000
0000
0001
0100
00M0
0100
1000
0000
,
0010
0000
1000
0001
0010
0000
0001
0000
4000
0040
0000
0000
0000
0000
3000
0000
,
1030
0000
0001
1000
0010
0000
0100
0000
0001
0000
1000
0100
00M0
0100
0001
0000
,
1000
0000
0001
1000
0100
0000
0010
0000
0001
0000
1000
0010
0M00
0010
0001
0000
,
0100
0010
1000
1000
0100
0010
0001
1000
,
0010
0100
1001
0001
0010
0100
1000
0010
,
0100
0001
1000
0100
1000
0010
0100
0001
,
0010
0001
1000
0010
1000
0001
0100
0010
,
0001
0000
0010
0000
0100
0000
0001
0000
0010
0000
0001
0100
00M0
0100
1000
0000
,
0001
0001
1000
1000
0100
0010
0001
0100
,
0101
0000
0000
0000
1001
0000
0000
0000
1000
0100
00M0
0100
0001
0000
1000
0000
,
0001
0010
0001
1000
0001
0100
0001
0010
,
0100
0000
0100
0000
1000
0000
1000
0000
0010
0000
1000
0000
0400
0000
0000
0300
,
0110
0000
0000
0000
0000
0000
0000
0000
0010
0000
0000
0000
0001
0000
0000
0000
0000
0000
0000
0000
1000
0000
0000
0000
0010
0000
0000
0000
0000
0000
0100
0000
0000
000M
0000
0000
0100
0000
0000
0000
0000
0000
1000
0000
0000
0000
0000
0000
,
0010
0M00
0010
0000
0001
0000
0100
0000
2000
0000
0000
0000
3400
0000
0000
0300
,
0101
0001
0010
0001
0100
0000
0010
1000
,
0100
00M0
0100
0000
0010
000M
0010
0000
0001
0000
0001
0000
0004
0000
0000
0000
,
1003
0010
0100
0001
0100
0001
0010
0011
,
0000
0000
0010
0M00
0010
0000
1000
0000
0100
0000
0000
0000
0001
0000
0100
0000
,
1100
1000
0010
0100
0001
1000
0100
1000
,
0010
0000
0000
0M00
0000
0000
0010
0000
0000
0000
0000
0000
0001
0000
0000
0000
0000
0000
0100
0000
0000
00M0
0000
0000
0100
0000
0000
0000
1000
0000
0000
0000
0100
0000
0000
0000
1000
0000
0000
0000
0000
0000
0001
0000
0000
0000
0000
0000
,
1001
0000
0000
0000
1000
0000
0000
0000
0010
0000
0000
0000
1000
0000
0000
0000
0100
0000
00M0
0000
0100
0000
0000
0000
0001
0000
0000
000M
0010
0000
0000
0000
,
1000
0000
0000
0000
0001
0000
0000
0000
0010
0000
0000
0000
0001
0000
0000
0000
0100
0000
00M0
0000
0100
0000
0000
0000
1000
0000
0000
M000
0010
0000
0000
0000
,
0001
0000
0000
0000
1000
0000
0000
0000
0100
0000
0000
0000
0010
0000
0000
0000
1000
0000
0M00
0000
1000
0000
0000
0000
0001
0000
0000
000M
0100
0000
0000
0000
,
1000
0000
0000
0000
0000
0000
0000
0000
0000
0000
0000
0000
1100
0000
0000
0000
0000
0000
0000
0000
0000
0000
0000
0000
0000
0000
0000
0000
0000
0000
0000
1001
0000
0000
0000
0000
0000
0000
0000
0000
0000
0000
0000
0000
0000
0000
0000
0000
0101
0000
0000
0000
0000
0000
0000
0000
0000
0000
0000
0000
0000
0000
0000
0000
0000
0000
0000
0000
0000
0000
0000
0000
0001
0000
0000
0000
0000
0000
0100
0000
0000
0000
0000
0000
00M0
0000
0000
0000
0000
0000
0100
0000
0000
0000
0000
0000
,
1000
0000
0001
0000
1000
0010
0M00
0010
0001
0000
0100
0000
0010
0000
1000
0000
,
0100
0000
0000
0010
0000
0000
1000
0000
0010
0000
0001
0000
0100
0000
0010
0000
,
0001
1000
0100
0001
1000
0100
1000
0010
,
1000
0000
1000
0010
0M00
0010
0100
0000
0010
0000
0001
0000
1000
0100
00M0
0100
,
0001
0000
1000
0000
0001
0010
0M00
0010
1000
0000
0001
0000
0010
0000
0001
0000
,
0100
0000
0000
0010
0000
0000
0001
0000
0010
0000
1000
0000
0100
0000
0010
0000
,
0110
0100
1000
0001
1001
1000
0010
0100
,
0101
0002
0000
1000
0000
0010
0103
0010
,
0110
0100
0001
1000
1001
0001
0010
0100
,
1100
2000
0000
0001
0000
0010
3100
1000
,
1010
0010
0100
0001
0011
0010
0100
1000
,
0010
0000
0000
0000
0000
0000
0000
0000
0000
0000
0000
0000
0110
0000
0000
0000
0000
0000
0000
0000
0000
0000
0000
0000
0000
0000
0000
0000
0000
0000
0000
1001
0000
0000
0000
0000
0000
0000
0000
0000
0000
0000
0000
0000
0000
0000
0000
0000
2000
0000
0000
0000
0000
0000
0000
0000
0000
0000
0000
0000
3200
0000
0000
0000
0000
0000
0000
0000
0000
0000
0000
0000
0320
0000
0000
0000
0000
0000
0000
0000
0000
0000
0000
0000
0032
0000
0000
0000
0000
0000
0000
0000
0000
0000
0000
0000
,
1003
1000
1000
1000
1000
0010
0001
0010
,
1000
0000
0100
1000
0010
0000
0100
0000
0001
0000
1000
0100
00M0
0100
0001
0000
,
1000
0000
0010
1000
0100
0000
0010
0000
0001
0000
1000
0010
0M00
0010
0001
0000
,
0100
0000
0010
1000
0100
0000
0010
0000
0001
0000
1000
0100
00M0
0100
0001
0000
,
0010
0000
0100
1000
0010
0000
1000
0000
0004
0040
0000
0000
0000
0000
0003
0000
,
0031
0000
0100
0001
0010
0000
0100
0000
1000
0000
0001
0100
00M0
0100
1000
0000
,
0001
0000
0010
0001
0100
0000
0010
0000
1000
0000
0001
0010
0M00
0010
1000
0000
,
1100
0100
0010
0001
0101
0100
0010
1000
,
1100
0000
0000
0000
1001
0000
0000
0000
0101
0000
0000
0110
0000
0000
1010
0000
,
1100
0000
0000
0000
1001
0000
0000
0000
0011
0000
0000
0110
0000
0000
1100
0000
,
1010
0000
0000
0000
0011
0000
0000
0000
0110
0000
0000
1100
0000
0000
1001
0000
,
0101
0000
0001
0000
0011
0000
0000
0000
1100
0000
0000
0110
0000
0000
0001
0100
,
0101
0000
0000
0000
1001
0000
0000
0000
1100
0000
0000
0011
0000
0000
1010
0000
,
0101
0000
0000
0000
1001
0000
0000
0000
1010
0000
0000
0101
0000
0000
1100
0000
,
0011
0000
0000
1010
0000
0000
1000
0100
0010
0001
0100
0010
,
1001
0000
0000
0000
0000
0000
MMMM
0000
0000
0000
0000
0000
1001
0000
0000
0001
0000
0000
0040
0400
0000
0000
0000
0000
,
0330
1001
0000
0000
0000
0000
0000
0000
;

//--------------- dance-single - BR+ FS+ XO+ DS SS DSFS STR JA- BRFS- ----------------
#NOTEDATA:;
#STEPSTYPE:dance-single;
#DESCRIPTION:BR+ FS+ XO+ DS SS DSFS STR JA- BRFS-;
#DIFFICULTY:Challenge;
#METER:18;
#RADARVALUES:0,0,0,0,0;
#NOTES:
0000
0000
0000
0000
,
0000
0000
0000
0000
,
0000
0000
0000
0000
,
0000
0000
0000
0000
,
0000
0000
0000
0000
0000
0000
0000
0000
0000
0000
0000
0000
1000
0040
0000
M000
,
0031
0000
0100
0000
0001
0100
0000
010M
1000
0000
0100
0000
0010
0000
0001
0000
,
0100
0000
0000
0010
0000
0000
1000
0000
0000
M000
0010
0000
0100
0000
M100
0000
,
0010
M010
0001
0100
0001
1000
0010
0100
,
1000
0000
0100
0010
0000
1000
0100
0000
M100
0000
0001
1000
0100
0010
0000
001M
,
1000
0000
0100
0000
1000
0100
0000
M100
0001
0000
0010
0000
0100
0000
1000
0000
,
0010
0000
1000
0001
0010
0000
0001
0000
0000
000M
0010
0000
0100
0000
010M
0000
,
2010
0000
0000
0000
0000
0000
0000
0000
0000
0000
0000
0000
3001
0000
0000
0000
0000
0000
0000
0000
0000
0000
0000
0000
1000
0000
0000
0000
0000
0000
0000
0000
0000
0000
0000
0000
0010
0000
0000
0000
0000
0000
0000
0000
0000
0000
0000
0000
2100
0000
0000
0000
0000
0000
0000
0000
0000
0000
0000
0000
3001
0000
0000
0000
0000
0000
0000
0000
0000
0000
0000
0000
1000
0000
0000
0000
0000
0000
0000
0010
0000
0000
0000
0000
0100
0000
0000
0000
0000
0000
0000
0001
0000
0000
0000
0000
,
2010
0000
0000
0000
0000
0000
0000
0000
0000
0000
0000
0000
3002
0000
0000
0000
0000
0000
0000
0000
0000
0000
0000
0000
0000
0000
0000
0000
0000
0000
0003
0100
0000
0000
0000
0000
0000
0000
0000
0000
0000
0000
0000
0000
0000
0000
0000
0000
0010
0000
0000
0000
0000
0000
0000
0000
0000
0000
0000
0000
0001
0000
0000
0000
0000
0000
0000
0000
0000
0000
0000
0000
0010
0000
0000
0000
0000
0000
0000
0000
0000
0000
0000
0000
0000
0000
0000
0000
0000
0000
0000
0000
0000
0000
0000
0000
,
1000
0000
0000
0000
0000
0000
0000
0000
0000
0000
0000
0000
1000
0000
0000
0000
0000
0000
0000
0000
0000
0000
0000
0000
1000
0000
0000
0000
0000
0000
0000
0001
0000
0000
0000
0000
1000
0000
0000
0000
0000
0000
0000
0010
0000
0000
0000
0000
1000
0000
0000
0000
0000
0000
0000
0001
0000
0000
0000
0000
0010
0000
0000
0000
0000
0000
0000
0001
0000
0000
0000
0000
0100
0000
0000
0000
0000
0000
0000
0010
0000
0000
0000
0000
0100
0000
0000
0000
0000
0000
0000
0001
0000
0000
0000
0000
,
0010
0001
1000
0010
0100
010M
2000
0000
3010
1000
0002
0013
0000
001M
1000
0000
,
0010
1000
0001
0010
0100
M100
0002
0000
0013
0001
2000
3010
0000
M010
0001
0000
,
0100
0001
1000
0100
0010
001M
2000
0000
3100
1000
0002
0103
0000
010M
1000
0000
,
0100
0000
0000
0000
0000
0000
1000
0000
0000
0000
0000
0000
0001
0000
0000
0000
0000
0000
0100
0000
0000
0000
0000
0000
0010
0000
0000
0000
0000
0000
001M
0000
0000
0000
0000
0000
0200
0000
0000
0000
0000
0000
0000
0000
0000
0000
0000
0000
0310
0000
0000
0000
0000
0000
0000
0001
0000
0000
0000
0000
0200
0000
0000
0000
0000
0000
0300
0010
0000
0000
0000
0000
1000
0000
0000
0000
0000
0000
0000
0001
0000
0000
0000
0000
0010
0000
0000
0000
0000
0000
0000
0001
0000
0000
0000
0000
,
0100
0001
1000
0100
0010
001M
0200
0000
0301
1000
0002
0103
0000
010M
1000
0000
,
0100
1000
0001
0100
0010
M010
0200
0000
1300
0001
2000
3100
0000
M100
0001
0000
,
1010
0000
0000
0000
0100
0000
M100
0001
1010
0000
0001
0000
0100
0000
0001
0000
,
0010
0000
0000
0100
0000
0000
1011
0000
0000
1000
0000
0000
0010
0000
0100
0001
0000
0000
1000
0000
0000
0100
0000
0000
,
0001
0100
0010
0100
1000
0010
0100
0001
,
0010
0100
1000
0001
0100
0001
0010
0100
,
1000
0000
0100
0000
0001
0000
0100
0000
0010
0000
0001
0100
0000
010M
1000
0000
,
0010
0000
0000
0000
1000
0000
0000
M000
0010
0000
0000
0000
0001
0000
0000
0000
0100
0000
0000
0000
0001
0000
0000
0000
0100
0000
0000
0000
0010
0000
0000
0000
,
0002
0000
0013
0000
0200
0000
0310
0000
2000
3010
0000
M010
0001
0000
1000
0000
,
0100
0000
0000
0M00
0001
0000
0000
0000
0010
0000
0000
00M0
1000
0000
0000
0000
0001
0000
0000
000M
0010
0000
0000
0000
1000
0000
0000
M000
0100
0000
0000
0000
,
0010
0000
1000
0001
0010
0000
0100
0000
1000
0000
0010
0000
0400
0000
0000
0000
,
0311
0000
0000
0000
1000
0000
0000
0000
0001
0000
0000
0000
0010
0000
0000
0000
0100
0000
0000
0000
1000
0000
0000
0000
0001
0000
0000
0000
0000
0000
0100
0000
0000
0001
0000
0000
1000
0000
0000
0000
0000
0000
0101
0000
0000
0000
0000
0000
,
0010
0001
1000
0000
0011
0000
M010
0000
0200
0000
0000
0000
4300
0000
0000
0000
,
3011
M010
0100
M100
0001
1000
0100
1010
,
0001
1000
0010
0000
1100
0001
1000
0000
0100
0000
M100
0000
0001
1000
0001
1000
,
0001
1000
1000
1000
0010
M010
0001
2100
,
0000
0000
3001
1000
0101
0000
0010
0000
0100
0000
0000
0000
0001
0000
0100
0000
,
1010
0000
0001
0000
1000
0000
0100
0000
1000
0000
0010
0000
0100
0000
0011
1000
,
0001
0000
0000
0010
0000
0000
0100
0000
0000
0000
0000
0000
1010
0000
0000
0001
0000
0000
1000
0000
0000
0001
0000
0000
0100
0000
0000
0000
010M
0000
0000
0000
0100
0000
0000
0000
0001
0000
0000
0000
0000
0000
1000
0000
0000
0000
0000
0000
,
0101
0000
0000
0000
1000
0000
0000
0000
0010
0000
0000
0000
1000
0000
0000
0000
0100
0000
M100
0000
0010
0000
0000
0000
1000
0000
0000
M000
0020
0000
0030
0000
,
0001
0000
0000
0000
1000
0000
0000
0000
0100
0000
0000
0000
1000
0000
0000
0000
0010
0000
M010
0000
0100
0000
0000
0000
1000
0000
0000
M000
0200
0000
0300
0000
,
0001
0000
0000
0000
0000
0000
0000
1000
0000
0000
0000
0000
0100
0000
0000
0000
0000
0000
0000
0010
0000
0000
0000
0000
0001
0000
0000
0000
0000
0000
0000
1000
0000
0000
0000
0000
0010
0000
0000
0000
0000
0000
0000
1000
0000
0000
0000
0000
0100
0000
0000
0000
0000
0000
0000
M100
0000
0000
0000
0000
0001
0000
0000
0000
0000
0000
0000
1000
0000
0000
0000
0000
0100
0000
0000
0000
0000
0000
0000
0010
0000
0000
0000
0000
2000
0000
0000
0000
0000
0000
3000
0010
0000
0000
0000
0000
,
0001
0000
0000
0000
0000
0000
0000
0000
0000
0000
0000
0000
1010
0000
0000
0000
0000
0000
0000
0000
0000
0000
0000
0000
0000
0000
0000
0000
0000
0000
0000
0101
0000
0000
0000
0000
0000
0000
0000
0000
0000
0000
0000
0000
0000
0000
0000
0000
1100
0000
0000
0000
0000
0000
0000
0000
0000
0000
0000
0000
0000
0000
0000
0000
0000
0000
0000
0000
0000
0000
0000
0000
0010
0000
0000
0000
0000
0000
0004
0000
0000
0000
0000
0000
00M0
0000
0000
0000
0000
0000
0000
0000
0000
0000
0000
0000
,
1103
0000
010M
0000
1000
0010
0000
M010
0001
0000
0010
0000
0100
0000
1000
0000
,
0010
0000
0000
0100
0000
0000
0001
0000
0000
000M
0100
0000
0001
00M0
0001
0000
,
0010
001M
0100
010M
1000
0010
M010
0100
,
0001
00M0
0001
0010
0000
0001
0100
0000
010M
0000
1000
0001
0100
1000
00M0
1000
,
0001
0000
0100
0000
0001
0100
0000
010M
0010
0000
1000
0000
0010
0000
0001
0000
,
0010
0000
0000
0000
0000
0000
0001
0000
0000
1000
0000
0000
0010
0000
0000
0000
0000
0000
1000
0000
0000
0000
0000
0000
0000
0000
0000
M000
0000
0000
0010
0000
0000
0000
0100
0000
1000
0000
0100
0000
1000
0000
0010
0000
0000
0000
0000
0000
,
2100
0000
0000
0000
0000
0000
3000
0000
0000
0000
0000
0000
0001
0000
0000
0000
0000
0000
0000
1000
0000
0000
0000
0000
0100
0000
0000
0000
0000
0000
0000
0000
0000
0000
0000
0000
0010
0000
0000
0000
0000
0000
0000
0000
0000
0000
0000
0000
2000
0000
0000
0000
0000
0000
3000
0010
0000
0000
0000
0000
0100
0000
0000
0000
0000
0000
0000
0000
0000
0000
0000
0000
1000
0000
0000
0000
0000
0000
0000
0000
0000
0000
0000
0000
0010
0000
0000
0000
0000
0000
0000
0000
0000
0000
0000
0000
,
0002
0000
0000
0000
0000
0000
0000
0000
0000
0000
0000
0000
0013
0000
0000
0000
0000
0000
0000
M010
0000
0000
0000
0000
0001
0000
0000
0000
0000
0000
0000
0000
0000
0000
0000
0000
0100
0000
0000
0000
0000
0000
0000
010M
0000
0000
0000
0000
1000
0000
0000
0000
0000
0000
0000
0001
0000
0000
0000
0000
0100
0000
0000
0000
0000
0000
0000
0000
0000
0000
0000
0000
0001
0000
0000
0000
0000
0000
0000
0000
0000
0000
0000
0000
0010
0000
0000
0000
0000
0000
0000
0000
0000
0000
0000
0000
,
0102
0000
0000
0000
0000
0000
0003
0000
0000
0000
0000
0000
1000
0000
0000
0000
0000
0000
0000
0001
0000
0000
0000
0000
0100
0000
0000
0000
0000
0000
0000
0000
0000
0000
0000
0000
0010
0000
0000
0000
0000
0000
0000
0000
0000
0000
0000
0000
0002
0000
0000
0000
0000
0000
0003
0010
0000
0000
0000
0000
0100
0000
0000
0000
0000
0000
0000
0000
0000
0000
0000
0000
0001
0000
0000
0000
0000
0000
0000
0000
0000
0000
0000
0000
0010
0000
0000
0000
0000
0000
0000
0000
0000
0000
0000
0000
,
2000
0000
0000
0000
0000
0000
0000
0000
0000
0000
0000
0000
3010
0000
0000
0000
0000
0000
0000
001M
0000
0000
0000
0000
1000
0000
0000
0000
0000
0000
0000
0000
0000
0000
0000
0000
0100
0000
0000
0000
0000
0000
0000
M100
0000
0000
0000
0000
0001
0000
0000
0000
0000
0000
0000
1000
0000
0000
0000
0000
0100
0000
0000
0000
0000
0000
0000
0000
0000
0000
0000
0000
1000
0000
0000
0000
0010
0000
0000
0000
1000
0000
0000
0000
0010
0000
0000
0000
0000
0000
0000
0000
0000
0000
0000
0000
,
2100
3000
0001
0000
0010
0000
0100
1000
0102
0003
1000
0000
0010
0000
1000
0000
,
0400
0000
0000
0000
0000
0000
0000
0000
0000
0000
0000
0000
2310
0000
0000
0000
0000
0000
0000
0000
0000
0000
0000
0000
0000
0000
0000
0000
0000
0000
0000
3002
0000
0000
0000
0000
0000
0000
0000
0000
0000
0000
0000
0000
0000
0000
0000
0000
2003
0000
0000
0000
0000
0000
0000
0000
0000
0000
0000
0000
3020
0000
0000
0000
0000
0000
0000
0000
0000
0000
0000
0000
0230
0000
0000
0000
0000
0000
0000
0000
0000
0000
0000
0000
0301
0000
0000
0000
0000
0000
0000
0000
0000
0000
0000
0000
,
0001
0000
0000
0000
0000
0000
0000
0010
0000
0000
0000
0000
0001
0000
0000
0000
0000
0000
0000
0100
0000
0000
0000
0000
0001
0000
0000
0000
0000
0000
0000
0000
0000
0000
0000
0000
0001
0000
0000
0000
0000
0000
0000
1000
0000
0000
0000
0000
0001
0000
0000
0000
0000
0000
0000
0010
0000
0000
0000
0000
0001
0000
0000
0000
0000
0000
0000
0100
0000
0000
0000
0000
1000
0000
0000
0000
0000
0000
0000
0100
0000
0000
0000
0000
0010
0000
0000
0000
0000
0000
0000
1000
0000
0000
0000
0000
,
0100
0000
1000
0000
0001
0000
0010
0000
1000
00M0
1000
0000
0200
0000
0000
0000
0320
0000
0031
0000
2000
0000
3010
0000
0200
0000
0310
0000
0002
0000
0000
0000
,
0013
0000
1000
0000
0001
0000
0100
0000
1000
00M0
1000
0000
0020
0000
0000
0000
0230
0000
0301
0000
2000
0000
3100
0000
0020
0000
0130
0000
2000
0000
3000
0000
,
1000
0000
0100
0000
1000
0000
0010
0000
0001
00M0
0001
0000
0200
0000
0000
0000
0320
0000
1030
0000
0002
0000
0013
0000
0200
0000
0310
0000
2000
0000
0000
0000
,
3010
0000
0000
0000
0000
0000
0001
0000
0000
0000
0000
0000
1000
0000
0000
0000
0000
0000
0100
0000
0000
0000
0000
0000
0001
0000
0000
0M00
0000
0000
0001
0000
0000
0000
0000
0000
0020
0000
0000
0000
0000
0000
0000
0000
0000
0000
0000
0000
0230
0000
0000
0000
0000
0000
0300
1000
0000
0000
0000
0000
0200
0000
0000
0000
0000
0000
0300
0010
0000
0000
0000
0000
0002
0000
0000
0000
0000
0000
0003
1000
0000
0000
0000
0000
0020
0000
0000
0000
0000
0000
0030
1000
0000
0000
0000
0000
,
0100
0000
1000
0000
0001
0000
0100
0000
1000
00M0
1000
0000
0020
0000
0000
0000
2030
0000
3001
0000
2000
0000
3100
0000
0020
0000
0130
0000
0002
0000
0000
0000
,
0103
0000
1000
0000
0001
0000
0010
0000
1000
00M0
1000
0000
0200
0000
0000
0000
2300
0000
3001
0000
2000
0000
3010
0000
0200
0000
0301
0000
0020
0000
0000
0000
,
0131
0000
M100
0000
0010
0000
0100
0001
1100
0000
010M
0000
0010
0000
0004
0043
,
0131
1000
0001
0100
0011
1000
0001
0010
0101
1000
0001
1100
0010
0100
0011
1000
,
0011
0100
0001
1000
0101
0010
0001
1000
0011
1000
0001
1010
0001
1000
0011
0100
,
0011
1000
0001
0010
0101
1000
0001
0100
0011
1000
0001
1010
0100
0010
0101
1000
,
0101
0010
0001
1000
0011
0100
0001
1000
0101
1000
0001
1100
0001
0000
4000
3004
,
1103
0001
1000
0100
1010
0001
1000
0010
1100
0001
1000
0101
0010
0100
1010
0001
,
1100
0010
1000
0001
1010
0100
1000
0001
1100
0001
1000
0101
1000
0010
1100
0001
,
1010
0000
0000
0001
0000
0000
1000
0000
0000
0010
0000
0000
1100
0000
0000
0001
0000
0000
1000
0000
0000
0100
0000
0000
1010
0000
0000
0000
0101
0000
0000
0000
1010
0000
0000
0000
0101
0000
0000
0000
1010
0000
0000
0000
0101
0000
0000
0000
,
1100
0000
0000
0000
0000
0000
MMMM
0000
0000
0000
0000
0000
1001
0000
0000
0001
0000
0000
1000
0010
1000
0001
0010
0001
,
1000
0000
0000
2112
0000
0000
0000
0000
0000
0000
0000
0000
0000
0000
0000
0000
0000
0000
0000
0000
0000
0000
3003
0000
;
