#VERSION:0.83;
#TITLE:Planet_Paralysis_in_T_minus_483;
#SUBTITLE:;
#ARTIST:Z-I-v Sound Team "Karl with a K";
#TITLETRANSLIT:;
#SUBTITLETRANSLIT:;
#ARTISTTRANSLIT:;
#GENRE:;
#ORIGIN:;
#CREDIT:;
#BANNER:Planet_Paralysis_in_T_minus_483 banner.png;
#BACKGROUND:Planet_Paralysis_in_T_minus_483 bg.png;
#PREVIEWVID:;
#JACKET:Planet_Paralysis_in_T_minus_483 jk.png;
#CDIMAGE:;
#DISCIMAGE:;
#LYRICSPATH:;
#CDTITLE:;
#MUSIC:Planet_Paralysis_in_T_minus_483.ogg;
#OFFSET:-0.025000;
#SAMPLESTART:93.913010;
#SAMPLELENGTH:14.400002;
#SELECTABLE:YES;
#BPMS:0.000=200.000,
458.000=191.000,
459.000=180.000,
460.000=170.000,
461.000=160.000,
462.000=150.000,
463.000=140.000,
463.500=135.000,
464.000=130.000,
464.500=125.000,
465.000=120.000,
465.500=115.000,
466.000=110.000,
466.500=105.000,
467.000=100.000,
467.500=95.000,
468.000=90.000,
468.500=85.000,
469.000=80.000,
470.000=70.000,
471.000=60.000;
#STOPS:;
#DELAYS:;
#WARPS:;
#TIMESIGNATURES:0.000=4=4;
#TICKCOUNTS:0.000=4;
#COMBOS:0.000=1;
#SPEEDS:0.000=1.000=0.000=0;
#SCROLLS:0.000=1.000;
#FAKES:;
#LABELS:0.000=Song Start;
#BGCHANGES:;
#KEYSOUNDS:;
#ATTACKS:
;

//---------------dance-single - XO DS+ JA RH- JU Wadatsumis-----------------
#NOTEDATA:;
#CHARTNAME:;
#STEPSTYPE:dance-single;
#DESCRIPTION:XO DS+ JA RH- JU Wadatsumis-;
#CHARTSTYLE:;
#DIFFICULTY:Challenge;
#METER:18;
#RADARVALUES:0.666805,1.154753,0.368850,0.724288,0.295080,696.000000,641.000000,55.000000,108.000000,0.000000,0.000000,0.000000,0.000000,0.000000,0.666805,1.154753,0.368850,0.724288,0.295080,696.000000,641.000000,55.000000,108.000000,0.000000,0.000000,0.000000,0.000000,0.000000;
#CREDIT:Karl with a K;
#NOTES:
// measure 0
0000
0000
0000
0000
,  // measure 1
0000
0000
0000
0000
,  // measure 2
0000
0000
0000
0000
,  // measure 3
0000
0000
0000
0000
,  // measure 4
0000
0000
0000
0000
,  // measure 5
0000
0000
0000
0000
,  // measure 6
0000
0000
0000
0000
,  // measure 7
0000
0000
0000
0000
,  // measure 8
0000
0000
0000
0000
,  // measure 9
0000
0000
0000
0000
,  // measure 10
0000
0000
0000
0000
,  // measure 11
0000
0000
0000
0000
,  // measure 12
2002
0000
0000
0000
,  // measure 13
0000
0000
0000
0000
,  // measure 14
0000
0000
0000
3003
,  // measure 15
0220
0000
0000
0000
,  // measure 16
0000
0000
0000
0000
,  // measure 17
0330
0000
0000
0000
1000
0100
0010
0000
0001
1000
0001
0000
0100
0010
1000
0000
,  // measure 18
0010
0000
1000
0000
0001
0000
1001
0000
0000
0001
1000
0000
1100
0000
0000
0000
,  // measure 19
0100
0010
0000
0000
0010
0001
0000
0000
0010
0000
0001
0000
1000
0000
1001
0000
,  // measure 20
0000
1000
0001
0000
0101
0000
0000
0000
0100
0010
0000
0000
0010
1000
0000
0000
,  // measure 21
1000
0000
0010
0100
0001
0000
1000
0000
0100
0010
0001
0000
1000
0000
0010
0100
,  // measure 22
0001
0000
1000
0000
0100
0010
0001
0000
1000
0000
0010
0100
0010
0000
0110
0000
,  // measure 23
0000
0000
1001
0000
0000
0000
1000
0000
0010
0100
0010
0000
0110
0000
0000
0000
,  // measure 24
1001
0000
0000
0000
0011
0000
0010
0001
1000
0000
0010
0000
0000
0000
1010
0000
,  // measure 25
0000
2010
0000
0001
0001
0000
3010
0100
,  // measure 26
2000
0000
0000
0000
3100
0000
0010
1000
0001
0000
0010
0000
0000
0000
0011
0000
,  // measure 27
0000
0012
0000
1000
1000
0000
0013
0100
,  // measure 28
0002
0000
0000
0000
0103
0000
0010
0001
1000
0000
0001
0000
0000
0000
0101
0000
,  // measure 29
0000
0102
0000
1000
1000
0000
0103
0010
,  // measure 30
0002
0000
0000
0000
0013
0000
0100
0001
1000
0000
0100
0000
0000
0000
1100
0000
,  // measure 31
0000
2100
0000
0100
0100
0000
3001
0001
,  // measure 32
0010
0001
0010
0001
0010
0000
0100
0010
0001
0000
0200
0000
0000
0000
0010
0000
,  // measure 33
0000
0302
0000
0100
2003
0000
3100
0010
,  // measure 34
0002
0000
0000
0000
0103
0000
0010
0100
0001
0000
0020
0000
0000
0000
0100
0000
,  // measure 35
0000
0032
0000
0010
2003
0000
3010
0200
,  // measure 36
0001
0000
0000
0000
0310
0000
0100
0010
1000
0000
0200
0000
0000
0000
0010
0000
,  // measure 37
0000
2300
0000
0100
3002
0000
0103
0010
,  // measure 38
2000
0000
0000
0000
3100
0000
0010
0100
1000
0000
0020
0000
0000
0000
0100
0000
,  // measure 39
0000
2030
0000
0010
3001
0020
0000
0130
,  // measure 40
1000
0010
0200
0000
0302
0000
0000
0100
,  // measure 41
0000
0010
0023
0000
1000
0000
0032
0000
,  // measure 42
0000
0010
0000
1000
2003
0000
3002
0000
,  // measure 43
0203
0000
0000
0320
0000
0001
0032
0000
,  // measure 44
2003
0000
3200
0000
0000
0302
0000
1000
,  // measure 45
1003
0100
0010
0001
2000
0000
0000
0100
,  // measure 46
0000
0001
3002
0000
2003
0000
3200
0000
,  // measure 47
0000
0320
0000
1000
2030
0000
3002
0000
,  // measure 48
0103
0000
0010
0001
0100
0000
0010
0000
0100
0001
0010
0000
0100
0000
0010
0001
,  // measure 49
0100
0000
0010
0000
0000
0000
1000
0100
0010
0001
1000
0001
1000
0010
0100
0001
,  // measure 50
1000
0001
1000
0010
0100
0001
0010
0100
0010
0100
0010
0000
0001
0000
0000
0000
,  // measure 51
0010
0001
0100
0010
0120
0000
1000
0000
,  // measure 52
0130
0000
1010
0000
0010
1000
0100
0010
,  // measure 53
0120
0001
0130
0011
,  // measure 54
0010
0001
0100
0010
2010
0000
0001
0000
,  // measure 55
3100
0000
2001
0000
3010
0001
0010
0100
,  // measure 56
0102
0010
1003
1200
,  // measure 57
0310
1000
0010
0100
0210
0000
0001
0000
,  // measure 58
1300
0000
2001
0000
3010
0001
0010
0100
,  // measure 59
0210
0000
1000
0000
0301
0000
1001
0001
,  // measure 60
2000
0100
0000
3001
0101
0100
0002
0100
,  // measure 61
0000
0000
1003
0000
1001
0000
1000
0010
1000
0000
0001
0000
0010
0001
0010
0000
,  // measure 62
0001
0000
1000
0010
1000
0000
0001
0100
0010
0000
1000
0100
0010
0000
0001
0000
,  // measure 63
0010
0100
1000
0000
0010
0000
0100
0001
0010
0000
0100
0000
1000
0010
0100
0000
,  // measure 64
0001
0010
0100
0000
1000
0010
0100
0001
0020
0000
0000
0000
0000
0000
0000
0000
,  // measure 65
0030
0010
0001
0100
,  // measure 66
0020
0000
1030
0200
,  // measure 67
0000
0000
1300
0001
0020
0000
0000
0000
,  // measure 68
0031
0001
0100
0001
,  // measure 69
0020
0100
0001
0230
,  // measure 70
0010
0000
1300
0010
2000
0000
0100
0000
,  // measure 71
3001
0201
0010
0320
,  // measure 72
0100
1030
1002
0010
,  // measure 73
2003
3020
0032
2003
,  // measure 74
3100
0010
2000
0000
0100
0000
0001
0000
,  // measure 75
0100
0001
0100
0001
,  // measure 76
3200
0000
0000
0000
0301
0000
0000
0000
0100
1000
0100
1000
0100
1000
0100
1000
,  // measure 77
0100
1000
0100
0010
0001
0100
0010
1000
0100
0000
1000
0100
0010
0001
0100
0000
,  // measure 78
0001
1002
0000
0003
,  // measure 79
0011
0000
0000
0000
0001
1000
0001
0000
1000
0000
0000
0000
2010
0000
0000
0000
,  // measure 80
0000
3001
0102
0000
,  // measure 81
1003
0001
0021
0000
0000
0000
0130
0000
,  // measure 82
2100
3200
1300
1002
,  // measure 83
0010
1003
0201
0010
,  // measure 84
0301
0010
2000
0000
3010
0100
0001
0100
,  // measure 85
2000
0001
3020
0032
,  // measure 86
0013
0100
1000
0100
0002
0000
0013
0100
,  // measure 87
1000
0100
1200
0000
0301
0100
1000
0001
,  // measure 88
0201
0000
1000
0000
0301
0000
0021
0001
,  // measure 89
0000
0100
0000
0100
0001
0000
1000
0000
,  // measure 90
0031
0000
1020
1000
0000
0001
0000
0130
,  // measure 91
0010
1010
0011
2002
,  // measure 92
0000
0000
0000
0000
,  // measure 93
3003
0000
0000
0001
0010
0001
0010
0001
,  // measure 94
0010
0100
0010
0001
0010
0100
0010
0001
0010
0000
0001
0000
1001
0000
0000
0000
,  // measure 95
1000
0010
0100
0010
1000
0100
0010
0100
,  // measure 96
1000
0001
0100
0010
0100
0001
0010
0001
,  // measure 97
1000
0000
0010
0000
0100
0000
0001
0000
0100
0000
0010
0000
0200
0000
0001
1000
,  // measure 98
0000
0000
1000
0001
0000
0000
0301
1000
0001
0000
1000
0010
0100
0000
0010
1000
,  // measure 99
0001
0000
0000
0000
0020
0000
0001
1000
0000
0000
1000
0001
0000
0000
0031
1000
,  // measure 100
0001
0000
1000
0100
0010
0000
0100
1000
0001
0000
0000
0000
2000
0000
0000
0000
,  // measure 101
3100
0100
0001
0001
1000
1000
0010
0010
,  // measure 102
0001
0001
0010
0010
0001
0001
0100
0100
,  // measure 103
0010
0000
0010
0000
1000
0000
1000
0000
0100
0000
0100
0000
1000
0010
1000
0001
,  // measure 104
0010
0001
0100
0010
1000
0001
0010
0001
0100
0010
1000
0010
1000
0100
0010
0001
,  // measure 105
1000
0001
1000
0010
2000
0000
0000
0000
0010
0000
0000
0000
3001
0000
0000
0000
,  // measure 106
1002
0010
1000
0203
,  // measure 107
0010
0302
2003
0001
,  // measure 108
0100
3002
0010
1003
,  // measure 109
2001
0010
0001
3200
,  // measure 110
0010
0000
1300
0100
0002
0000
0100
0000
,  // measure 111
0203
0000
2300
0000
3010
0100
0001
0000
,  // measure 112
1002
0000
0013
0100
1000
0001
0200
0000
,  // measure 113
0310
0000
0100
0000
0001
0000
0000
0000
1000
0001
1000
0000
0001
1000
0001
0000
,  // measure 114
0010
0100
0110
0000
1000
0100
1000
0100
,  // measure 115
0010
0001
0010
0001
0100
0010
1000
0010
,  // measure 116
1000
0010
1000
0001
0100
0001
0100
0001
,  // measure 117
1000
0100
0020
0000
0000
0000
0100
0000
,  // measure 118
0000
0100
0000
0030
;

//---------------dance-single - XO DS JA RH- JU----------------
#NOTEDATA:;
#CHARTNAME:;
#STEPSTYPE:dance-single;
#DESCRIPTION:XO DS JA RH- JU;
#CHARTSTYLE:;
#DIFFICULTY:Hard;
#METER:16;
#RADARVALUES:0.583454,0.951634,0.489565,0.462739,0.154246,609.000000,536.000000,73.000000,69.000000,0.000000,0.000000,0.000000,0.000000,0.000000,0.583454,0.951634,0.489565,0.462739,0.154246,609.000000,536.000000,73.000000,69.000000,0.000000,0.000000,0.000000,0.000000,0.000000;
#CREDIT:;
#NOTES:
0000
0000
0000
0000
,
0000
0000
0000
0000
,
0000
0000
0000
0000
,
0000
0000
0000
0000
,
0000
0000
0000
0000
,
0000
0000
0000
0000
,
0000
0000
0000
0000
,
0000
0000
0000
0000
,
0000
0000
0000
0000
,
0000
0000
0000
0000
,
0000
0000
0000
0000
,
0000
0000
0000
0000
,
2002
0000
0000
0000
,
0000
0000
0000
0000
,
0000
0000
0000
3003
,
2002
0000
0000
0000
,
0000
3000
0203
0000
,
0000
0320
1000
0100
,
1030
0000
0000
0000
0010
0000
0001
0000
0000
0000
0010
0000
1000
0001
0000
0000
,
0001
0010
0000
0000
0010
0001
0000
0000
0001
0000
0000
0000
0010
0000
1000
0000
,
0000
0000
0010
0000
0001
1000
0000
0000
1000
0010
0000
0000
0010
1000
0000
0000
,
1000
0000
1000
0000
0001
1000
0001
0000
0000
0000
0010
0001
0010
0000
0000
0000
,
0100
0010
0100
0000
0000
0000
1000
0100
1000
0000
0000
0000
0010
1000
0010
0000
,
0000
0010
0100
0000
0000
0000
0101
0000
0000
0001
1000
0001
1000
0000
0000
0000
,
1001
0000
1100
1000
0100
1000
0000
1000
,
0001
1000
0000
1000
0100
0000
0100
1000
,
0010
0000
0101
0001
0100
0001
0000
0001
,
1000
0001
0000
0001
0100
0000
0100
0001
,
0010
0000
0011
0001
0010
0001
0000
0001
,
1000
0001
0000
0001
0010
0000
0010
0001
,
0100
0000
1010
1000
0010
1000
0000
1000
,
0001
1000
0000
1000
0010
0000
0010
1000
,
0001
0010
0001
0000
1000
0000
0001
0010
0001
0000
0010
0000
0000
0000
0010
0000
,
0100
0002
0000
0103
0020
0000
0130
0010
,
0001
0000
0000
0000
1000
0000
0001
0100
0001
0000
0100
0000
0000
0000
0100
0000
,
0010
0002
0000
0013
0200
0000
0310
0100
,
0001
0000
0000
0000
0001
0000
1000
0100
1000
0000
0100
0000
0000
0000
0100
0000
,
0010
2000
0000
3010
0200
0000
0310
0100
,
1000
0000
0000
0000
0001
0000
1000
0100
1000
0000
0001
0000
0000
0000
0001
0000
,
0100
1000
0000
1000
0100
0001
1000
0010
,
0100
1000
0100
0000
0002
0000
0000
0010
,
0000
0010
0013
0000
0011
0000
0020
0000
,
0000
0001
0000
0001
0031
0000
0002
0000
,
0203
0000
0000
0001
0000
0001
0301
0000
,
0101
0000
0002
0000
0000
0203
0000
0010
,
0320
0000
0031
0010
2000
0000
0000
0010
,
0000
0010
3010
0000
1001
0000
2000
0000
,
0000
3200
0000
0010
0310
0000
0001
0000
,
1001
0000
0000
0001
0100
0000
0001
0000
0000
0100
0010
0000
0100
0000
0000
0010
,
1000
0000
1000
0000
0010
0000
1000
0100
1000
0000
0100
0000
0010
0001
0010
0000
,
0001
0000
0100
0001
0100
0000
0001
0000
1000
0010
0000
0000
2010
0000
0000
0000
,
0000
3010
0001
0010
0100
0000
0001
0000
,
1000
0000
0012
0000
0000
0013
1000
0010
,
0100
1000
0001
2100
,
0000
3100
0001
0100
0010
0000
0001
0000
,
1000
0000
0102
0000
0000
0203
0000
1300
,
0100
0010
1000
0102
,
0000
0103
1000
0100
0010
0000
1000
0000
,
0100
0000
2100
0000
0000
3100
0001
0100
,
0010
0000
0001
0000
0100
0000
1001
0001
,
0000
0010
0000
0100
0110
0010
0000
0001
,
0000
1000
0010
0001
0010
1010
0000
0001
,
0010
1000
0010
0011
0000
1100
0000
0010
,
0001
0100
0010
1000
0100
0010
0001
0100
,
0010
0100
0010
0000
0100
0010
0100
0000
0020
0000
0000
0000
0000
0000
0000
0000
,
0000
2030
0000
0001
,
3200
0000
0000
0320
,
0000
0100
0032
0000
,
0000
0203
0000
0001
,
0320
0100
0100
2030
,
0001
0000
3001
0100
0020
0000
0230
0000
,
0310
0120
1030
2000
,
3200
1300
2100
3001
,
0002
0203
0320
0032
,
0023
2030
0000
0001
,
0000
0001
0000
0001
,
0000
3002
1000
1000
,
1000
0000
0000
0000
1003
0100
0010
0000
0001
0000
1000
0010
0100
0000
0001
0000
,
1000
2002
0000
3003
,
0110
0001
0010
0022
,
0000
0033
1100
0000
,
1000
0010
2020
0000
0000
0000
3030
0000
,
0101
0100
0010
0220
,
0000
0330
1001
0000
,
1000
0100
0010
0100
0000
0010
0000
0001
,
0002
0000
0100
0000
0103
0000
0010
0100
,
0000
0010
0000
1000
2000
0000
0100
0000
,
3100
0010
0100
0000
0010
0000
0010
0000
0000
0000
1000
0000
0000
0000
0010
0000
,
0020
0000
0230
0000
2300
0000
3001
0001
,
0000
0100
0000
0010
0020
0000
1000
0000
,
0100
0000
1030
1000
0000
1001
0000
0001
,
0011
0110
1100
1001
,
0000
0000
0000
0000
,
0000
0000
0000
1000
0010
1000
0010
1000
,
0001
0100
0001
0100
0001
0100
0001
0100
0001
0000
1000
0000
1001
0000
0000
0000
,
0011
0110
0011
1100
,
0011
1001
1010
0110
,
1010
0000
0101
0000
1010
0000
0010
0100
,
1000
0100
0010
0100
0001
0100
0001
0010
,
0001
0100
0001
0010
1000
0010
0100
0010
,
0001
0010
0001
0100
0001
0010
0001
0000
,
0001
0001
0010
0010
0001
0001
1000
1000
,
0100
0000
0100
0000
1000
0010
1000
0000
0010
0100
0010
0000
0100
0001
0100
0000
,
0001
0100
0001
0000
0100
0010
0100
0000
0010
1000
0010
0000
1000
0000
0000
1010
,
0000
0000
0110
0000
0000
0101
0000
0000
1001
0000
0000
1000
0000
0100
0010
0000
,
0000
0001
0000
0000
1001
0000
0000
0000
1000
0000
0100
0000
0010
0000
0000
0000
,
0011
0110
1100
1001
,
0001
0100
0010
0000
1010
0000
0110
0000
,
0101
0000
0110
0000
0010
1000
0100
0000
,
1100
0110
0011
0110
,
0010
0100
0001
0100
0010
0000
1001
0000
,
1010
0000
2001
0000
0010
3020
0100
0000
,
0130
0110
0101
0002
,
0010
0023
0100
0000
0230
0000
0010
0000
,
1300
1001
0001
0100
,
0001
1000
0100
0010
,
0100
0010
0001
0100
,
1000
0100
0001
0000
0000
0000
1000
0000
,
0000
0001
0000
0000
;

//---------------dance-single - XO DS JA- RH- JU----------------
#NOTEDATA:;
#CHARTNAME:;
#STEPSTYPE:dance-single;
#DESCRIPTION:XO DS JA- RH- JU;
#CHARTSTYLE:;
#DIFFICULTY:Medium;
#METER:13;
#RADARVALUES:0.414837,0.716743,0.221310,0.435914,0.000000,433.000000,400.000000,33.000000,65.000000,0.000000,0.000000,0.000000,0.000000,0.000000,0.414837,0.716743,0.221310,0.435914,0.000000,433.000000,400.000000,33.000000,65.000000,0.000000,0.000000,0.000000,0.000000,0.000000;
#CREDIT:;
#NOTES:
0000
0000
0000
0000
,
0000
0000
0000
0000
,
0000
0000
0000
0000
,
0000
0000
0000
0000
,
0000
0000
0000
0000
,
0000
0000
0000
0000
,
0000
0000
0000
0000
,
0000
0000
0000
0000
,
0000
0000
0000
0000
,
0000
0000
0000
0000
,
0000
0000
0000
0000
,
0000
0000
0000
0000
,
2000
0000
0000
0000
,
0000
0000
0000
0000
,
0000
0000
0000
0000
,
3002
0000
0000
0000
,
0000
0000
0000
0000
,
0000
0000
0000
0000
,
1003
0000
0100
0010
0000
0010
0100
0000
,
0110
0000
0011
0000
0001
0000
0100
0010
,
0000
0010
0100
0000
0110
0000
1010
0000
,
1000
0000
0100
0010
0000
0100
0001
0000
,
0100
0010
0000
0100
1000
0000
0010
0100
,
0000
0100
0000
0010
0000
0001
0010
0000
,
0010
0000
1000
0000
0100
0010
0000
0010
,
0000
0010
0000
0010
0100
0000
1000
0010
,
0100
0000
0001
0000
0100
0010
0000
0010
,
0000
0010
0000
0010
0100
0000
0001
0010
,
0100
0000
1000
0000
0010
0100
0000
0100
,
0000
0100
0000
0100
0010
0000
1000
0100
,
0010
0000
0001
0000
0010
0100
0000
0100
,
0000
0100
0000
0100
0010
0000
0001
0100
,
0010
0010
1000
0000
0100
0001
0000
0100
,
0000
1000
0000
1000
0100
0000
1000
0100
,
0010
0000
0001
0000
0100
1000
0000
0100
,
0000
0001
0000
0001
0100
0000
0001
0100
,
0010
0000
1000
0000
0010
0001
0000
0010
,
0000
1000
0000
1000
0010
0000
1000
0010
,
0100
0000
0001
0000
0010
1000
0000
0010
,
0000
0001
0000
0001
0010
1000
0001
0100
,
0010
1000
0020
0000
0032
0000
0000
0203
,
0000
0320
0100
2030
,
0000
3200
0000
0000
0320
0000
0100
0000
,
0032
0000
0000
0023
0000
0000
0230
0000
,
0010
0000
2300
0000
0000
3200
0000
0000
,
0320
0000
0100
0000
0032
0000
0000
0100
,
0000
1003
1001
2000
,
0000
0100
0000
0000
3001
0000
1100
0000
,
0110
0000
0010
0001
0000
0100
0010
0000
,
1000
0100
0000
0010
0100
1000
0010
0100
,
0001
0010
0100
1000
0010
1000
1020
0000
,
0000
1000
0000
0000
1030
0000
0100
0000
,
0010
0000
0021
0000
0000
0001
0000
0000
,
0031
0100
0010
0210
,
0000
0010
0000
0000
0310
0000
1000
0000
,
0100
0000
0210
0000
0000
0010
0000
1000
,
1300
0010
1000
1200
,
0000
1000
0000
0000
1300
0000
0010
0000
,
0100
0000
0201
0000
0000
0001
0000
0000
,
0301
0000
0010
0000
0100
0000
0210
0010
,
0000
2300
0000
3010
0200
0010
0000
0302
,
0000
0013
0120
0000
0000
1000
0000
0000
,
0001
0000
0000
1000
0000
0001
0000
0032
,
0000
0000
0100
0000
0000
0010
0000
0000
,
1000
2003
3020
0000
,
0030
0010
0000
0000
,
2000
0000
0000
3100
,
0000
0000
0020
0000
,
0000
0031
0000
0000
,
0200
0000
0000
0301
,
0000
1000
0200
0000
,
0010
0320
0000
0032
,
0000
0100
0203
0000
,
0320
0000
0001
0032
,
1000
2003
0000
0000
,
0000
0000
0000
0000
,
0000
3200
0000
0000
,
0000
0310
0100
0001
,
0010
0120
0000
0000
,
0031
0001
0100
0120
,
0000
0000
1030
0000
,
0100
0210
0000
0000
,
1300
1000
0100
0120
,
0000
0000
0031
0000
,
0100
0010
2000
0000
0001
0000
0010
0000
,
3002
0010
1000
2003
,
0010
0001
3002
0010
,
0103
0200
0320
2030
,
3200
0302
1000
2003
,
0000
0001
0000
0000
0001
0000
0001
0000
,
0001
0000
3020
0000
0000
1000
0000
0000
,
0001
0100
0031
1001
,
0000
0000
0000
0000
,
0000
0000
1000
1000
,
0001
0100
0010
0100
0001
0100
0010
0000
,
1000
0100
1000
0000
0010
0000
0100
0001
,
0100
0000
0010
0000
1000
0100
0010
0000
,
0010
0000
0001
0100
0001
0000
1010
0000
,
0101
1010
0011
1100
,
0011
1001
0110
1001
,
0110
0000
0110
0000
1001
0000
1000
0100
,
0010
0100
1000
0100
0010
0001
0010
0100
,
0010
0001
0100
0010
1000
0010
0100
0010
,
1000
0010
0100
0010
1000
0001
0010
1000
,
0010
0001
1000
0001
0100
1000
0100
0001
,
1000
0001
1000
0000
0100
0000
0010
0000
,
0001
0000
1000
0001
1000
0000
0001
0000
,
0100
0000
0010
0000
1000
0000
0001
1000
,
0001
1000
0010
0100
,
0001
0000
1000
0001
1000
0000
0001
0000
,
0010
0000
0100
1000
0001
0000
1000
0001
,
1000
0000
1000
0000
0100
0010
0100
0000
,
1000
0000
0001
1000
0001
0000
0001
0000
,
0100
0000
0100
0000
0010
0100
0010
0100
,
0010
2002
0000
0000
,
0000
0003
3020
2030
,
0000
3200
0320
0000
,
0032
0203
0000
0000
,
0000
0000
0000
0300
;

//---------------dance-single - ----------------
#NOTEDATA:;
#CHARTNAME:;
#STEPSTYPE:dance-single;
#DESCRIPTION:;
#CHARTSTYLE:;
#DIFFICULTY:Easy;
#METER:9;
#RADARVALUES:0.236639,0.471793,0.181072,0.388969,0.000000,247.000000,220.000000,27.000000,58.000000,0.000000,0.000000,0.000000,0.000000,0.000000,0.236639,0.471793,0.181072,0.388969,0.000000,247.000000,220.000000,27.000000,58.000000,0.000000,0.000000,0.000000,0.000000,0.000000;
#CREDIT:;
#NOTES:
0000
0000
0000
0000
,
0000
0000
0000
0000
,
0000
0000
0000
0000
,
0000
0000
0000
0000
,
0000
0000
0000
0000
,
0000
0000
0000
0000
,
0000
0000
0000
0000
,
0000
0000
0000
0000
,
0000
0000
0000
0000
,
0000
0000
0000
0000
,
0000
0000
0000
0000
,
0000
0000
0000
0000
,
1000
0000
0000
0000
,
0000
0000
0000
0000
,
0000
0000
0000
0000
,
0001
0000
0000
0000
,
0000
0000
0000
0000
,
0000
0000
0000
0000
,
1000
0000
0000
0100
0000
0000
0010
0000
,
0010
0000
0010
0000
0001
0000
0000
0100
,
0000
0010
0010
0010
,
1000
0000
0000
0100
0000
0000
0010
0000
,
0000
0001
0000
0000
0100
0000
0000
0010
,
0000
0100
0000
0001
0000
0000
0010
0000
,
0100
0000
1000
0000
0000
0100
0000
0100
,
0000
0100
0000
0000
1000
0000
0001
0000
,
1000
0000
0001
0000
0000
0100
0000
0100
,
0000
0100
0000
0000
0001
0000
1000
0000
,
0001
0000
1000
0000
0000
0010
0000
0010
,
0000
0010
0000
0000
1000
0000
0001
0000
,
1000
0000
0001
0000
0000
0010
0000
0010
,
0000
0010
0000
0000
0001
0000
1000
0000
,
0001
0000
1000
0000
0000
0100
0000
0010
,
0000
0100
0000
0000
1000
0000
0001
0000
,
1000
0000
0001
0000
0000
0100
0000
0010
,
0000
0100
0000
0000
0001
0000
1000
0000
,
0001
0000
1000
0000
0000
0010
0000
0100
,
0000
0010
0000
0000
1000
0000
0001
0000
,
1000
0000
0001
0000
0000
0010
0000
0100
,
0000
0010
0000
0000
0001
0000
1000
0000
,
0001
1000
2001
0000
,
0000
3020
0000
2030
,
0000
0000
3002
0000
,
0203
0000
0000
0001
,
0000
0302
0000
0000
,
0023
0000
0230
0000
,
0000
1000
0000
2300
,
0000
0001
0000
0000
0001
0000
0001
0000
,
3001
0000
0000
0001
0000
0000
1000
0000
,
0000
1000
0000
0010
0000
0000
0010
0000
,
0000
0100
0000
0000
0100
0000
0210
0000
,
0000
0000
0301
0000
,
0000
2001
0000
0000
,
3100
0000
0000
0210
,
0000
0000
1300
0000
,
0000
1002
0000
0000
,
0103
0000
0000
0120
,
0000
0000
1030
0000
,
0000
1002
0000
0000
,
0013
0000
0000
0120
,
0000
0000
0031
0000
,
0000
0000
0021
0000
0000
0001
0000
0000
,
0001
0000
0000
0001
0000
0001
0000
0032
,
0000
0000
0100
0000
0000
0100
0000
0000
,
0100
0103
0020
0000
,
0000
0000
0000
0000
,
2030
0000
0000
0000
,
0000
0000
3002
0000
,
0000
0000
0000
0000
,
0023
0000
0000
0000
,
0000
0000
0032
0000
,
0000
0203
0000
0320
,
0000
0000
2030
0000
,
3200
0000
0000
0320
,
0000
0032
0000
0000
,
0000
0000
0000
0000
,
0000
2000
0000
0000
,
0000
0000
0000
0000
,
3003
0220
0000
0330
,
0110
0000
0000
2002
,
0000
3003
1001
0000
,
0000
0022
0000
0033
,
1100
0000
0000
2020
,
0000
3030
0101
0000
,
0000
2002
0000
3003
,
0110
0010
0100
0220
,
0000
0330
1001
0001
,
1000
1100
0100
0010
,
0110
0010
0001
2002
,
0000
0000
0000
0000
,
3003
0220
0000
0000
,
0000
0000
0330
0000
,
0000
0000
0000
0000
,
0000
0000
1000
0001
,
1000
0001
1001
1000
,
0010
1000
0001
0010
,
0001
1000
0100
1000
,
0001
0100
0001
1000
,
1000
1000
0001
0001
,
0001
0010
0010
0010
,
0100
0100
0100
1000
,
0010
0100
0001
0100
,
0010
2000
0001
0001
,
0001
0001
3001
0002
,
0010
1000
0010
1000
,
0013
0200
0000
0000
,
0000
0000
0000
0000
,
0000
0000
0000
0000
,
0000
0320
0000
0000
,
0000
0000
0000
0000
,
0000
0000
0001
0000
0001
0000
0000
0001
,
0000
0000
0032
0000
0000
0203
0000
0000
,
0320
0000
0000
2030
0000
0000
3002
0000
,
0000
0000
2003
0000
,
3000
2002
0000
0000
,
0000
0000
0000
0000
,
0000
0000
0000
0000
,
0000
3003
0000
0000
;

//---------------dance-single - ----------------
#NOTEDATA:;
#CHARTNAME:;
#STEPSTYPE:dance-single;
#DESCRIPTION:;
#CHARTSTYLE:;
#DIFFICULTY:Beginner;
#METER:4;
#RADARVALUES:0.093889,0.235897,0.033532,0.134127,0.000000,98.000000,93.000000,5.000000,20.000000,0.000000,0.000000,0.000000,0.000000,0.000000,0.093889,0.235897,0.033532,0.134127,0.000000,98.000000,93.000000,5.000000,20.000000,0.000000,0.000000,0.000000,0.000000,0.000000;
#CREDIT:;
#NOTES:
0000
0000
0000
0000
,
0000
0000
0000
0000
,
0000
0000
0000
0000
,
0000
0000
0000
0000
,
0000
0000
0000
0000
,
0000
0000
0000
0000
,
0000
0000
0000
0000
,
0000
0000
0000
0000
,
0000
0000
0000
0000
,
0000
0000
0000
0000
,
0000
0000
0000
0000
,
0000
0000
0000
0000
,
1000
0000
0000
0000
,
0000
0000
0000
0000
,
0000
0000
0000
0000
,
0001
0000
0000
0000
,
0000
0000
0000
0000
,
0000
0000
0000
0000
,
2000
0000
0000
0000
,
0000
0000
0000
0000
,
0000
0000
0000
0000
,
0000
0000
0000
0000
,
0000
0000
0000
0000
,
0000
0000
0000
0000
,
3000
1000
0000
1000
,
0000
1000
0000
0000
,
0000
0001
0000
0001
,
0000
0001
0000
0000
,
0000
1000
0000
1000
,
0000
1000
0000
0000
,
0000
0001
0000
0001
,
0000
0001
0000
0000
,
0000
1000
0000
0010
,
0000
1000
0000
0000
,
0000
0001
0000
0010
,
0000
0001
0000
0000
,
0000
1000
0000
0100
,
0000
1000
0000
0000
,
0000
0001
0000
0100
,
0000
0001
0000
0000
,
0000
0000
2000
0000
,
0000
0000
3000
0002
,
0000
0000
0000
0003
,
2000
0000
0000
0000
,
3000
0200
0000
0000
,
0000
0300
2000
0000
,
0000
0000
3000
0002
,
0000
0000
0000
0003
,
0200
0000
0000
0000
,
0000
0300
0000
0020
0000
0000
0000
0000
,
0000
0000
0030
1000
,
0000
0000
1000
0000
,
0000
0100
0000
0000
,
0000
0000
0000
0001
,
0000
0000
0001
0000
,
0000
0100
0000
0000
,
0000
0000
0000
1000
,
0000
0000
1000
0000
,
0000
0010
0000
0000
,
0000
0000
0000
0001
,
0000
0000
0001
0000
,
0000
0010
0000
0000
,
0010
0000
0000
0000
0000
0000
0000
0100
,
0000
0000
0000
0000
0000
0100
0000
0000
,
0000
0000
0001
0000
,
0000
0000
0000
0000
,
0000
0000
0000
0000
,
0000
0000
0000
0000
,
0000
0000
0000
0000
,
0000
0000
0000
0000
,
0000
0000
1000
0000
,
0000
1000
0000
0001
,
0000
0000
0001
0000
,
0100
0000
0000
0010
,
0000
2000
0000
0000
,
0000
0000
0000
0000
,
0000
0000
0000
0000
,
0000
0000
0000
0000
,
3000
2000
0000
0000
,
0000
0000
3000
0200
,
0000
0000
0000
0000
,
0300
0020
0000
0000
,
0000
0000
0030
0002
,
0000
0000
0000
0000
,
0003
1000
0000
0000
,
1000
0000
0000
0001
,
0000
0000
0001
0000
,
0000
1000
0000
0000
,
0100
0000
0000
0020
,
0000
0000
0000
0000
,
0030
0020
0000
0000
,
0000
0000
0030
0000
,
0000
0000
0000
0000
,
0000
0000
0000
0000
,
0000
0000
0000
1000
,
0000
0000
0001
0000
,
0000
1000
0000
0000
,
0001
0000
0000
1000
,
1000
0000
0001
0001
,
0000
0010
0010
0000
,
0100
0100
0000
1000
,
1000
0000
0010
0010
,
0000
0200
0000
0000
,
0000
0000
0300
0020
,
0000
0000
0000
0000
,
0030
1001
0000
0000
,
0000
0000
0000
0000
,
0000
0000
0000
0000
,
0000
0110
0000
0000
,
0000
0000
0000
0000
,
0000
0000
0000
0000
,
0000
1001
0000
0000
,
0000
0000
0000
0110
,
0000
0000
0000
0000
,
0000
2002
0000
0000
,
0000
0000
0000
0000
,
0000
0000
0000
0000
,
0000
3003
0000
0000
;
