#TITLE:Pixel Perfect;
#SUBTITLE:;
#ARTIST:Retrograde;
#TITLETRANSLIT:;
#SUBTITLETRANSLIT:;
#ARTISTTRANSLIT:;
#GENRE:;
#CREDIT:;
#BANNER:banner.png;
#BACKGROUND:bg.png;
#LYRICSPATH:;
#CDTITLE:;
#MUSIC:Pixel Perfect.ogg;
#OFFSET:-0.132000;
#SAMPLESTART:45.141922;
#SAMPLELENGTH:15.000000;
#SELECTABLE:YES;
#BPMS:0.000000=128.000000
;
#STOPS:
;
#BGCHANGES:;
#KEYSOUNDS:;
#ATTACKS:;

//---------------dance-single - DS(F) XO(F) JA(F) SJ(F) FS(F) CTXT(F) MD(I)----------------
#NOTES:
     dance-single:
     :
     Challenge:
     15:
     0.531286,0.769512,0.148102,0.411394,0.518356,452.000000,434.000000,18.000000,50.000000,14.000000,0.000000,0.531286,0.769512,0.148102,0.411394,0.518356,452.000000,434.000000,18.000000,50.000000,14.000000,0.000000:
0000
0000
0000
0000
,
0000
0000
0000
0000
,
0000
0000
0000
0000
,
0000
0000
0000
0000
,
0000
0000
0000
0000
,
0000
0000
0000
0000
,
0000
0000
0000
0000
,
0000
0000
0000
0000
,
0002
0000
0000
0000
,
0203
0000
0320
0000
0000
2030
0000
0000
,
3200
0000
0000
0320
0000
0000
0000
0000
,
0000
0000
0000
0000
0000
0000
0000
0000
0031
0000
0000
0000
1000
0000
0010
0000
1000
0000
0001
0000
0100
0000
0001
1000
0001
0000
0010
0000
0100
0000
1000
0000
,
0002
0000
0000
0000
,
0000
0003
0200
0000
0000
0320
0000
0000
,
2030
0000
0000
0002
0000
0000
0000
0000
,
3003
0000
0000
0000
,
1000
0100
0000
0100
1000
0001
0010
0000
0001
0100
0000
0100
0001
1000
0010
0000
,
0100
0000
0000
0000
0001
0000
0000
0000
0400
0000
0000
0000
000M
0000
0000
0300
0010
0000
0000
0000
0100
0000
1000
0000
0400
0000
0000
0000
M000
0000
0000
0300
,
0001
0100
0000
0100
0001
1000
0010
0000
1000
0100
0000
0100
1000
0001
0010
0000
,
0100
0000
0000
0000
0000
0000
0000
0000
0000
0000
0000
0000
0000
0000
0000
0000
0000
0000
0000
0000
0000
0000
0000
0000
1000
0000
0000
0000
0000
0000
0000
0000
0000
0000
0000
0000
0000
0000
0000
0000
0000
0000
0000
0000
0000
0000
0000
0000
0400
0000
0000
0000
0000
0000
0000
0000
0000
0000
0000
0000
0000
0000
0000
0000
0000
0000
0000
0000
0000
0000
0000
0000
M000
0000
0000
0000
0000
0000
0000
0000
0000
0000
0000
0000
0000
0000
0000
0000
0000
0000
0300
0000
0000
0000
0000
0000
0010
0000
0000
0000
0000
0000
0000
0000
0000
0000
0000
0000
0000
0000
0000
0000
0000
0000
0000
0000
0000
0000
0000
0000
1000
0000
0000
0000
0000
0000
0000
0000
0010
0000
0000
0000
0000
0000
0000
0000
0100
0000
0000
0000
0000
0000
0000
0000
0001
0000
0000
0000
0000
0000
0000
0000
0000
0000
0000
0000
1000
0000
0000
0000
0000
0000
0000
0000
0000
0000
0000
0000
0100
0000
0000
0000
0000
0000
0000
0000
0000
0000
0000
0000
0000
0000
0000
0000
0000
0000
0000
0000
0000
0000
0000
0000
,
1000
0010
0000
0010
1000
0001
0100
0000
0001
0010
0000
0010
0001
1000
0100
0000
,
0010
0000
0000
0000
0001
0000
0000
0000
0040
0000
0000
0000
000M
0000
0000
0030
0100
0000
0000
0000
0010
0000
1000
0000
0040
0000
0000
0000
M000
0000
0000
0030
,
0001
0010
0000
0010
0001
1000
0100
0000
1000
0010
0000
0010
1000
0001
0100
0000
,
0010
0000
0000
0000
1000
0000
0000
0000
0040
0000
0000
0000
M000
0000
0000
0030
0002
0000
0000
0000
0000
0000
0000
0000
0000
0000
0000
0000
0000
0000
0000
0000
,
2003
0010
0000
3001
0100
0010
1000
0000
0002
0010
0000
1003
0100
0010
0001
0000
,
1000
0000
0000
0000
0001
0000
0000
0000
0400
0000
0000
0000
00M0
0000
0000
0300
1000
0000
0000
0000
0001
0000
1000
0000
0400
0000
0000
0000
00M0
0000
0000
0300
,
0002
0010
0000
1003
0100
0010
0001
0000
2000
0010
0000
3001
0100
0010
1000
0000
,
0001
0000
0000
0000
0000
0000
0000
0000
0000
0000
0000
0000
0000
0000
0000
0000
0000
0000
0000
0000
0000
0000
0000
0000
1000
0000
0000
0000
0000
0000
0000
0000
0000
0000
0000
0000
0000
0000
0000
0000
0000
0000
0000
0000
0000
0000
0000
0000
0400
0000
0000
0000
0000
0000
0000
0000
0000
0000
0000
0000
0000
0000
0000
0000
0000
0000
0000
0000
0000
0000
0000
0000
00M0
0000
0000
0000
0000
0000
0000
0000
0000
0000
0000
0000
0000
0000
0000
0000
0000
0000
0300
0000
0000
0000
0000
0000
0001
0000
0000
0000
0000
0000
0000
0000
0000
0000
0000
0000
0000
0000
0000
0000
0000
0000
0000
0000
0000
0000
0000
0000
1000
0000
0000
0000
0000
0000
0000
0000
0100
0000
0000
0000
0000
0000
0000
0000
0010
0000
0000
0000
0000
0000
0000
0000
0001
0000
0000
0000
0000
0000
0000
0000
0000
0000
0000
0000
1000
0000
0000
0000
0000
0000
0000
0000
0000
0000
0000
0000
0010
0000
0000
0000
0000
0000
0000
0000
0000
0000
0000
0000
0000
0000
0000
0000
0000
0000
0000
0000
0000
0000
0000
0000
,
2000
0100
0000
3001
0010
0100
1000
0000
0002
0100
0000
1003
0010
0100
0001
0000
,
1000
0000
0000
0000
0001
0000
0000
0000
0040
0000
0000
0000
0M00
0000
0000
0030
1000
0000
0000
0000
0001
0000
1000
0000
0040
0000
0000
0000
0M00
0000
0000
0030
,
0002
0100
0000
1003
0010
0100
0001
0000
2000
0100
0000
3001
0010
0100
1000
0000
,
0001
0000
0000
0000
1000
0000
0000
0000
0040
0000
0000
0000
M000
0000
0000
0030
0002
0000
0000
0000
1000
0000
0000
0000
1000
0000
0000
0000
1003
0000
0000
0000
,
1200
0000
2300
0000
,
3020
0000
0130
0001
0010
0001
0000
1000
,
0020
0000
0230
0000
,
0302
0000
0000
0000
1003
0000
0100
0000
0010
0000
0001
0000
1001
0000
1000
0010
,
0200
0000
0302
0000
,
0023
0000
0130
1000
0010
1000
0001
0100
,
0102
0000
2003
0000
,
3020
0030
00M0
1002
,
0103
0000
0000
0001
0000
0000
1000
0000
0010
1000
0000
0000
0001
0000
0000
0100
0000
0000
0001
0000
0010
0000
0000
0000
,
0100
0000
0000
1000
0000
0000
0001
0000
0100
0000
0000
0000
0001
0000
0000
0010
0000
0100
0000
0000
0002
0000
0000
0000
,
0103
0000
0000
1000
0000
0000
0001
0000
0010
0001
0000
0000
1000
0000
0000
0100
0000
0000
1000
0000
0010
0000
0000
0000
,
0100
0000
0000
0001
0000
0000
1000
0000
0100
0000
0000
0000
1000
0000
0000
0010
0000
0100
0000
0000
0002
0000
0000
0000
,
0013
0000
0000
0100
0000
1000
0100
0000
0000
1000
0000
0001
1000
0000
0000
0001
0000
0100
0001
0000
0000
1000
0000
0010
,
1000
0000
0000
0001
0000
0010
0001
0000
0000
1000
0000
0100
1000
0000
0000
0010
0000
0100
0010
0000
0000
1000
0000
0001
,
0010
0100
1000
0001
0100
0001
0010
0001
1000
0010
0100
0001
1000
0001
0010
0100
,
2000
0000
0000
0000
0000
0000
0000
0000
0100
0000
3001
0000
1001
0000
0001
1000
,
0010
0M00
0010
0000
0001
0100
0010
0000
2000
0000
0000
3000
1001
0000
1001
0000
,
0001
0000
0010
0000
0100
1000
0100
1000
0001
0100
0010
0100
1000
0000
0000
0100
,
0001
0100
0100
1000
0001
0010
0001
1000
0020
0000
0000
0030
1010
0000
0001
0000
,
0011
0000
1000
0000
1200
0000
0001
0000
0010
0000
1300
0000
1001
0000
0000
0001
,
0100
0000
1000
0000
0200
0000
0000
0000
0310
0000
1000
0001
0010
0000
0100
0000
,
1100
0000
1000
0100
0001
0000
0100
0000
0010
0001
1000
0100
1000
0000
0000
0001
,
0200
0000
0000
0000
0310
0000
1000
0000
0001
0000
0100
0000
0101
0000
0000
0001
,
0100
0000
1000
0000
0100
0000
0010
0000
1000
0000
0001
0000
0020
0000
0000
0130
,
1000
0000
0001
0000
0200
0000
0000
0000
0310
0000
1000
0000
1001
0000
0001
0100
,
0010
0000
0100
1000
0100
0000
0001
0000
1000
0100
0010
0100
0001
0000
0000
0100
,
2000
0000
0000
0000
3100
0100
0001
0000
1000
0000
0010
0000
0110
0000
0100
0000
,
0001
0000
0010
0000
0200
0000
0001
0000
0010
0000
1300
0000
1100
0000
0000
0001
,
0100
0010
2000
0000
3100
0010
0011
1000
,
1010
0000
0001
0100
0010
0000
0001
0000
0010
0100
0001
1000
0001
0000
0010
0100
,
2000
0000
0000
0000
3001
0100
0001
0000
1000
0100
0010
0001
1000
0000
0001
0100
,
0001
0010
0200
0001
0010
1300
0002
0000
,
0000
0000
0003
0000
;

//---------------dance-single - DS(I) XO(I) JA(F) FS(F) SJ(F) MD(I)----------------
#NOTES:
     dance-single:
     :
     Hard:
     12:
     0.463112,0.530698,0.106962,0.296204,0.308545,394.000000,381.000000,13.000000,36.000000,16.000000,0.000000,0.463112,0.530698,0.106962,0.296204,0.308545,394.000000,381.000000,13.000000,36.000000,16.000000,0.000000:
// measure 0
0000
0000
0000
0000
,  // measure 1
0000
0000
0000
0000
,  // measure 2
0000
0000
0000
0000
,  // measure 3
0000
0000
0000
0000
,  // measure 4
0000
0000
0000
0000
,  // measure 5
0000
0000
0000
0000
,  // measure 6
0000
0000
0000
0000
,  // measure 7
0000
0000
0000
0000
,  // measure 8
0002
0000
0000
0000
,  // measure 9
0203
0000
0320
0000
0000
2030
0000
0000
,  // measure 10
3200
0000
0000
0320
0000
0000
0000
0000
,  // measure 11
0000
0000
0000
0000
0031
0000
1000
0010
1000
0000
0001
0100
0001
0000
1000
0000
,  // measure 12
0200
0000
0000
0000
,  // measure 13
0000
0000
0320
0000
0030
0002
0000
0000
,  // measure 14
0203
0000
0000
0020
0000
0000
0000
0000
,  // measure 15
0330
0000
0000
0000
,  // measure 16
1000
0001
0000
0001
0100
0000
0010
0000
1000
0001
0000
1000
0100
0000
0010
0000
,  // measure 17
0001
0000
1000
0000
0100
00M0
0100
0000
0001
0000
1000
0000
0100
00M0
0100
0000
,  // measure 18
0001
1000
0000
1000
0100
0000
0010
0000
0001
1000
0000
0001
0100
0000
0010
0000
,  // measure 19
1000
0000
0001
0000
0100
00M0
0100
0000
1000
0000
0001
0000
0100
00M0
0100
0000
,  // measure 20
1000
0001
0000
0001
0100
0000
0010
0000
1000
0001
0000
1000
0100
0000
0010
0000
,  // measure 21
0001
0000
1000
0000
0100
00M0
0100
0000
0001
0000
1000
0000
0100
00M0
0100
0000
,  // measure 22
0001
1000
0000
1000
0100
0000
0010
0000
0001
1000
0000
0001
0100
0000
0010
0000
,  // measure 23
1000
0000
0001
0000
0100
00M0
0100
0000
1000
0000
0001
0000
0100
00M0
0100
0000
,  // measure 24
1000
0010
0000
0010
0100
0000
0001
0000
1000
0010
0000
1000
0001
0000
0010
0000
,  // measure 25
0100
0000
1000
0000
0100
00M0
0100
0000
0001
0000
0010
0000
0100
M000
0100
0000
,  // measure 26
0001
0010
0000
0010
0100
0000
1000
0000
0001
0010
0000
0001
1000
0000
0010
0000
,  // measure 27
0100
0000
0001
0000
0100
00M0
0100
0000
1000
0000
0010
0000
0100
000M
0100
0000
,  // measure 28
1000
0010
0000
0010
0100
0000
0001
0000
1000
0010
0000
1000
0001
0000
0010
0000
,  // measure 29
0100
0000
1000
0000
0100
00M0
0100
0000
0001
0000
0010
0000
0100
M000
0100
0000
,  // measure 30
0001
0010
0000
0010
0100
0000
1000
0000
0001
0010
0000
0001
1000
0000
0010
0000
,  // measure 31
0100
0000
0001
0000
0100
00M0
0100
0000
1000
0000
0001
0000
1000
0000
1000
0000
,  // measure 32
1200
0000
2300
0000
,  // measure 33
3020
0000
0130
0001
0010
0001
0000
1000
,  // measure 34
0020
0000
0230
0000
,  // measure 35
0302
0000
0000
0000
1003
0000
0100
0000
0010
0000
0001
0000
0001
0000
1000
0010
,  // measure 36
0200
0000
0302
0000
,  // measure 37
0023
0000
0130
1000
0010
1000
0001
0100
,  // measure 38
0102
0000
2003
0000
,  // measure 39
3020
0030
00M0
1002
,  // measure 40
0103
0010
1000
1000
0100
0010
0001
0001
,  // measure 41
0100
0000
0000
0010
0000
0000
1000
0000
0001
0000
0000
0000
0100
0000
0000
0001
0000
1000
0000
0000
0200
0000
0000
0000
,  // measure 42
0310
0001
0100
0100
0010
1000
0100
0100
,  // measure 43
0010
0000
0000
0001
0000
0000
1000
0000
0010
0000
0000
0000
0100
0000
0000
0010
0000
1000
0000
0000
0002
0000
0000
0000
,  // measure 44
0013
0100
0010
0100
1000
0100
1000
0100
,  // measure 45
1000
0001
1000
0001
0100
0001
0100
0001
,  // measure 46
0100
0010
0100
0000
0001
0000
1000
0000
0100
0010
0100
0000
1000
0000
0001
0000
,  // measure 47
2001
0000
0000
0000
0000
0000
0000
0000
0100
0000
3001
0000
1001
0000
0000
1000
,  // measure 48
0100
0010
0001
0100
0002
0003
1001
1000
,  // measure 49
1100
0000
0100
0000
0010
0001
0000
0001
0010
0000
0100
0000
0001
0000
0000
0100
,  // measure 50
1000
0001
0100
0010
1000
0000
1001
0001
,  // measure 51
0100
0000
1000
0000
0100
0000
0010
0000
1000
0000
0001
0000
1001
0000
0000
0001
,  // measure 52
0100
0010
2000
0000
0100
3001
0101
0100
,  // measure 53
0010
0000
1000
0100
0000
0000
1000
0000
0001
0100
0001
0000
0010
0000
0000
0100
,  // measure 54
2000
0000
0000
0000
3001
0000
0100
0000
0010
0000
1000
0000
0001
0000
0000
1000
,  // measure 55
0100
0010
0100
0001
0100
1000
0002
0000
,  // measure 56
1003
0000
0010
0000
2000
0000
0000
0000
0001
0000
3001
0000
0010
0000
0100
1000
,  // measure 57
0100
0000
0010
0000
0001
0000
1000
0000
0010
0000
0100
0000
0001
0000
0000
1000
,  // measure 58
0100
1000
0000
0000
0001
0100
0001
0000
0010
0000
0100
0000
1000
0000
0001
0000
,  // measure 59
0010
0000
1000
0000
0010
0000
0100
0000
1000
0000
0001
0000
0200
0000
0300
0010
,  // measure 60
1000
0001
0020
0000
0130
1000
1100
0000
,  // measure 61
0101
0000
0001
0000
1001
0000
1000
0000
0100
0010
0001
0000
1000
0000
0000
0001
,  // measure 62
0200
0000
0310
1000
0100
1000
0001
0100
,  // measure 63
1000
0000
0001
0000
0010
0000
1000
0000
0001
0010
0001
0000
0200
0000
0000
0000
,  // measure 64
0000
0000
0300
0000
;
