#VERSION:0.83;
#TITLE:Pictionary;
#SUBTITLE:;
#ARTIST:Tim Follin;
#TITLETRANSLIT:;
#SUBTITLETRANSLIT:;
#ARTISTTRANSLIT:;
#GENRE:;
#ORIGIN:;
#CREDIT:;
#BANNER:Pictionary.png;
#BACKGROUND:Pictionary-bg.png;
#PREVIEWVID:;
#JACKET:Pictionary-jacket.png;
#CDIMAGE:;
#DISCIMAGE:;
#LYRICSPATH:;
#CDTITLE:;
#MUSIC:Pictionary.ogg;
#OFFSET:1.416466;
#SAMPLESTART:7.916754;
#SAMPLELENGTH:14.915079;
#SELECTABLE:YES;
#BPMS:0.000=128.729;
#STOPS:200.000=0.932;
#DELAYS:;
#WARPS:;
#TIMESIGNATURES:0.000=4=4;
#TICKCOUNTS:0.000=4;
#COMBOS:0.000=1;
#SPEEDS:0.000=1.000=0.000=0;
#SCROLLS:0.000=1.000;
#FAKES:;
#LABELS:0.000=Song Start;
#BGCHANGES:;
#KEYSOUNDS:;
#ATTACKS:
;

//---------------dance-single - ----------------
#NOTEDATA:;
#CHARTNAME:;
#STEPSTYPE:dance-single;
#DESCRIPTION:;
#CHARTSTYLE:;
#DIFFICULTY:Challenge;
#METER:15;
#RADARVALUES:0.951715,0.878162,0.169463,0.116506,1.445729,629.000000,613.000000,16.000000,11.000000,0.000000,0.000000,0.000000,0.000000,0.000000,0.951715,0.878162,0.169463,0.116506,1.445729,629.000000,613.000000,16.000000,11.000000,0.000000,0.000000,0.000000,0.000000,0.000000;
#CREDIT:Daniel Van Eden;
#NOTES:
0000
0000
0000
0000
,
0000
0000
0000
0000
,
0000
0000
0000
0000
,
0001
0001
0001
0001
,
0001
0000
0000
0000
0001
0000
0000
0000
0001
0000
0000
0000
0001
0000
0000
0010
,
0001
0000
1000
0001
1000
0010
0100
0001
1000
0100
0010
0100
0000
0100
0000
1000
,
0010
0000
1000
0001
1000
0100
0010
0001
1000
0010
0100
0010
1000
0000
1000
0001
,
1000
0000
0001
1000
0001
0010
0100
1000
0001
0100
0010
0100
0000
0100
0000
0001
,
0010
0000
0001
1000
0001
0100
0010
1000
0001
0010
0100
0010
0001
0000
0010
0100
,
1000
1000
0010
1000
0001
1000
0100
0010
0001
0000
1000
0010
0000
1000
0100
0010
,
0001
0001
0100
0001
1000
0001
0100
0010
1000
0001
0010
0100
0010
0000
0010
0001
,
1000
1000
0001
0010
0100
0010
0001
1000
0010
0000
0100
0001
0000
1000
0100
0010
,
0001
0001
0010
0001
1000
0001
0010
0100
1000
0010
0100
0001
1000
0000
0100
0010
,
0100
1000
0001
0100
0001
1000
0100
1000
0001
1000
0010
1000
0001
0100
0010
1000
,
0001
0010
0001
1000
0010
1000
0001
0100
0001
0010
0100
1000
0001
0010
0100
0000
,
0010
0001
1000
0010
1000
0001
0010
0001
0100
0001
1000
0001
0010
0100
1000
0001
,
0100
0001
0100
0001
1000
0010
1000
0010
1000
0001
1000
0001
0010
0100
1000
0001
,
1000
0000
0100
0000
0001
0000
0100
0000
1000
0000
0100
1000
0001
0000
0100
0001
,
1000
0100
0010
0100
0001
0100
0010
0100
1000
0001
0010
0001
0100
0010
1000
0100
,
0010
0000
0100
0100
1000
0100
0100
1000
0100
1000
0100
0020
0000
0000
0031
1000
,
0001
0000
0100
0001
0000
0001
0100
0100
0002
0000
2003
0000
3010
0000
0010
1000
,
0001
0000
0010
0010
0001
0010
0010
0001
0010
0001
0010
0200
0000
0000
1300
0001
,
1000
0000
0010
1000
0000
1000
0010
0010
2000
0000
3002
0000
0013
0000
0010
0100
,
0010
0000
0001
0001
1000
0010
0010
1000
0001
1000
0100
0002
0000
0000
0103
1000
,
0100
0000
1000
0001
0000
0001
1000
1000
0020
0000
0032
0000
0013
0000
0010
1000
,
0100
0000
1000
1000
0001
0010
0010
0001
1000
0001
0100
2000
0000
0000
3100
0001
,
0100
0000
0001
0010
0000
0010
0100
0100
1000
0000
0001
0000
1001
0000
1000
0100
,
0020
0000
0000
0000
0001
0000
0000
0000
0130
1000
0001
0100
0010
1000
0001
1000
,
0100
0010
0100
0001
0000
0100
0010
0000
0100
1000
0000
0001
0100
0000
0100
0010
,
1000
0001
0100
0001
0000
0000
0010
0000
0001
1000
0010
0100
0010
1000
0001
1000
,
0100
0100
0010
0001
0001
1000
0010
0010
1000
0001
0001
0010
0100
0000
1000
0001
,
0100
0000
0000
0000
0010
1000
0010
0100
0010
0100
0001
0100
0001
0010
0100
0010
,
0100
1000
0001
1000
0100
0010
0001
1000
0010
1000
0001
0100
0001
0100
0010
0100
,
0001
0001
1000
0010
1000
1000
0001
0010
0001
0001
1000
0100
0010
0010
0001
1000
,
0100
0100
1000
0001
0100
0100
0010
1000
0001
0010
0100
0000
1000
0000
0001
1000
,
0001
0001
1000
0010
0100
0100
0001
0010
0100
0100
1000
0001
0010
0010
0001
1000
,
0010
0001
0010
1000
0100
0001
0100
1000
0001
0000
0011
0000
1010
0000
1000
0001
,
1000
1000
0100
0010
0001
0001
1000
0010
0100
0100
0001
1000
0010
0010
1000
0001
,
0100
0001
0010
0100
0001
0100
1000
0100
0010
1000
0010
0001
1000
0000
1000
0001
,
0100
0000
0001
0010
0001
1000
0100
1000
0010
0001
0010
1000
0001
0000
0010
0001
,
1000
0000
0010
1000
0000
1000
0010
0001
0010
0000
0110
0000
0101
0000
0001
1000
,
0100
0000
1000
0010
1000
0001
0100
0001
0010
1000
0010
0001
1000
0000
0010
1000
,
0001
0000
0010
0001
0000
0001
0010
1000
0010
0000
0110
0000
1100
0000
1000
0100
,
0010
0000
0001
0010
0100
0001
0100
1000
0001
0100
1000
0100
0010
0000
1000
0010
,
0100
0000
0001
0010
0000
0010
0100
1000
0001
0000
0011
0000
1100
0000
0100
1000
,
0010
0000
1000
0010
0100
1000
0100
0001
1000
0100
0001
0100
0010
0000
0001
0010
,
0100
0000
1000
0010
0000
0010
0100
0001
1000
0000
1010
0000
0101
0000
0100
0010
,
1000
0100
1000
0100
0000
0100
0010
0001
0010
0001
0000
0001
1000
0000
1001
0000
,
0001
0100
0001
0100
0000
0100
0010
0100
0010
1000
0000
1000
0001
0000
1001
0000
,
1000
0010
0100
0001
0000
0001
0010
0001
1000
0100
0000
0100
0010
0000
0110
0000
,
1001
1001
0000
0000
;

//---------------dance-single - ----------------
#NOTEDATA:;
#CHARTNAME:;
#STEPSTYPE:dance-single;
#DESCRIPTION:;
#CHARTSTYLE:;
#DIFFICULTY:Hard;
#METER:13;
#RADARVALUES:0.632459,0.665274,0.137689,0.105914,0.497797,418.000000,405.000000,13.000000,10.000000,0.000000,0.000000,0.000000,0.000000,0.000000,0.632459,0.665274,0.137689,0.105914,0.497797,418.000000,405.000000,13.000000,10.000000,0.000000,0.000000,0.000000,0.000000,0.000000;
#CREDIT:Daniel Van Eden;
#NOTES:
0000
0000
0000
0000
,
0000
0000
0000
0000
,
0000
0000
0000
0000
,
0000
0000
0000
0000
,
0000
0000
0000
0000
0000
0000
0000
0000
0000
0000
0000
0000
0000
0000
0000
0001
,
1000
0000
0010
0000
0100
0000
0010
0000
1000
0000
0001
0010
0000
0010
0000
0001
,
1000
0000
0100
0000
0010
0000
0100
0000
1000
0000
0001
0100
0000
0100
0001
1000
,
0001
0000
0010
0000
0100
0000
0010
0000
0001
0000
1000
0010
0000
0010
0000
1000
,
0001
0000
0100
0000
0010
0000
0100
0000
0001
0000
1000
0100
0000
0100
1000
0001
,
1000
0000
0010
0000
0001
0000
0010
0000
1000
0000
0001
0100
0000
0001
1000
0000
,
0001
0000
0010
0000
1000
0000
0010
0000
0001
0010
0100
1000
0001
0000
1000
0000
,
0001
0000
0100
0000
1000
0000
0100
0000
0001
0000
1000
0010
0000
1000
0001
0000
,
1000
0000
0100
0000
0001
0000
0100
0000
1000
0100
0010
0001
1000
0000
0001
0000
,
0101
0000
0000
0010
0000
0000
1100
0000
0100
0000
0010
0000
0001
0000
1000
0000
,
1010
0000
0000
0100
0000
0000
0011
0000
0001
0000
0010
0000
0100
0000
1000
0000
,
1100
0000
0000
0010
0000
0000
0101
0000
0100
0000
0010
0000
1000
0000
0001
0000
,
2000
0000
3100
0000
0200
0000
0310
0000
0020
0000
0031
0000
0001
0010
0100
1000
,
0001
1000
0010
1000
0001
0010
0100
0010
,
0001
1000
0001
0000
1000
0001
1000
0000
0010
0000
0100
0000
0001
0000
0010
0000
,
0100
0000
0100
0000
0010
0000
0100
0000
0100
0000
1000
0100
0000
0000
0010
0000
,
0001
0000
1000
0001
0000
0001
1000
0000
0100
0000
0001
0000
0100
0000
1000
0000
,
0010
0000
0010
0000
0100
0000
0010
0000
0010
0000
1000
0010
0000
0000
0100
0000
,
0001
0000
1000
0001
0000
0001
1000
0000
0010
0000
0001
0000
0010
0000
0010
0000
,
1000
0000
0010
0100
0010
0000
1000
0000
0001
0000
0010
0001
0000
0000
1000
0000
,
0001
0000
0100
0001
0000
1000
0100
0000
0001
0000
0100
0000
1000
0000
1000
0000
,
0001
0000
0010
0100
0010
0000
0001
0000
1000
0000
0010
1000
0000
0000
0001
0000
,
1000
0000
0100
1000
0000
0001
0100
0000
0010
0000
1000
0000
1001
0000
0001
1000
,
0002
0000
0010
0000
1003
0010
0100
0001
,
1000
0000
1000
0010
0000
1000
0001
0000
1000
0100
0000
1000
0001
0000
0010
0000
,
0001
0000
0100
0001
0000
0000
1000
0000
0001
0000
0010
0100
0000
0000
1000
0000
,
0001
0000
0001
0100
0000
0001
1000
0000
0001
0010
0000
0001
1000
0000
0010
0000
,
0100
0000
0000
0000
0001
0100
0001
0000
1000
0000
0010
0000
1000
0100
1000
0000
,
0001
0010
1000
0010
0001
0100
1000
0100
,
0001
0100
0001
0000
0010
0001
0010
0000
0001
0100
0001
0000
0100
0010
0100
0000
,
0010
1000
0010
0000
1000
0100
1000
0000
0001
0010
0001
0000
0010
0000
0100
0000
,
1000
0100
1000
0000
0010
1000
0010
0000
1000
0100
1000
0000
0100
0010
0100
0000
,
0010
0001
0010
0000
0001
1000
0001
1000
0001
0000
0010
0000
1000
0000
0010
0000
,
0001
0000
0010
0001
1000
0000
0010
1000
0001
0000
1000
0000
0100
0000
1000
0000
,
0001
0000
0100
0001
1000
0000
0100
1000
0001
0000
0010
0000
0001
0000
1000
0000
,
0010
0000
0010
0000
1000
0000
0001
0000
0010
0000
0100
0010
0000
0000
0001
0000
,
1000
0000
0001
1000
0000
1000
0001
0000
0010
0000
1000
0000
0010
0000
0001
0000
,
0100
0000
0100
0000
0001
0000
1000
0000
0100
0000
0010
0100
0000
0000
1000
0000
,
0001
0000
1000
0001
0000
0001
1000
0000
0010
0000
0001
0000
0010
0000
1000
0000
,
0001
0000
0010
0100
0010
0000
0001
0000
1000
0000
0100
1000
0000
0000
0010
0000
,
1000
0000
0001
0100
0000
0100
0001
0000
0010
0000
1000
0000
0010
0000
0001
0000
,
1000
0000
0010
0100
0010
0000
1000
0000
0001
0000
0010
0001
0000
0000
0100
0000
,
0001
0000
1000
0010
0000
0010
1000
0000
0001
0000
0010
0000
0100
0000
0100
0010
,
0002
0000
0000
0103
0000
0000
2000
0000
0000
3010
0000
0000
1001
0000
1001
0000
,
2000
0000
0000
3010
0000
0000
0002
0000
0000
0103
0000
0000
1001
0000
1001
0000
,
0002
0000
0000
0013
0000
0000
0020
0000
0000
0130
0000
0000
0100
0000
1000
0000
,
1001
1001
0000
0000
;

//---------------dance-single - ----------------
#NOTEDATA:;
#CHARTNAME:;
#STEPSTYPE:dance-single;
#DESCRIPTION:;
#CHARTSTYLE:;
#DIFFICULTY:Medium;
#METER:10;
#RADARVALUES:0.437275,0.452386,0.021183,0.031774,0.142984,289.000000,287.000000,2.000000,3.000000,0.000000,0.000000,0.000000,0.000000,0.000000,0.437275,0.452386,0.021183,0.031774,0.142984,289.000000,287.000000,2.000000,3.000000,0.000000,0.000000,0.000000,0.000000,0.000000;
#CREDIT:Daniel Van Eden;
#NOTES:
0000
0000
0000
0000
,
0000
0000
0000
0000
,
0000
0000
0000
0000
,
0000
0000
0000
0000
,
0000
0000
0000
0000
,
1000
0000
0001
0010
0001
1000
0100
0000
,
1000
0000
0001
0100
0001
1000
0010
1000
,
0001
0000
1000
0010
1000
0001
0100
0000
,
0001
0000
1000
0100
1000
0001
0010
0010
,
0100
0000
0010
0000
0100
0000
0000
0000
1000
0000
0000
1000
0000
0000
0001
0000
,
0100
0010
0100
0000
0001
0100
0010
1000
,
0001
0000
0010
0000
0100
0000
0010
0000
0001
0000
0000
0001
0000
0000
1000
0000
,
0010
0100
0010
0000
1000
0010
0100
0001
,
1000
0000
0000
1000
0000
0000
0001
0000
0000
0000
0001
0000
1000
0000
0100
0000
,
0010
0000
0000
0010
0000
0000
0100
0000
0000
0000
0100
0000
1000
0000
0000
0000
,
0010
0000
0000
0010
0000
0000
0100
0000
0000
0000
0100
0000
0001
0000
1000
0000
,
0002
0000
0023
0000
0230
0000
1300
0100
,
0010
0001
1000
0010
,
1000
0010
1000
0000
0001
0100
0001
0000
,
1000
0000
0000
0000
1000
0000
0000
0000
0001
0000
0000
0001
0000
0000
1000
0000
,
0100
0000
0000
0100
0000
0000
1000
0000
0001
0000
0010
0000
0001
0000
0000
0000
,
1000
0000
0000
0000
0001
0000
0000
0000
1000
0000
0000
1000
0000
0000
0001
0000
,
0100
0000
0000
0100
0000
0000
0001
0000
1000
0000
0010
0000
1000
0000
0000
0000
,
0001
0000
1000
0000
0001
0000
0000
0000
0010
0000
0000
0010
0000
0000
0100
0000
,
0010
0000
0000
0010
0000
0000
0001
0000
1000
0000
0001
0000
1000
0000
0000
0000
,
0010
0000
0100
0000
0010
0000
0000
0000
1000
0000
0000
1000
0000
0000
0001
0000
,
1000
0000
0000
1000
0000
0000
0001
0000
0010
0000
0100
0000
0010
0000
0000
0000
,
1001
0000
0001
0000
1000
0010
0100
0001
,
1000
0000
0100
0010
0000
0100
0001
0100
,
1000
0010
1000
0000
0001
0100
0001
0000
,
1000
0000
0010
0100
0000
0010
0001
0010
,
1000
0000
0001
0010
0100
0010
0100
1000
,
0001
0100
0010
1000
0001
1000
0100
0010
,
0001
1000
0010
1000
0001
1000
0100
1000
,
0001
0100
0010
1000
0001
0010
0100
0100
,
1000
0100
1000
0001
1000
0010
1000
0001
,
1000
0100
0010
0001
1000
0010
1000
0001
,
0100
0010
0100
0001
0100
0010
0100
0001
,
0010
0100
0010
0001
0010
0100
1000
1000
,
0001
0000
1000
0000
0001
0000
0000
0000
0010
0000
0000
0010
0000
0000
0001
0000
,
0100
0000
0000
0100
0000
0000
0001
0000
1000
0000
0001
0000
1000
0000
0000
0000
,
1000
0000
0001
0000
1000
0000
0000
0000
0100
0000
0000
0100
0000
0000
1000
0000
,
0010
0000
0000
0010
0000
0000
1000
0000
0001
0000
1000
0000
0001
0000
0000
0000
,
0010
0000
0100
0000
1000
0000
0000
0000
0010
0000
0000
0010
0000
0000
0100
0000
,
0010
0000
0000
0010
0000
0000
1000
0000
0100
0000
0010
0000
0001
0000
1000
0000
,
0001
0000
0010
0000
0100
0000
0000
0000
0010
0000
0000
0010
0000
0000
0100
0000
,
1000
0000
0000
1000
0000
0000
0100
0000
0010
0000
0001
0000
1000
0000
0000
0000
,
0001
0000
0000
0010
0000
0000
0100
0000
0000
1000
0000
0000
0001
0000
0001
0000
,
1000
0000
0000
0010
0000
0000
0100
0000
0000
0001
0000
0000
1000
0000
1000
0000
,
0001
0000
0000
0010
0000
0000
0100
0000
0000
1000
0000
0000
0001
0000
1000
0000
,
0001
1001
0000
0000
;

//---------------dance-single - ----------------
#NOTEDATA:;
#CHARTNAME:;
#STEPSTYPE:dance-single;
#DESCRIPTION:;
#CHARTSTYLE:;
#DIFFICULTY:Easy;
#METER:7;
#RADARVALUES:0.290508,0.319331,0.031774,0.010591,0.031774,192.000000,189.000000,3.000000,1.000000,0.000000,0.000000,0.000000,0.000000,0.000000,0.290508,0.319331,0.031774,0.010591,0.031774,192.000000,189.000000,3.000000,1.000000,0.000000,0.000000,0.000000,0.000000,0.000000;
#CREDIT:Daniel Van Eden;
#NOTES:
0000
0000
0000
0000
,
0000
0000
0000
0000
,
0000
0000
0000
0000
,
0000
0000
0000
0000
,
0000
0000
0000
0000
,
1001
0001
0010
0010
,
0001
1000
0100
0010
,
0001
1000
0010
0010
,
1000
0001
0010
0100
,
1000
1000
0001
1000
,
0010
0000
0010
0000
1000
0001
1000
0000
,
0001
0010
0001
0001
,
1000
0000
0100
0000
1000
0001
1000
0000
,
0001
0000
0000
0001
0000
0000
0001
0000
0000
0000
0000
0000
0000
0000
0000
0000
,
1000
0000
0000
1000
0000
0000
1000
0000
0000
0000
0000
0000
0000
0000
0000
0000
,
0001
0000
0000
0001
0000
0000
0001
0000
0000
0000
0000
0000
0000
0000
0000
0000
,
1000
0100
0010
0001
,
1001
0000
0000
0000
,
0001
0000
0100
0000
,
0010
0000
0010
1000
,
0010
0000
0010
0000
1000
0001
1000
0000
,
0100
0000
0100
0100
,
1000
0000
0010
0000
1000
0001
1000
0000
,
0001
0010
0001
1000
,
0001
0000
0100
0000
0001
1000
0001
0000
,
1000
0010
1000
0001
,
1000
0000
0100
0000
1000
0001
1000
0000
,
0020
0000
0130
0001
,
1000
0100
0010
0001
,
1000
0010
0100
0001
,
1000
0000
0100
0000
0010
0000
0001
1000
,
0001
0010
0100
1000
,
0010
1000
0010
0000
1000
0000
1000
0000
,
0001
0010
0001
0000
1000
0000
0001
0000
,
1000
0100
1000
0000
0001
0000
0001
0000
,
0100
0001
0100
0000
0001
0000
0001
0000
,
1000
0001
1000
0000
0100
0010
0100
0000
,
0010
0100
0100
0010
,
0010
0001
0001
1000
,
0001
1000
0100
0010
,
0100
0000
0100
0000
1000
0001
1000
0000
,
0001
0100
0010
0100
,
0001
0000
0001
0000
0010
0100
0010
0000
,
0001
0001
1000
1000
,
0010
0000
1000
0000
0001
1000
0001
0000
,
0010
0010
0100
0100
,
1000
0000
0001
0000
0100
0010
0100
0000
,
0001
0000
0000
0001
0000
0000
0001
0000
0000
0000
0000
0000
0001
0000
0000
0000
,
1000
0000
0000
1000
0000
0000
1000
0000
0000
0000
0000
0000
1000
0000
0000
0000
,
0100
0000
0000
0100
0000
0000
0100
0000
0000
0000
0000
0000
0010
0000
0100
0000
,
0010
1001
0000
0000
;

//---------------dance-single - ----------------
#NOTEDATA:;
#CHARTNAME:;
#STEPSTYPE:dance-single;
#DESCRIPTION:;
#CHARTSTYLE:;
#DIFFICULTY:Beginner;
#METER:1;
#RADARVALUES:0.163411,0.212888,0.084731,0.000000,0.000000,108.000000,100.000000,8.000000,0.000000,0.000000,0.000000,0.000000,0.000000,0.000000,0.163411,0.212888,0.084731,0.000000,0.000000,108.000000,100.000000,8.000000,0.000000,0.000000,0.000000,0.000000,0.000000,0.000000;
#CREDIT:Daniel Van Eden;
#NOTES:
// measure 0
0000
0000
0000
0000
,  // measure 1
0000
0000
0000
0000
,  // measure 2
0000
0000
0000
0000
,  // measure 3
0000
0000
0000
0000
,  // measure 4
0000
0000
0000
0000
,  // measure 5
1000
0000
0001
0000
,  // measure 6
0100
0000
0001
0000
,  // measure 7
0010
0000
0100
0000
,  // measure 8
1000
0000
0010
0000
,  // measure 9
1001
0000
1000
0000
,  // measure 10
0001
0000
0010
0000
,  // measure 11
0110
0000
0100
0000
,  // measure 12
1000
0000
0001
0000
,  // measure 13
1000
0000
0100
0100
,  // measure 14
0100
0000
0010
0000
,  // measure 15
0001
0000
0100
0100
,  // measure 16
0100
0000
0001
0000
,  // measure 17
1001
0000
0000
0000
,  // measure 18
1000
0000
0001
0000
,  // measure 19
0001
0000
0000
0000
,  // measure 20
0010
0000
0010
0010
,  // measure 21
0010
0000
0000
0000
,  // measure 22
0100
0000
0100
0100
,  // measure 23
0100
0000
0100
0000
,  // measure 24
1000
0000
0001
0001
,  // measure 25
0001
0000
1000
0000
,  // measure 26
0010
0000
0100
0100
,  // measure 27
0100
0000
0001
0000
,  // measure 28
0010
0000
0100
0000
,  // measure 29
0010
0000
0001
0000
,  // measure 30
1000
0000
0010
0000
,  // measure 31
1000
0000
0001
0000
,  // measure 32
0010
0000
0100
0000
,  // measure 33
1000
0000
0001
0000
,  // measure 34
0100
0000
0010
0000
,  // measure 35
0100
0100
0100
0000
,  // measure 36
0010
0010
0010
0000
,  // measure 37
1000
1000
1000
0000
,  // measure 38
0001
0001
0001
0000
,  // measure 39
1001
0000
0001
0000
,  // measure 40
0010
0000
0001
0001
,  // measure 41
0001
0000
1000
0000
,  // measure 42
0100
0000
1000
1000
,  // measure 43
1000
0000
0010
0000
,  // measure 44
1000
0000
0001
0001
,  // measure 45
0001
0000
0010
0000
,  // measure 46
0001
0000
1000
1000
,  // measure 47
1001
0000
0000
0000
,  // measure 48
0110
0000
0000
0000
,  // measure 49
1001
0000
0000
0000
,  // measure 50
1000
1001
0000
0000
;
