#TITLE:Pickaxe Prince;
#SUBTITLE:;
#ARTIST:ShinkoNet ft. Aviary;
#TITLETRANSLIT:;
#SUBTITLETRANSLIT:;
#ARTISTTRANSLIT:;
#GENRE:UNDERGROUND EUROBEAT;
#CREDIT:;
#BANNER:Pickaxe Prince.png;
#BACKGROUND:Pickaxe Prince-bg.png;
#LYRICSPATH:;
#CDTITLE:;
#MUSIC:Pickaxe Prince.ogg;
#OFFSET:-0.004723;
#SAMPLESTART:45.702164;
#SAMPLELENGTH:15.440000;
#SELECTABLE:YES;
#BPMS:0.000000=168.000183
;
#STOPS:
;
#BGCHANGES:;
#KEYSOUNDS:;
#ATTACKS:;

//---------------dance-single - ----------------
#NOTES:
     dance-single:
     :
     Hard:
     15:
     0.783293,0.813708,0.306234,0.605177,0.390084,752.000000,710.000000,42.000000,83.000000,31.000000,0.000000,0.783293,0.813708,0.306234,0.605177,0.390084,752.000000,710.000000,42.000000,83.000000,31.000000,0.000000:
// measure 0
0000
0000
0000
0000
,  // measure 1
0000
0000
0000
0000
,  // measure 2
0000
0000
0000
0000
,  // measure 3
0000
0000
0000
0000
,  // measure 4
0000
0000
0000
0000
,  // measure 5
0000
0000
0000
0000
,  // measure 6
0000
0002
0203
2300
3200
0302
2003
3001
,  // measure 7
2000
0000
3010
0000
0200
0000
0301
0000
2000
0000
3100
0000
0010
0001
0010
0001
,  // measure 8
1000
0000
0001
0100
0010
0000
1000
0000
0001
0000
1000
0100
0010
0000
0001
0000
,  // measure 9
1000
0000
0010
0100
0001
0000
0100
0010
1000
0000
0100
0000
0001
0000
0100
0000
,  // measure 10
1000
0000
0010
0100
0001
0000
1000
0000
0001
0000
0010
0100
1000
0000
0001
0000
,  // measure 11
2000
0000
3010
0100
0001
0000
0100
0010
1000
0000
0100
0000
0002
0000
0203
0000
,  // measure 12
1300
0000
0001
0100
0010
0000
1000
0000
0100
0000
0010
0001
1000
0000
0001
0000
,  // measure 13
1000
0000
0010
0100
0001
0000
1000
0001
0100
0000
1000
0000
0001
0000
0010
0000
,  // measure 14
1000
0000
0001
0010
0100
0000
1000
0000
0001
0000
0100
0001
1000
0000
0010
0000
,  // measure 15
2000
0100
3001
1000
0002
0100
1003
0001
,  // measure 16
2000
0010
3010
0000
1000
0100
0010
0001
,  // measure 17
0200
0001
0301
0100
0001
0010
0100
1000
,  // measure 18
0002
1000
1003
0001
0100
1000
0100
0010
,  // measure 19
2010
3100
1002
0103
,  // measure 20
0012
0010
0013
0000
0001
0100
0010
1000
,  // measure 21
0200
1000
1300
0100
1000
0001
0100
0010
,  // measure 22
0200
0001
0301
0010
1000
0001
0100
1000
,  // measure 23
1010
MMMM
0101
MMMM
1010
1000
1001
0001
,  // measure 24
0011
0001
0000
0100
0001
1000
0000
0100
,  // measure 25
1000
0000
0010
0100
0000
0010
0001
0000
0010
0000
0100
0000
0001
0000
0000
0000
,  // measure 26
1000
0000
0100
0000
M000
0000
0100
0000
0001
0000
1000
0010
0000
1000
0001
0000
,  // measure 27
0011
0000
0001
1000
0000
0010
1000
0000
1010
0000
1000
0000
0001
0000
0000
0000
,  // measure 28
1100
1000
0000
0010
1000
0001
0000
0010
,  // measure 29
0001
0000
0100
0010
0000
0100
1000
0000
0100
0000
0010
0000
1000
0000
0000
0000
,  // measure 30
0001
0000
0010
0000
000M
0000
0010
0000
1000
0000
0001
0100
0010
0000
0100
0000
,  // measure 31
0001
0000
0010
0100
0000
0010
0100
0000
2000
0000
0000
0000
3001
0100
0001
0100
,  // measure 32
0020
0000
0100
0230
0000
0301
0102
0000
,  // measure 33
0023
0000
0100
0230
0000
1300
2100
0000
,  // measure 34
3020
0000
0100
0230
0000
0310
1001
0000
,  // measure 35
1010
0010
0110
0100
0101
0001
1001
1000
,  // measure 36
1100
0000
0100
0000
1000
0000
0001
0000
0100
0001
1000
0001
0020
0000
0030
0000
,  // measure 37
0011
0000
0010
0000
0001
0000
1000
0000
0010
1000
0001
1000
0200
0000
0300
0000
,  // measure 38
1001
0000
1000
0000
0010
0000
0100
0000
0001
1000
0001
0010
0100
0000
1000
0001
,  // measure 39
0200
0000
0000
0000
0310
1000
0010
1000
0002
0000
0023
0000
0230
0000
2300
0000
,  // measure 40
3001
0000
1000
0010
1000
0100
M000
0100
,  // measure 41
0001
0010
0001
2000
0000
3001
1000
1001
,  // measure 42
0000
0001
0001
0100
0100
0010
0010
1000
,  // measure 43
1010
0010
0100
0001
1000
0100
1100
1000
,  // measure 44
1001
0000
0001
0010
0001
0100
000M
0100
,  // measure 45
1000
0010
1000
0002
0000
1003
0001
1001
,  // measure 46
0000
1000
1000
0100
0100
0010
0010
0001
,  // measure 47
0011
0000
0010
0000
0100
0000
1000
0001
1000
0000
0001
0100
0001
0100
0010
1000
,  // measure 48
0001
0000
1000
0100
0001
MM00
0000
0010
,  // measure 49
0001
0100
1000
0M0M
0000
0010
1000
0001
,  // measure 50
0000
1000
0100
0001
0100
1000
0010
0100
,  // measure 51
0101
0001
1000
0001
0010
0100
1100
1000
,  // measure 52
1001
0000
0001
0100
1000
0M0M
0000
0010
,  // measure 53
1000
0100
0001
MM00
0000
0010
0001
1000
,  // measure 54
0000
0001
0100
1000
0100
0001
0010
0100
,  // measure 55
1100
0000
1000
0000
1010
0000
0010
0000
0110
0000
0100
0000
0001
0100
0010
1000
,  // measure 56
0001
0000
0010
0001
0100
0000
010M
0000
1000
0000
0010
0100
0001
0000
1000
0000
,  // measure 57
0001
0000
0010
0001
0100
0000
010M
1000
0010
0000
1000
0000
0001
0000
0100
0000
,  // measure 58
0001
0000
0100
0001
0010
0000
001M
0000
1000
0000
0100
0010
0001
0000
1000
0000
,  // measure 59
0002
0000
0103
0001
0010
0000
001M
1000
0100
0000
1000
0000
0002
0000
0023
0000
,  // measure 60
0031
0000
0100
1000
0100
0000
0010
0000
1000
0000
0001
1000
0100
0000
1000
0000
,  // measure 61
0001
0000
0010
1000
0010
0000
0001
1000
0100
0000
0010
0000
0001
0000
1000
0000
,  // measure 62
0001
0000
0010
1000
0010
0000
0100
0000
1000
0000
0001
1000
0010
0000
1000
0000
,  // measure 63
0002
0100
1003
0001
2000
0010
3001
1000
,  // measure 64
0001
0000
0000
1000
0100
1000
0200
0000
0000
0000
0000
0000
0310
0000
0000
0000
,  // measure 65
0001
0000
0000
0100
0010
0100
0020
0000
0000
0000
1000
0000
1030
0000
0000
1000
,  // measure 66
0001
0000
0100
0001
0100
0001
0200
0000
0000
0000
0000
0000
0310
0000
0000
0000
,  // measure 67
1020
0230
2300
3002
0023
0230
0302
1003
,  // measure 68
1100
0000
0100
0000
1000
0000
0001
0000
1000
0010
1000
0001
2000
0000
0000
0000
,  // measure 69
3001
0000
0100
0000
0001
0000
1000
0000
0001
0010
0001
1000
0002
0000
0000
0000
,  // measure 70
1003
0000
0010
0000
0001
0000
0010
0000
0100
0001
1000
0001
0020
0000
0030
0000
,  // measure 71
0021
2030
3002
0203
0320
0032
2003
3001
,  // measure 72
1000
0000
0100
M000
0100
0000
0001
0000
1000
0010
0100
0001
2000
0000
0000
0000
,  // measure 73
3001
0000
0100
000M
0100
0000
1000
0000
0001
0010
0100
1000
0002
0000
0000
0000
,  // measure 74
1003
0000
0010
M000
0010
0000
0001
0000
1000
0100
0010
0001
2000
0000
3001
1000
,  // measure 75
0002
0000
0103
0000
0010
1000
0001
0100
0020
0000
0230
0000
0302
0000
2003
0000
,  // measure 76
3001
0000
0000
0000
1000
0000
0010
0000
0001
00M0
0002
0000
0000
0000
1003
0000
,  // measure 77
0001
0000
0100
0000
1000
0M00
2000
0000
0000
0000
3001
0000
0100
0000
0010
0000
,  // measure 78
0000
1000
0100
0001
1000
0010
0100
1000
,  // measure 79
1100
1000
0001
0100
0001
1000
1010
1000
,  // measure 80
1001
0000
0000
0000
0001
0000
0100
0000
1000
0M00
2000
0000
0000
0000
3001
0000
,  // measure 81
1000
0000
0010
0000
0001
00M0
0002
0000
0000
0000
1003
0000
0010
0000
0100
0000
,  // measure 82
0000
0001
0010
1000
0001
0100
0010
0001
,  // measure 83
0011
0000
0001
0000
0101
0000
0100
0000
0110
0000
0010
0000
1000
0010
0100
0001
,  // measure 84
1000
0000
0001
0100
0010
0000
0100
0000
0001
0000
1000
0100
0001
0000
0100
0000
,  // measure 85
0010
0000
0001
0100
0010
0000
0100
0001
1000
0000
0010
0000
0001
0000
0010
0000
,  // measure 86
1000
0000
0001
0010
0100
0000
0010
0000
0001
0000
1000
0010
0001
0000
0010
0000
,  // measure 87
0200
0000
0301
0010
0100
0000
0010
0001
1000
0000
0100
0000
0002
0000
0203
0000
,  // measure 88
1300
0000
0010
0100
1000
0000
0100
0000
0001
0000
1000
0100
0010
0000
1000
0000
,  // measure 89
0010
0000
0001
0100
0010
0000
0001
0010
1000
0000
0010
0000
0100
0000
0001
0000
,  // measure 90
1000
0000
0100
0010
1000
0000
0010
0000
0001
0000
1000
0010
0100
0000
1000
0000
,  // measure 91
0200
0000
0301
0000
0020
0000
0031
0000
1000
0010
0100
0001
1000
0100
0010
0001
,  // measure 92
2000
0000
0000
0000
,  // measure 93
3000
0000
0000
0000
;

//---------------dance-single - ----------------
#NOTES:
     dance-single:
     :
     Medium:
     11:
     0.553096,0.576376,0.386438,0.269778,0.007291,531.000000,478.000000,53.000000,37.000000,0.000000,0.000000,0.553096,0.576376,0.386438,0.269778,0.007291,531.000000,478.000000,53.000000,37.000000,0.000000,0.000000:
0000
0000
0000
0000
,
0000
0000
0000
0000
,
0000
0000
0000
0000
,
0000
0000
0000
0000
,
0000
0000
0000
0000
,
0000
0000
0000
0000
,
0000
0001
0100
0010
1000
0010
0100
0001
,
1000
0100
0010
0002
0100
0000
1003
0001
,
1000
1100
0001
0101
,
1000
0000
1001
0000
0001
0100
1000
0100
,
0001
0011
1000
1010
,
0001
0000
1001
0000
1000
0100
0001
0100
,
0010
0011
0001
1001
,
0100
0000
1001
0000
1000
0010
0001
0010
,
0100
1010
0010
1001
,
1000
0010
0100
0001
1000
0100
0001
0100
,
2000
0000
3010
0000
0100
0001
1000
0000
,
0002
0000
0013
0000
0100
1000
0100
1000
,
0002
0000
0103
0000
0010
0100
0001
0100
,
0010
1010
1000
1001
,
2000
0000
3100
0000
0001
0100
1000
0000
,
0002
0000
0103
0000
0010
0100
0001
0100
,
0020
0000
1030
0000
0001
0010
0100
1000
,
2100
3010
1002
0103
,
0002
0013
2000
3010
,
0100
0000
0000
0100
0000
0000
0100
0000
1000
0000
0001
0000
1000
0000
0000
0000
,
0002
0103
2000
3100
,
2010
3100
0012
0103
,
2001
3100
0002
0103
,
1000
0000
0000
0010
0000
0000
0100
0000
0001
0000
1000
0000
0001
0000
0000
0000
,
0012
0103
2010
3100
,
1001
0110
1001
1001
,
2000
0000
0010
0010
0000
3100
1000
0000
,
0002
0000
0010
0010
0000
0103
0001
0000
,
0020
0000
0100
0130
0000
1000
0001
0000
,
1000
0010
0100
0001
0001
0100
0010
1000
,
0002
0000
0103
0000
1000
0001
0010
0000
,
2000
0000
3100
0000
0001
1000
0010
0000
,
0002
0000
0103
0000
1000
0001
0010
0000
,
2010
0000
3100
0000
1000
0100
0010
0001
,
1000
0000
0011
0000
0001
0100
0000
0100
,
1000
0000
1000
0100
0000
0100
0010
1000
,
0000
1000
0001
0000
1000
0000
1100
0000
,
1000
0010
0100
0001
1000
0000
0100
0010
,
0001
0000
1010
0000
1000
0100
0000
0100
,
0001
0000
0001
0100
0000
0100
0010
0001
,
0000
0001
1000
0000
0001
0000
0101
0000
,
0001
0010
0100
1000
0001
0100
0010
1000
,
0001
0000
0100
0000
1000
0100
0000
0100
,
0001
0000
0010
0100
0000
1000
0001
1000
,
0000
0001
0100
0010
1000
0010
0100
0001
,
1000
0100
1000
0100
0010
0000
0001
1000
,
0001
0000
0010
0000
1000
0010
0000
0010
,
0001
0000
0100
0010
0000
1000
0001
1000
,
0000
0001
0010
0100
1000
0100
0010
0001
,
1000
0010
0100
0001
1000
0100
0010
0001
,
1000
1100
1000
1001
,
0001
0000
0101
0000
0001
0010
0100
1000
,
0001
0011
0001
1001
,
1000
0000
1100
0000
1000
0010
0001
0010
,
0100
0101
0001
1001
,
1000
0000
1100
0000
1000
0100
0001
0100
,
0010
0011
0001
1001
,
0001
0100
1000
0100
0010
1000
0001
0100
,
0002
0000
0000
0010
0000
0000
1003
0000
,
2000
0000
0000
0010
0000
0000
3001
0000
,
0002
0000
0000
0100
0000
0000
1003
0000
,
1010
0101
0011
1100
,
0102
0000
1003
0000
0001
1000
0100
0000
,
2100
0000
3001
0000
1000
0001
0100
0000
,
0012
0000
1003
0000
0001
1000
0010
0000
,
1010
0101
0011
1100
,
1000
0100
0001
0100
0010
0010
0010
0000
,
0001
0100
1000
0100
0010
0010
0010
0000
,
1000
0010
0001
0010
0100
0100
0100
0000
,
2002
0000
3003
0000
0001
0010
1000
0010
,
0001
0000
1001
0000
0001
0100
0000
0100
,
1000
0000
1000
0010
0000
0010
0001
1000
,
0000
0001
0100
0010
1000
0010
0100
0001
,
1000
0100
0010
0001
0100
0000
0100
1000
,
0010
0000
1000
0000
0100
0001
0000
0001
,
0010
0000
0010
1000
0000
0001
1000
0001
,
0000
1000
0010
0001
0010
1000
0100
0001
,
0100
1000
0010
0100
0002
0000
1003
0000
,
0010
1000
0100
0000
0100
0001
0010
0000
,
0010
0001
1000
0000
0001
0100
1000
0100
,
0001
0010
0100
0000
1000
0001
0100
0000
,
0010
1000
0001
0000
1000
0100
0001
0100
,
0010
0001
0100
0000
0100
1000
0010
0000
,
0010
1000
0001
0100
0010
1000
0001
1000
,
0100
1000
0010
0000
0010
0001
0100
0000
,
0001
0010
0100
1000
0100
0001
0100
2000
,
0002
0000
0000
0000
,
3003
0000
0000
0000
;

//---------------dance-single - ----------------
#NOTES:
     dance-single:
     :
     Easy:
     9:
     0.471850,0.542472,0.335399,0.233321,0.000000,453.000000,407.000000,46.000000,32.000000,0.000000,0.000000,0.471850,0.542472,0.335399,0.233321,0.000000,453.000000,407.000000,46.000000,32.000000,0.000000,0.000000:
0000
0000
0000
0000
,
0000
0000
0000
0000
,
0000
0000
0000
0000
,
0000
0000
0000
0000
,
1000
0100
0010
0100
,
1000
0001
0100
0001
,
1000
0100
0010
0001
,
1000
0001
0100
0000
0010
0000
1001
0000
,
2000
3100
0020
0130
,
2000
0000
3001
0000
0100
0010
0100
0000
,
0002
0013
0200
0310
,
0002
0000
1003
0000
0001
0100
0010
1000
,
0001
0101
1000
1100
,
0001
0000
1001
0000
1000
0010
0100
0000
,
0001
0011
1000
1010
,
0001
1000
0001
1000
0010
0100
0010
0100
,
0002
0003
0010
0100
,
2000
3000
0001
0100
,
0020
0030
0100
0001
,
1000
1100
0001
0101
,
2000
3000
0010
0100
,
0002
0003
1000
0100
,
0020
0030
0100
1000
,
0001
0011
1000
1010
,
0001
0100
1000
0100
,
0010
0000
1000
0000
0001
1000
0100
0000
,
1000
0100
0001
0100
,
0010
1001
0100
1001
,
1000
0010
0001
0010
,
0100
0000
0001
0000
1000
0100
0010
0000
,
0001
0100
1000
0100
,
1010
1010
0202
0303
,
0002
0010
0103
0001
,
2000
0010
3100
1000
,
0002
0100
0013
0001
,
0011
1100
0101
1010
,
1000
0000
0100
0000
0001
0100
1000
0000
,
0001
0000
0100
0000
1000
0100
0001
0000
,
1000
0000
0001
0000
0010
0100
0010
0000
,
2002
0000
3003
0000
1000
0100
0010
0001
,
1000
0010
0001
0010
,
0100
0001
1000
0100
,
0010
1000
0010
0100
,
1000
0010
0100
0000
0001
0100
0010
1000
,
0001
0010
1000
0010
,
0100
1000
0001
0100
,
0010
0001
0010
1000
,
0001
0010
0100
0000
1000
0010
0100
0001
,
1000
0100
0001
0010
,
0001
0100
1000
0001
,
0100
1000
0100
0010
,
1000
0100
0001
0000
1000
0010
0001
1000
,
0001
0100
1000
0010
,
1000
0100
0001
1000
,
0001
0010
0100
1000
,
0001
0100
0010
1000
0001
0000
1001
0000
,
2000
3010
0200
1300
,
0002
0000
0013
0000
0100
0001
0100
0001
,
2000
3100
0020
1030
,
0002
0000
0103
0000
0010
0001
0010
0001
,
1000
1010
0001
0011
,
1000
0000
1100
0000
0001
0100
0010
1000
,
0001
0011
1000
1010
,
0001
1000
0001
1000
0010
0100
0010
0100
,
0002
0000
0000
0010
0000
0000
1003
0000
,
2000
0000
0000
0100
0000
0000
3001
0000
,
0200
0000
0000
0310
0000
0000
1001
0000
,
1000
0100
0010
0000
0001
0010
0100
1000
,
0001
0000
0101
0000
0001
0100
0010
0000
,
0100
0000
0110
0000
0010
1000
0001
0000
,
1000
0000
1001
0000
1000
0001
0100
0000
,
1010
0101
0011
1100
,
1000
0100
0010
0000
0001
0010
0100
0000
,
1000
0010
0100
0000
0001
0100
0010
0000
,
1000
0100
0001
0000
1000
0010
0001
0000
,
2002
0000
3003
0000
0001
0100
0010
1000
,
0001
1000
0001
0100
,
1000
0010
1000
0100
,
0001
0010
1000
0001
,
0100
0010
0001
0000
1000
0010
0100
0001
,
1000
0010
0001
0100
,
1000
0001
0100
0010
,
1000
0100
0010
0001
,
1000
0010
0100
0001
0100
0010
1000
0001
,
1000
1100
1000
1001
,
1000
0000
1010
0000
1000
0010
0100
0000
,
0001
0101
0001
1001
,
0001
0000
0011
0000
0001
0010
0100
0000
,
1000
1010
0001
0011
,
1000
0000
1001
0000
0001
0100
0010
1000
,
0001
0101
1000
1100
,
0001
0100
0010
1000
0010
0100
0001
2000
,
0002
0000
0000
0000
,
3003
0000
0000
0000
;

//---------------dance-single - ----------------
#NOTES:
     dance-single:
     :
     Beginner:
     4:
     0.247904,0.268319,0.014583,0.021874,0.000000,238.000000,236.000000,2.000000,3.000000,0.000000,0.000000,0.247904,0.268319,0.014583,0.021874,0.000000,238.000000,236.000000,2.000000,3.000000,0.000000,0.000000:
0000
0000
0000
0000
,
0000
0000
0000
0000
,
0000
0000
0000
0000
,
0000
0000
0000
0000
,
0000
0000
0000
0000
,
0000
0000
0000
0000
,
0000
0000
0000
0000
,
0000
0000
0000
0000
,
1000
1000
1000
0000
,
0001
0001
0001
0000
,
0100
0100
0100
0000
,
0010
0000
1000
1000
,
1000
1000
1000
0000
,
0001
0001
0001
0000
,
0010
0010
0010
0000
,
0100
0000
1000
1000
,
1000
0000
0001
0000
,
0100
0000
0010
0010
,
0010
0000
0100
0000
,
0001
0001
0001
0000
,
1000
0000
0100
0000
,
0010
0000
0100
0100
,
0100
0000
1000
0000
,
0001
0001
0001
0001
,
0001
0000
0100
0000
,
0010
0000
0100
0100
,
0100
0000
0010
0000
,
1000
1000
1000
0000
,
0001
0000
0010
0000
,
0100
0000
0010
0010
,
0010
0000
0001
0001
,
0001
0001
0001
0000
,
0100
0100
0100
0000
,
0010
0010
0010
0000
,
1000
1000
1000
0000
,
0001
0001
0001
0001
,
0001
0001
0001
0000
,
0010
0010
0010
0000
,
0100
0100
0100
0000
,
1001
0000
0000
0000
,
0000
1000
1000
0000
,
0001
0001
0000
0100
,
0000
0010
0010
0000
,
0100
0100
0100
0100
,
0000
0001
0001
0000
,
0010
0010
0000
0100
,
0000
1000
1000
0000
,
0001
0001
0001
0001
,
0000
0100
0100
0000
,
0010
0010
0000
1000
,
0000
0001
0001
0000
,
1000
1000
1000
1000
,
0000
0010
0010
0000
,
0100
0100
0000
0001
,
0000
1000
1000
0000
,
0100
0100
0100
0100
,
0100
0000
0010
0000
,
0001
0001
0001
0001
,
0001
0000
0100
0000
,
0010
0010
0010
0010
,
0010
0000
1000
0000
,
0001
0001
0001
0001
,
0001
0000
0010
0000
,
0100
0100
0100
0100
,
0200
0000
0300
0000
,
0020
0000
0030
0000
,
0002
0000
0003
0000
,
1000
1000
1000
1000
,
1000
0000
0010
0010
,
0010
0000
0100
0100
,
0100
0000
0001
0001
,
0001
0000
1000
1000
,
1000
0000
0100
0100
,
0100
0000
0010
0010
,
0010
0000
0001
0001
,
0001
0000
1000
1000
,
1000
0000
0010
0000
,
0100
0100
0100
0100
,
0100
0000
0001
0000
,
1000
1000
1000
1000
,
1000
0000
0001
0000
,
0010
0010
0010
0010
,
0010
0000
0100
0000
,
1000
1000
1000
1000
,
1000
0000
0001
0000
,
0100
0100
0100
0100
,
0100
0000
0010
0000
,
1000
1000
1000
1000
,
1000
0000
0001
0000
,
0010
0010
0010
0010
,
0010
0000
0100
0000
,
1000
1000
1000
0000
,
1001
0000
0000
0000
;
