#TITLE:Phantom Razor;
#SUBTITLE:;
#ARTIST:Daisuke Kurosawa;
#TITLETRANSLIT:;
#SUBTITLETRANSLIT:;
#ARTISTTRANSLIT:;
#GENRE:;
#CREDIT:;
#MUSIC:Phantom Razor.ogg;
#BANNER:Phantom Razor.png;
#BACKGROUND:Phantom Razor-bg.png;
#CDTITLE:;
#SAMPLESTART:71.647;
#SAMPLELENGTH:15.000;
#SELECTABLE:YES;
#OFFSET:-1.001;
#BPMS:0.000=183.026;
#STOPS:;
#BGCHANGES:;
#FGCHANGES:;

//--------------- dance-single - ----------------
#NOTES:
     dance-single:
     :
     Beginner:
     4:
     0,0,0,0,0:
0000
0000
0000
0000
,
0000
0000
0000
0000
,
0000
0000
0000
0000
,
0000
0000
0000
0000
,
0000
0000
0000
0000
,
0000
0000
0000
0000
,
1000
0000
1000
0000
,
0001
0000
0001
0000
,
0100
0000
0100
0000
,
0010
0010
0010
0000
,
1000
0000
0100
0000
,
1000
0000
0100
0000
,
0010
0000
0001
0000
,
0010
0000
0001
0000
,
1000
0000
1000
0000
,
0010
0000
0010
0000
,
0100
0000
0100
0000
,
0001
0000
0001
0000
,
1001
0000
0000
0000
,
0010
0000
0000
0000
,
0010
0000
0100
0000
,
0010
0010
0010
0000
,
1000
1000
1000
0000
,
0100
0100
0100
0000
,
0001
0001
0001
0000
,
0100
0100
0100
0000
,
1000
1000
1000
0000
,
0010
0010
0010
0000
,
0001
0001
0001
0000
,
0010
0010
0010
0000
,
1000
0000
1000
0000
,
1000
0000
1000
0000
,
0001
0000
0010
0000
,
0001
0000
0010
0000
,
0001
0001
0100
0000
,
0001
0000
0100
0000
,
0010
0010
1000
0000
,
0010
0000
1000
0000
,
0001
0000
0001
0000
,
0001
0000
0001
0000
,
1000
0000
0100
0000
,
1000
0000
0100
0000
,
1000
1000
0010
0000
,
0100
0000
0010
0000
,
0100
0001
0100
0000
,
0001
0000
0000
0000
,
1000
0000
0100
0000
,
0010
0000
1000
0000
,
0010
0000
0100
0000
,
0010
0000
0010
0000
,
0001
0000
0100
0000
,
0010
0000
0001
0000
,
0010
0000
0100
0000
,
0010
0010
0000
0000
,
1000
0000
0001
0000
,
1000
0001
1000
0000
,
0001
0000
1000
0000
,
0001
0001
0001
0000
,
0100
0000
0010
0000
,
0100
0010
0100
0000
,
0010
0000
0100
0000
,
0010
0010
0010
0000
,
1001
0000
0000
0000
,
1001
0000
0000
0000
,
1000
1000
1000
0000
,
0001
0001
0001
0000
,
0110
0000
0000
0000
,
0110
0000
0000
0000
,
0010
0010
0010
0000
,
0100
0100
0100
0000
,
2002
0000
0000
0000
,
0000
0000
0000
0000
,
0000
0000
0000
0000
,
3003
0000
0000
0000
,
0001
0001
0100
0000
,
0001
0010
0001
0000
,
1000
1000
0100
0000
,
1000
0010
1000
0000
,
0001
0001
0000
0000
,
0000
0000
0000
0000
1000
0000
0000
2000
,
0000
0000
0000
0000
,
0000
0000
0000
0000
,
3000
0000
0000
0000
;

//--------------- dance-single - ----------------
#NOTES:
     dance-single:
     :
     Easy:
     7:
     0,0,0,0,0:
0000
0000
0000
0000
,
0000
0000
0000
0000
,
0000
0000
0000
0000
,
0000
0000
0000
0000
,
0000
0000
0000
0000
,
0000
0000
0000
0000
,
0001
0010
0001
0000
,
0001
0100
0001
0000
,
1000
0100
1000
0000
,
1000
0010
1000
0000
,
0001
0100
0001
0100
,
0010
1000
0001
0000
,
1000
0100
1000
0100
,
0010
0001
1000
0000
,
0001
0100
0010
0000
,
1000
0010
0100
0000
,
0001
0010
0100
0000
,
1000
0100
0010
0000
,
0001
0100
0101
0000
,
1000
0100
1100
0000
,
0001
0100
0010
1000
,
0001
0001
1001
0000
,
1000
0100
1000
0100
,
0001
0100
0001
0100
,
1000
0100
1000
0100
,
1000
0010
0100
0000
,
0001
0010
0001
0010
,
1000
0010
1000
0010
,
0001
0010
0001
0010
,
0001
0100
0010
0000
,
1000
2001
0000
0001
,
0000
0001
0000
3001
,
0200
0000
0000
0320
0000
0000
0230
0000
,
0000
0320
0000
0000
0130
0000
0000
0000
,
0001
0010
0001
0010
,
0100
1000
0100
1000
,
0001
0000
0001
0010
0001
0000
0000
0000
,
1000
0000
1000
0100
1000
0000
0000
0000
,
0001
1002
0000
1000
,
0000
1000
0000
1003
,
0200
0000
0000
0320
0000
0000
0230
0000
,
0000
0320
0000
0000
0130
0000
0000
0000
,
1000
0010
1000
0010
,
0100
0001
0100
0001
,
1000
1000
0010
0100
,
0001
0001
0001
0000
,
1000
0010
1000
0000
,
0100
1000
0100
0000
,
0001
0100
0001
0000
,
0010
0001
0010
0000
,
1000
0010
1000
0000
,
0100
1000
0100
0000
,
0010
0001
1000
0001
,
0100
0000
0100
0020
0000
0000
0030
0000
,
1000
0100
1000
0100
,
0001
0100
0001
0100
,
1000
0100
0001
0100
,
1000
0000
1000
0001
1000
0000
0000
0000
,
0001
0100
0001
0100
,
1000
0100
1000
0100
,
0001
0100
0001
0100
,
0001
0000
0001
1000
0001
0000
0000
0000
,
0010
0000
0001
0010
0001
0000
0000
0000
,
0100
0000
0001
0100
0001
0000
0000
0000
,
0010
0001
0100
0010
,
1000
0100
0010
0000
,
0100
0000
1000
0100
1000
0000
0000
0000
,
0010
0000
1000
0010
1000
0000
0000
0000
,
0010
1000
0100
1000
,
0010
0010
0010
0000
,
2002
0000
0000
0000
,
0000
0000
0003
0000
,
0020
0000
3000
0000
,
0200
0000
0030
0000
,
0301
0010
0001
0010
,
1000
0010
1000
0010
,
0001
0100
1000
0100
,
0001
0100
1000
0100
,
0001
0000
0000
0000
,
0000
0000
0000
0000
0110
0000
0000
2002
,
0000
0000
0000
0000
,
0000
0000
0000
0000
,
3003
0000
0000
0000
;

//--------------- dance-single - ----------------
#NOTES:
     dance-single:
     :
     Medium:
     12:
     0,0,0,0,0:
0000
0000
0000
0000
,
0000
0000
0000
0000
,
0000
0000
0000
0000
,
0000
0000
0000
0000
,
0000
0000
0000
0000
,
0000
0000
0000
0000
0001
0100
0010
1000
,
0000
1001
0000
0000
0100
0010
0000
0110
,
0000
1001
0000
0000
0100
0010
0000
0110
,
0000
1001
0000
0000
0100
0010
0000
0110
,
0000
1001
0000
0000
0001
1000
0000
1001
,
0000
0001
0100
0000
0010
0000
1000
0000
,
0001
0010
0001
0010
0100
1000
0100
1000
,
0000
1000
0010
0000
0100
0000
0001
0000
,
1000
0100
1000
0100
0010
0001
0010
0001
,
0000
1001
0000
0000
1000
0100
0000
0110
,
0000
1001
0000
0000
0001
0100
0000
0110
,
0000
1001
0000
0000
1000
0100
0000
0110
,
0000
1001
0000
0000
0001
0100
0000
0020
,
0000
1030
0100
1000
,
0010
0000
0010
0100
0000
0010
0100
0000
,
0001
0000
0010
0100
0000
0010
0000
0100
,
2000
0000
3200
0000
0320
0000
0030
0001
,
0000
0010
0001
0010
0001
0010
0000
0100
,
0000
1000
0100
1000
0100
1000
0000
0001
,
0000
0100
0001
0100
0001
0100
0000
0010
,
0000
1000
0010
1000
0010
0000
1000
0001
,
0000
0010
0100
0010
0100
1000
0000
0001
,
0000
0100
0010
0100
0010
1000
0000
0100
,
0000
0010
0001
0010
0001
1000
0000
0010
,
0000
0100
0001
0100
0001
1000
0100
0010
,
0000
0010
0100
0000
0000
0000
0100
0000
,
0000
0000
0100
0000
0000
0000
0100
1000
,
0002
0000
0103
2000
0000
3100
0002
0000
,
0013
0200
0000
0310
0001
0010
0000
0101
,
0000
0010
1000
0010
2000
0000
3100
0020
,
0000
0230
0000
2300
0000
3100
0100
0020
,
0000
0031
0100
0010
0100
0010
1000
0002
,
0000
1003
0001
0100
0010
0100
0010
2000
,
0000
3001
0010
0000
0000
0000
0010
0000
,
0000
0000
0010
0000
0000
0000
0010
0001
,
2000
0000
3010
0002
0000
0013
2000
0000
,
3100
0020
0000
0130
1000
0100
0000
1010
,
0000
0100
0001
0100
0002
0000
0013
0200
,
0000
0320
0000
0032
0000
0103
0100
0020
,
0000
0000
0000
0000
,
1030
0010
0100
0001
1000
0001
1000
0002
,
0000
1003
0100
1000
0000
0010
1000
0010
,
0000
0100
0001
0100
0000
0001
0010
0001
,
0000
1000
0100
1000
0000
0010
1000
0010
,
0000
0100
0001
0100
0000
1001
0000
0110
,
0000
0001
1000
0100
0000
0010
0100
0010
,
0000
0001
1000
0010
0000
0100
0000
0020
,
0000
1030
0100
1000
0100
0010
0100
0010
,
0001
0010
0001
2000
0000
0000
3000
0001
,
0000
0001
0100
0010
0000
0010
0100
0001
,
0000
0001
0010
0100
0010
0001
0100
0010
,
0000
0010
0100
0001
0000
0001
0010
0100
,
0000
0001
0100
0010
0002
0000
0003
1000
,
0000
1000
0010
0100
0000
0100
0010
1000
,
0000
1000
0100
0010
0100
1000
0010
0100
,
0000
0100
0010
1000
0000
1000
0100
0010
,
0000
1000
0010
0100
2000
0000
3000
0011
,
0000
0001
0100
0001
0010
0100
0000
1100
,
0000
1000
0100
1000
0010
0100
0000
1001
,
0000
0001
0100
0000
0010
0000
1000
0000
,
0100
1000
0100
0010
0002
0000
0003
1010
,
0000
1000
0100
1000
0010
0100
0000
0101
,
0000
0001
0100
0001
0010
0100
0000
1001
,
0000
1000
0100
1000
0100
0010
0001
0010
,
0001
0100
1000
0100
0000
0001
0000
1001
,
0000
1000
0010
0000
0100
0010
0100
0001
,
0000
0001
0010
0000
0100
0010
0100
1000
,
0000
1000
0010
0000
0100
0010
0100
0001
,
0000
0001
0010
0100
2000
0000
3000
0000
,
0001
0010
0001
0010
0001
0010
0001
0010
,
0100
1000
0100
1000
0100
1000
0100
1000
,
0001
0100
0001
0100
0010
0100
0010
0100
,
0010
1000
0010
1000
0100
0010
0000
0110
,
0000
0001
2000
0000
0000
0000
0000
0000
,
0000
0000
3000
0000
0010
1000
0001
0020
,
0000
0000
0000
0000
,
0000
0000
0000
0000
,
0030
0000
0000
0000
;

//--------------- dance-single - ----------------
#NOTES:
     dance-single:
     :
     Hard:
     16:
     0,0,0,0,0:
0000
0000
0000
0000
,
0000
0000
0000
0000
,
0000
0000
0000
0000
,
0000
0000
0000
0000
,
0000
0000
0000
0000
,
0000
0000
0000
0000
1000
0010
0010
0100
,
0000
0001
0010
0001
0100
0001
0000
0011
,
0000
1000
0010
0100
0010
0010
1000
0100
,
0000
0010
0100
0010
0001
0010
0000
0100
,
1000
0010
1000
0010
0100
0001
0100
0001
1000
0000
1000
0000
0000
0000
1001
0000
,
0000
0001
0100
0010
0100
0010
1000
0100
,
1000
0010
1000
0001
0100
1000
0100
0001
,
0000
1000
0100
0010
0100
0010
0001
0100
,
0001
0010
0001
1000
0100
0001
0100
1000
,
0000
0000
1000
0000
0010
0000
0100
0001
0100
0000
0001
0000
0000
0000
0011
0000
,
0000
0000
0001
0000
0010
0000
0100
1000
0100
0000
1000
0000
0100
0000
0010
0000
,
0000
0000
0001
0000
0100
0000
0010
1000
0010
0000
1000
0000
0000
0000
1100
0000
,
0000
0001
0010
1000
0010
0001
0000
1001
,
0000
0001
0100
0001
0100
1000
0100
0001
,
0020
0000
0130
2000
0000
3100
0010
0001
,
0100
1000
0100
0002
0000
0023
0000
0130
,
1000
0000
0001
0000
1000
0000
0001
0000
1000
0000
0010
0000
0100
0000
0001
0000
1000
0000
0000
0000
0000
1100
0000
0000
,
0000
0000
1000
0000
0010
0000
0100
0001
0100
0000
0001
0000
0010
0000
0011
0000
,
0000
0000
0001
0000
0010
0000
0100
1000
0100
0000
1000
0000
0010
0000
1010
0000
,
0000
0000
1000
0000
0100
0000
0010
0001
0010
0000
0001
0000
0100
0000
0101
0000
,
0000
0000
0010
0000
1000
0000
0001
0000
0010
0100
0010
0000
0001
0000
0100
0000
,
0000
0000
0001
1000
0100
0000
1000
0000
0010
0000
1000
0000
0001
0000
0100
0000
,
0010
0000
1000
0001
0010
0000
0100
0000
0010
0000
0001
0000
0100
0000
0010
0000
,
1000
0000
0001
0010
0100
0000
1000
0000
0010
0000
1000
0000
0100
0000
0010
0000
,
0001
0000
0100
0010
1000
0000
0001
0000
0100
0000
0001
0000
0010
0000
0001
0000
,
0000
0100
0010
0100
0010
1000
0100
0020
,
0000
0230
0000
2300
0000
3010
0100
0001
,
0101
0000
1000
1100
0000
0001
0011
0000
,
1000
0000
1010
0000
0000
0000
0001
0000
0010
0000
0100
1000
0100
0000
0020
0000
,
0000
0130
0001
0100
1000
0001
0100
0020
,
0000
0130
1000
0100
0001
1000
0100
0020
,
0000
0000
0031
0000
0100
0000
0010
1000
0010
0000
1000
0000
0100
0000
0002
0000
,
0000
0000
0103
0000
1000
0000
0010
1000
0010
0000
0100
0000
0001
0000
0020
0000
,
0000
0130
0010
0100
0010
0001
0100
0020
,
0000
0230
0000
0302
0000
0013
0100
1000
,
1100
0000
0001
0101
0000
1000
1010
0000
,
0001
0000
0011
0000
0000
0000
1000
0000
0010
0000
0100
0001
0100
0000
0020
0000
,
0000
0130
1000
0100
0001
1000
0100
0020
,
0000
0130
0001
0100
1000
0001
0100
0020
,
0000
1030
0100
1000
0001
0100
0001
0010
,
0100
1000
0100
1000
0100
0000
0010
0000
0010
0000
0001
0000
1000
0000
0020
0000
,
0000
0000
0130
0000
1000
0000
0100
0000
0001
1000
0100
0000
0100
0000
0020
0000
,
0000
0000
0130
0000
0001
0000
0100
0000
1000
0001
0100
0000
0100
0000
0020
0000
,
0000
0000
0130
0000
1000
0000
0100
0000
0001
1000
0100
0000
0010
0000
0200
0000
,
0000
0310
0001
1000
0000
1001
0000
2010
,
0000
0000
3001
0000
0100
0000
0001
0000
0010
0100
0010
0000
0100
0000
2000
0000
,
0000
0000
3100
0000
0010
0000
0001
0000
0100
0001
0100
0000
0010
0000
2000
0000
,
0000
3001
0100
0001
0100
1000
0100
0001
,
0010
0010
0100
0200
0000
0000
0000
0310
,
0001
0000
0010
0001
0010
0000
0001
0000
0100
0000
1000
0000
0100
0000
0001
0000
,
1000
0000
0010
1000
0010
0000
1000
0000
0100
0000
0001
0000
0100
0000
1000
0000
,
0010
0000
0100
0010
0100
0000
0001
0000
0010
0000
0100
0000
1000
0000
0002
0000
,
0000
0000
0103
0000
0010
0000
1000
0000
0001
1000
0001
1000
0001
0000
0010
0000
,
0100
0000
1000
0000
0010
0000
0100
0000
0010
0000
1000
0100
1000
0000
0010
0000
,
0100
0000
0001
0000
0010
0000
0100
0000
0010
0000
0001
0100
0001
0000
0010
0000
,
0100
0000
1000
0000
0010
0000
0100
0000
0001
0000
1000
0001
1000
0000
0200
0000
,
0000
0000
0310
0000
0001
0000
1000
0000
0001
0100
0001
0000
1000
0000
1001
0000
,
0000
0000
0001
0010
0100
0000
0010
0100
1000
0000
0001
0000
0000
0000
1001
0000
,
0000
0000
1000
0010
0100
0000
0010
0100
0001
0000
1000
0000
0000
0000
1001
0000
,
0000
0000
0001
0000
0100
0001
0010
0000
0001
0000
0100
0000
0010
1000
0100
0000
,
0010
0000
0100
0000
0010
0000
0001
1000
0001
0000
1000
0000
0000
0000
1100
0000
,
0000
0000
0001
0100
0010
0000
1000
0001
0100
0000
0010
0000
0000
0000
0101
0000
,
0000
0000
1000
0100
0010
0000
0001
1000
0100
0000
0010
0000
0000
0000
1001
0000
,
0000
0000
0001
0000
0100
0010
1000
0000
0100
0000
1000
0000
0100
0000
0010
0000
,
0002
1000
1000
2003
0000
3020
0000
0130
,
0000
0001
0100
0001
0100
1000
0100
0002
,
0000
1003
0100
1000
0100
0001
0100
2000
,
0000
3010
0001
0010
0001
0010
1000
0002
,
0000
0013
1000
0010
1000
0010
0001
0000
,
1000
0000
0100
1000
0100
0000
0010
0000
0001
0000
1000
0100
1000
0000
0001
0000
,
0100
0000
0010
1000
0010
0000
0100
0000
0001
0000
1000
0010
1000
0000
0100
0000
,
0010
0000
0001
1000
0100
0000
1000
0000
0010
0000
1000
0001
0100
0000
0001
0000
,
0010
0000
0001
0100
0010
0000
1000
0100
0010
0000
0010
0000
0000
0000
1001
0000
,
0000
0001
0100
0010
0001
1000
0100
0010
,
1000
0100
0010
1000
0001
0100
0010
0002
,
0000
0000
0000
0000
,
0000
0000
0000
0000
,
0003
0000
0000
0000
;
