#TITLE:ぱぴぽ?;
#SUBTITLE:;
#ARTIST:ねこみりん feat.まるもこ;
#TITLETRANSLIT:Papipo?;
#SUBTITLETRANSLIT:;
#ARTISTTRANSLIT:nekomirin feat.marumoko;
#GENRE:Alien denpa;
#CREDIT:tikal.;
#MUSIC:papipo.ogg;
#BANNER:Papipo.png;
#BACKGROUND:Papipo-bg.png;
#CDTITLE:cdtitle.png;
#SAMPLESTART:70.006;
#SAMPLELENGTH:20.000;
#SELECTABLE:YES;
#OFFSET:-0.006;
#BPMS:0.000=168.000;
#STOPS:268.000=2.500;
#BGCHANGES:;
#FGCHANGES:;

//--------------- dance-single - tikal. ----------------
#NOTES:
     dance-single:
     tikal.:
     Medium:
     12:
     0,0,0,0,0:
0000
0000
0000
0000
,
0000
0000
0000
0000
,
0000
0000
0000
0000
,
0000
0000
0000
0000
,
0000
0000
0000
0000
,
1010
0000
0000
0000
1000
0000
0000
0000
0000
1100
0000
0000
1100
0000
0000
0000
,
0011
0000
0001
0000
0100
0001
0010
0000
,
1001
0000
0000
0000
0100
0000
0000
0000
0000
0110
0000
0000
0110
0000
0000
0000
,
1001
0000
0000
0000
0001
0000
0010
0000
0000
0100
0000
0000
1000
0000
0001
0000
,
1000
0000
0010
0000
0100
0000
0000
0010
0000
0010
1000
0000
0001
0000
1000
0000
,
0001
0000
0010
0000
0100
0000
0000
0010
0000
0010
0001
0000
0100
0000
0010
0000
,
1000
1000
0001
0001
0010
0010
0100
0100
,
1000
0010
0001
0010
0200
0000
0000
0000
,
0302
0000
0013
0100
0000
0001
0100
1000
,
0010
0100
0010
1000
0100
0010
0001
0100
,
0020
0000
0130
0001
0020
0000
0130
1000
,
0010
0001
0010
1000
0100
0010
0110
0000
,
0001
0000
0001
0000
0010
0000
0010
0000
0001
0000
0000
0001
0000
0000
0001
0000
,
1000
1000
0010
0010
1000
0100
0010
0001
,
1000
0000
1000
0000
0100
0000
0100
0000
1000
0000
0000
1000
0000
0000
1000
0000
,
0001
0001
0100
0100
0001
0010
0200
0000
,
2300
0000
3000
0000
0002
0000
0003
0200
,
0000
0310
1000
0100
0001
0000
0100
0000
,
2000
0000
0010
0000
3002
0000
0013
0200
,
0000
0301
0100
1000
0010
0000
0100
0000
,
0002
0000
0003
0000
2000
0000
3000
0200
,
0000
0310
0001
0100
1000
0000
0100
0000
,
0002
0000
0010
0000
2003
0000
3010
0200
,
0000
1300
0100
0001
0010
0000
0100
0000
,
2000
0000
3100
0010
0002
0000
0103
0010
,
1000
0010
0100
0001
0010
0000
0100
0000
,
2000
0000
3010
0100
0002
0000
0013
0100
,
1000
0100
0010
0001
0100
0000
0010
0000
,
2000
0000
3001
0100
0010
0100
0000
0110
,
0000
1000
0000
0100
0110
0000
0001
0000
,
0011
0000
1000
0000
1010
0000
0001
1001
,
0000
0110
0000
1000
0020
0000
0230
0000
,
0302
0010
0000
1003
0100
0000
1100
0000
,
2000
0010
0000
3001
0100
0000
0101
0000
,
0002
0010
0000
1003
0100
0000
1000
0001
,
0000
0101
0000
1100
0000
0001
0010
0100
,
2000
0100
0000
3001
0010
0000
0011
0000
,
0002
0100
0000
1003
0010
0000
1010
0000
,
2000
0100
0000
3001
0010
0000
0001
2001
,
0000
3010
0100
0001
0010
0100
1000
0020
,
0000
0100
0100
0130
0000
0100
0001
0020
,
0000
0100
0100
0130
0000
0100
1000
0001
,
0200
0000
1300
0200
0000
0301
0000
0010
,
0200
0000
0000
0000
0310
0001
0100
0010
,
1000
0100
0010
1000
0010
0100
1000
0010
,
0100
0001
0010
0100
0001
0100
0010
0002
,
0000
0103
0010
2000
0000
3100
0010
0002
,
0000
1003
0010
0100
0000
0100
0001
0000
,
1000
1000
1000
0100
0001
0001
0001
0100
,
1000
0010
0001
0010
1000
0000
1000
0000
,
0022
0033
2020
3030
,
0101
0110
1001
1100
,
0001
0100
0010
0001
0010
0100
0001
0010
,
0100
1000
0010
0100
1000
0100
0010
2000
,
0000
0000
3100
0000
0010
0000
0002
0000
0000
0000
0103
0000
0000
0010
0000
0000
,
2010
0000
0000
0000
0000
0000
0001
0000
0000
0000
3100
0000
0000
0010
0000
0000
,
0012
0000
0000
0000
0000
0000
1000
0000
0000
0000
0103
0000
0000
0010
0000
0000
,
0220
0330
2002
3003
,
1000
1000
0100
0100
1000
0100
0010
0010
,
0001
0001
0100
0100
0020
0000
0030
0000
,
1000
1000
0010
0010
1000
0010
0100
0100
,
0001
0001
0010
0010
0100
0100
1000
0010
,
0200
0300
0000
0000
0000
0000
0000
0000
0000
0000
0000
0000
0000
0000
0000
0000
,
0010
0010
0010
0010
0100
0100
0100
0100
,
0010
0000
0100
0000
0010
0000
0100
0000
0010
0100
0010
0100
0010
0000
0100
0001
,
1000
0000
0000
0000
;

//--------------- dance-single - tikal. - Toy [B]ox Factory ----------------
#NOTES:
     dance-single:
     tikal. - Toy [B]ox Factory:
     Hard:
     15:
     0,0,0,0,0:
0000
0000
0000
0000
,
0000
0000
0000
0000
,
0000
0000
0000
0000
,
0000
0000
0000
0000
,
0000
0000
0000
0000
,
0001
0000
0010
0000
1000
0000
0010
0000
0100
1000
0000
0020
0100
0000
0000
0000
,
1030
0000
0100
0000
0001
0000
0100
0000
0010
0001
1000
0010
2000
0000
0000
0000
,
3001
0000
0100
0000
1000
0000
0100
0000
0010
1000
0000
0200
0010
0000
0000
0000
,
1300
0000
0010
0000
0100
0000
0110
0000
0000
1010
0000
0000
1001
0000
0001
0000
,
0010
0000
0100
0000
1000
0010
0000
0100
0000
0100
0001
0000
0010
0000
0100
0000
,
0001
0100
0010
0000
0001
0100
0000
0010
0000
0010
1000
0000
0100
0000
0010
0000
,
0001
0010
0001
0000
0010
0100
0010
0000
0100
1000
0100
0000
1000
0001
1000
0000
,
0010
0100
0001
0000
0010
0100
1000
0000
0040
0000
0000
0000
0000
0000
0000
0000
,
0230
0000
1300
0001
0000
0010
0100
0001
,
0010
0000
1000
0000
0001
0000
0100
0000
0010
0001
1000
0000
0001
0000
0100
0000
,
0020
0000
0000
0000
0030
0000
1000
0100
0020
0000
0000
0000
0030
0000
0001
0100
,
0010
1000
0100
0001
0100
1000
1001
0000
,
0001
0000
0001
0000
1000
0000
1000
0000
0100
0000
0100
0010
0000
0000
0001
0000
,
1000
0000
1000
0000
0001
0000
0001
0000
0100
0000
0010
1000
0010
0000
1000
0001
,
1000
0100
0001
0100
1000
0010
0001
0010
,
0100
0000
0001
0000
0010
0000
0100
0000
1000
0001
0100
0010
2000
0000
0000
0000
,
3001
0000
1000
0010
0010
0100
0000
0101
,
0000
0000
0001
1000
0001
0010
0100
0000
1000
0000
0000
0000
0001
0000
0000
0000
,
0200
0000
1000
0000
0320
0000
1030
0002
,
0000
0013
0100
0010
0001
0000
0002
0000
,
1003
0000
0001
0010
0010
0100
0000
1100
,
0000
1001
0000
0101
0001
0000
1000
0000
,
0100
0001
0100
0010
0001
1000
0010
0002
,
0000
0013
1000
0100
0010
0000
0100
0000
,
2000
0000
3010
0200
0000
1300
0100
0001
,
0000
1000
0100
0001
1000
0000
0010
0000
,
0200
0000
0001
0000
0320
0000
0031
2000
,
0000
3010
0100
0001
0010
0000
2100
0000
,
3001
0000
0000
0010
0001
0000
0100
0000
0010
0000
0000
0010
1000
0000
1010
0000
,
0000
1000
0000
0100
0110
0000
0001
0000
,
0011
0000
0000
0001
1000
0000
0000
0000
1010
0000
0000
1000
0001
0000
1001
0000
,
0000
0110
0000
1000
0020
0000
0230
0000
,
0301
0010
1000
0010
0100
0000
1100
0000
,
1000
0010
0001
0010
0100
0000
0101
0000
,
0001
0010
1000
0010
0100
0000
1000
0001
,
0101
0000
0000
0000
1100
0000
0000
0000
1000
0010
0100
0000
0010
0100
0001
0000
,
1000
0100
0001
0100
0010
0000
0011
0000
,
0001
0100
1000
0100
0010
0000
1010
0000
,
1000
0100
0001
0100
0010
0000
0001
2001
,
0000
0000
3010
0100
0001
0000
0010
0100
1000
0000
0001
0000
0100
0000
0110
0000
,
0000
0000
0010
1000
0010
1000
0010
1000
0000
0000
0001
0000
0010
0000
0100
0000
,
0000
0000
0010
0001
0010
0001
0010
0001
0000
0000
1000
0000
0010
0000
0100
0000
,
0001
0000
0011
1000
0000
1010
0000
0001
,
1000
0100
0000
0010
0000
0001
0100
0000
0010
0000
1000
0000
0100
0000
0001
0000
,
0100
0000
0010
0000
0100
0000
1000
0010
0000
0010
0100
0000
1000
0000
0100
0001
,
0010
0000
0100
0000
0001
0000
0100
0020
0000
0000
0031
0000
1000
0000
0020
0000
,
0000
1030
0001
0020
0000
0031
1000
0200
,
0000
0310
0001
0100
0000
0100
0020
0000
,
1030
0000
0100
0010
0100
0000
1000
0000
0001
0000
0100
0010
0100
0000
0001
0000
,
1000
0000
0010
0100
0001
0000
0010
0100
1000
0000
0000
0000
1001
0000
0000
0000
,
0001
0000
0010
0000
1000
0000
0010
0000
0100
1000
0000
2000
0000
0000
3000
0000
,
1010
0110
1001
0011
,
0010
0000
0100
0000
0010
0000
0001
0100
0000
0100
0010
0000
0001
0000
0010
1000
,
0100
0000
0010
0000
1000
0000
0010
0200
0000
0000
1300
0000
0001
0000
0200
0000
,
0000
0000
0301
0000
1000
0000
0200
0000
0300
0000
1100
0000
0000
0110
0000
0000
,
0012
0000
0000
0000
1003
0000
0001
0000
0000
0000
0101
0000
0000
0110
0000
0000
,
2010
0000
0000
0000
3001
0000
1000
0000
0000
0000
1010
0000
0000
0011
0000
0000
,
1200
0000
0310
0000
0001
0100
0101
0000
,
1000
0010
1000
0010
1000
0010
1000
0010
1000
0010
1000
0010
1000
0000
1000
0000
,
0001
0010
0001
0010
0001
0010
0001
0010
0001
0000
0010
0000
0100
1000
0000
1000
,
0001
0100
0001
0100
0001
0100
0001
0100
0001
0100
0001
0100
0001
0000
0001
0000
,
1000
0100
1000
0100
1000
0100
1000
0100
1000
0001
1000
0001
0100
0000
0010
0000
,
2000
3000
0000
0000
0000
0000
0000
0000
0000
0000
0000
0000
0000
0000
0000
0000
,
0001
0010
0001
0010
0001
1000
0001
1000
0001
0100
0001
1000
0100
1000
0001
1000
,
0010
1000
0010
1000
0001
1000
0001
1000
0100
0010
0100
0010
0001
0000
1000
0001
,
0100
0000
0000
0000
;

//--------------- dance-single - tikal. ----------------
#NOTES:
     dance-single:
     tikal.:
     Challenge:
     17:
     0,0,0,0,0:
0000
0000
0000
0000
,
0000
0000
0000
0000
,
0000
0000
0000
0000
,
0000
0000
0000
0000
,
0000
0000
0000
0000
,
1000
0000
0100
0010
0100
0000
1000
0000
0010
0100
0000
0002
0010
0000
0000
0000
,
1003
0000
0010
0000
0001
0000
0010
0000
0100
0001
1000
0100
1000
0001
0010
0001
,
1000
0000
0010
0100
0010
0000
1000
0000
0100
0010
0000
0002
0100
0000
0000
0000
,
1003
0000
0100
0000
0001
0000
0101
0000
0000
0110
0000
0000
1100
0000
1001
0000
,
0001
0000
0010
0000
0001
0000
0000
0000
1000
0000
0010
0000
0000
0000
0100
0000
0000
00M0
0100
0000
1000
0000
0000
0000
0010
0000
0000
0000
0100
0000
0000
0000
,
0001
0000
0010
0000
0100
0000
0000
0000
0010
0000
0001
0000
0000
0000
0100
0000
0000
000M
0100
0000
1000
0000
0000
0000
0001
0000
0000
0000
0100
0000
0000
0000
,
0010
0000
0000
1000
0000
0000
0010
0000
0000
0100
0000
0000
0001
0000
0000
0010
0000
0000
0001
0000
0000
1000
0000
0000
0100
0000
0000
0010
0000
0000
0001
0000
0000
1000
0000
0000
0010
0000
0100
0000
0001
0000
0100
0000
0001
0000
1000
0000
,
0100
0000
0000
0010
0000
0000
0001
0000
0000
0000
0000
0000
0100
0000
0000
0010
0000
0000
1000
0000
0000
0000
0000
0000
0001
0000
0000
0000
0010
0000
0000
0000
1000
0000
0000
0000
0001
0000
0000
0000
0100
0000
0000
0000
0000
0000
0000
0000
,
2000
0000
0000
0000
3010
0000
0100
0000
0000
0000
1000
0100
0010
0000
1000
0000
,
0001
0000
0010
1000
0010
0000
0001
0000
1000
0010
1000
0000
0001
0000
0010
0000
,
0200
0000
0000
0000
0300
0000
1000
0010
0200
0000
0000
0000
0300
0000
0001
0010
,
0100
0001
0100
1000
0010
0100
0110
0000
,
0001
0000
0000
0000
0001
0000
0000
0000
1000
0000
0000
0000
1000
0000
0000
0000
0010
0000
0000
0000
1000
0000
0100
0000
0000
M000
0100
0000
0001
0000
0000
0000
,
1000
0000
0000
0000
1000
0000
0000
0000
0001
0000
0000
0000
0001
0000
0000
0000
0100
0000
0001
0000
1000
0000
0010
0000
0100
0000
0010
0000
0000
0M00
0010
0000
,
0001
0010
0100
0000
1000
0010
0100
0000
0001
0100
0010
0000
1000
0100
0010
0000
,
0001
0010
0100
1000
0001
0100
0010
1000
0100
0010
0001
0100
0020
0000
0000
0000
,
1030
0000
0000
1000
0001
0000
0100
0000
0100
0000
0010
0000
0000
0000
1010
0000
,
1000
0010
1000
0010
0100
0010
0100
0001
0010
0000
0000
0000
0100
0000
0000
0000
,
2000
0000
0100
0000
3002
0000
0103
0120
,
0000
1030
0100
0001
0100
0000
0020
0000
,
0031
0000
0000
0001
1000
0010
0100
0010
0100
0000
0001
0000
0000
0000
0011
0000
,
0000
0000
0010
0100
1000
0000
0010
0100
0001
0000
0000
0000
2000
0000
0000
0000
,
3100
0010
0100
0010
0001
0010
0001
1000
0001
1000
0010
1000
0010
0100
0001
1000
,
0001
1000
0100
0010
0001
1000
0010
0100
0001
0000
0000
0000
1000
0000
0000
0000
,
0100
0000
0000
0100
0001
0000
1000
0000
0010
0000
0001
1000
0001
0000
0100
0000
,
0010
0000
1000
0001
1000
0000
0100
0000
0010
0000
0000
0000
0100
0000
0000
0000
,
1000
0000
0010
0100
0010
0000
1000
0000
0001
0000
0010
0100
0010
0000
1000
0000
,
0001
0200
2300
3020
0230
0300
0002
0000
,
0103
0000
0000
0100
1000
0000
0001
0000
0010
0000
1000
0001
1000
0000
0100
0000
,
0010
0000
0001
1000
0001
0000
0100
0000
1010
0000
0000
0000
0101
0000
0000
0000
,
1200
0000
0000
1300
0001
0000
0000
0000
0201
0000
0000
0301
1000
0000
1001
0000
,
0000
0000
0110
0000
0000
0000
0001
0000
0010
0100
0010
0100
1000
0001
0100
0010
,
1000
0010
0001
0010
0100
0000
0101
0000
,
0001
0010
1000
0010
0100
0000
1100
0000
,
1000
0010
0001
0010
0100
0000
0001
1000
,
1100
0000
0000
0000
0101
0000
0000
0000
0001
0010
0100
1000
0100
0010
0001
1000
,
0001
0100
1000
0100
0010
0000
1010
0000
,
1000
0100
0001
0100
0010
0000
0011
0000
,
0001
0100
1000
0100
0010
0000
1000
1002
,
0000
0000
0013
0100
1000
0100
0010
0001
0100
0000
0000
0110
0000
0000
1001
0000
,
1000
0000
0001
0010
0001
0010
0001
1000
0000
0000
0010
0000
0100
0000
0001
0000
,
0000
0000
1000
0010
1000
0010
1000
0001
0000
0000
0010
0000
0100
0000
1000
0000
,
1100
0000
0010
0101
0000
1001
0000
1000
,
0001
0010
0000
0100
0000
1000
0010
0000
0100
0000
0001
0000
0010
0000
1000
0000
,
0010
0000
0000
0000
0001
0000
0000
0000
0100
0000
0000
0000
0001
0000
0010
0000
0000
000M
0010
0000
0100
0000
0000
0000
0001
0000
0000
0000
0100
0000
0010
0000
,
1000
0000
0010
0000
0100
0000
1000
0200
0000
0000
0310
0000
1000
0000
0002
0000
,
0000
0013
1000
0002
0000
0103
1000
0002
,
0000
1003
0100
0010
0000
0001
1001
0000
,
1000
0000
0010
1000
0100
0000
0010
0000
1000
0000
0010
0100
1000
0000
0010
0000
,
0200
0000
0301
0010
0100
0000
0010
0001
0100
0000
0000
0000
0110
0000
0000
0000
,
0001
0000
0010
0100
0001
0000
0100
0000
1000
0010
0000
0020
0000
0000
0030
0000
,
0101
0000
0110
0000
1001
1000
1100
0000
,
0100
0000
0000
0000
1000
0000
0000
0000
0010
0000
0000
0000
1000
0000
0100
0000
0000
M000
0100
0000
0010
0000
0000
0000
1000
0000
0000
0000
0010
0000
0100
0000
,
0001
0000
0100
0000
0010
0000
0001
0020
0000
0000
0130
0000
0001
0000
2000
0000
,
0000
0000
3100
0000
0001
0000
1000
0000
0000
0000
1010
0000
0000
0110
0000
0000
,
0011
0000
0000
0000
0100
0000
1010
0000
0000
0000
0101
0000
0000
1001
0000
0000
,
1100
0000
0000
0000
0010
0000
0101
0000
0000
0000
1010
0000
0000
1001
0000
0000
,
0021
0000
1000
0000
0130
0100
2000
0000
,
3001
0100
0001
1000
0100
1000
0001
0100
0001
1000
0100
1000
0001
0100
0001
0100
,
0010
1000
0001
0010
0001
1000
0010
1000
0001
0000
0010
0000
0100
0001
0000
0100
,
1000
0001
0100
0001
1000
0100
1000
0001
0100
0001
1000
0100
1000
0001
0100
0001
,
1000
0100
0010
0001
1000
0010
0100
0001
1000
0100
0010
0001
0100
0000
0010
0000
,
2000
3000
0000
0000
0000
0000
0000
0000
0000
0000
0000
0000
0000
0000
0000
0000
,
0001
0010
0100
1000
0001
0100
0010
1000
0100
0100
0001
0010
0010
1000
0100
0100
,
0001
0000
0010
0000
0100
0000
1000
0000
0000
0000
0000
0000
0001
0000
0100
0000
0010
0000
1000
0000
0000
0000
0000
0000
0001
0000
0000
0010
0000
0000
1000
0000
0000
0010
0000
0000
0200
0000
0000
0000
0000
0000
1300
0000
0000
0010
0000
0000
,
0001
0000
0000
0000
;
