#TITLE:Pandemonium²;
#SUBTITLE:;
#ARTIST:ZaG-X;
#TITLETRANSLIT:;
#SUBTITLETRANSLIT:;
#ARTISTTRANSLIT:;
#GENRE:;
#CREDIT:;
#MUSIC:Pandemonium^2.ogg;
#BANNER:Pandemonium^2-bn.png;
#BACKGROUND:Pandemonium^2-bg.png;
#CDTITLE:;
#SAMPLESTART:25.297;
#SAMPLELENGTH:23.273;
#SELECTABLE:YES;
#OFFSET:-0.211;
#BPMS:0.000=330.000
,48.000=340.000
,56.000=350.000
,64.000=360.000
,128.000=330.000
,342.000=340.000
,350.000=350.000
,358.000=360.000
,366.000=370.000
,374.000=380.000
,382.000=390.000
,390.000=400.000
,398.000=410.000
,430.000=420.000
,476.000=330.000
;
#STOPS:130.000=0.182
,133.000=0.182
,464.000=0.143
,467.000=0.143
;
#DISPLAYBPM:*;
#BGCHANGES:;
#FGCHANGES:;

//--------------- dance-single - ----------------
#NOTES:
     dance-single:
     :
     Beginner:
     8:
     0,0,0,0,0:
0000
0000
0000
0000
,
0000
0000
0000
0000
,
0000
0000
0000
0000
,
0000
0000
0000
0000
,
0000
0000
0000
0000
,
0000
0000
0000
0000
,
0000
0000
0000
0000
,
0000
0000
0000
0000
,
1000
0000
1000
0000
,
0001
0000
0001
0000
,
0100
0000
0100
0000
,
0010
0000
0010
0000
,
1000
0000
1000
0000
,
0001
0000
0001
0000
,
0010
0000
0010
0000
,
0100
0000
0100
0000
,
1000
0000
0100
0000
,
0010
0000
0100
0000
,
1000
0000
0010
0000
,
0100
0000
0001
0000
,
0010
0000
0100
0000
,
0010
0000
0100
0000
,
1000
0000
0010
0000
,
0100
0001
1000
0000
,
0001
0000
0010
0000
,
0100
0000
0010
0000
,
0001
0000
0100
0000
,
0010
0000
1000
0000
,
0100
0000
0010
0000
,
0100
0000
0010
0000
,
0001
0000
0100
0000
,
0010
1000
0001
0000
,
2000
0000
3000
0002
,
0000
0003
0200
0000
,
0320
0000
2030
0000
,
0000
0000
3001
0000
,
0100
0000
0010
0000
,
0001
0000
0010
0000
,
1000
0000
0001
0000
,
0010
0000
0001
0000
,
0100
0000
0010
0000
,
1000
0000
0100
0000
,
0001
0000
0100
0000
,
0010
0000
0001
0000
,
0010
0000
0100
0000
,
0001
0000
0100
0000
,
1000
0000
0001
0000
,
0100
0000
0001
0000
,
0010
0000
0100
0000
,
1000
0000
0010
0000
,
0001
0000
0010
0000
,
0100
0000
0001
0000
,
1000
0000
0010
0000
,
0100
0000
1001
0000
,
1001
0000
1001
0000
,
1001
0000
1000
0000
,
0100
0000
0010
0000
,
0001
0000
1001
0000
,
1001
0000
2002
0000
,
3003
0000
0001
0000
,
0010
0000
0100
0000
,
1000
0000
1001
0000
,
1001
0000
1001
0000
,
1001
0000
1000
0000
,
0010
0000
0100
0000
,
0001
0000
2002
0000
,
0000
3003
2002
0000
,
0000
3003
1000
0000
,
0100
0000
0010
0000
,
1000
0000
0010
0000
,
0100
0000
1000
0000
,
0001
0000
1000
0000
,
0010
0000
0100
0000
,
1000
0000
0100
0000
,
0010
0000
1000
0000
,
0001
0000
0100
0000
,
0010
0000
0001
0000
,
0010
0000
0100
0000
,
0001
0000
0010
0000
,
0100
0000
0001
0000
,
0100
0000
0010
0000
,
0001
0000
1000
0000
,
0010
0000
0100
0000
,
0001
0000
1000
0000
,
1000
0000
0100
0000
,
0100
0000
0010
0000
,
0010
0000
0001
0000
,
0001
0000
1000
0000
,
1000
0000
0010
0000
,
0010
0000
0100
0000
,
0100
0000
0001
0000
,
0001
0000
1000
0000
,
0100
0000
1000
0000
,
0100
0000
0010
0000
,
0001
0000
0010
0000
,
0001
0000
1000
0000
,
0010
0000
1000
0000
,
0010
0000
0100
0001
,
0100
0001
0100
0001
,
0100
0000
0001
0000
,
0010
0000
1000
0000
,
0010
0000
0001
0000
,
1000
0000
0010
0000
,
0100
0000
0001
0000
,
1000
0000
0100
0000
,
0001
0000
0100
0000
,
1000
0000
0001
0000
,
1000
0000
0001
0000
,
0010
0000
0001
0000
,
0100
0000
0010
0000
,
1000
0000
0100
0000
,
1000
0000
0010
0000
,
0100
0000
0001
0000
,
0010
0000
0001
0000
,
0100
0000
0010
1000
,
0001
0000
2000
0000
,
3000
0002
0000
0003
,
0020
0000
0230
0000
,
2300
0000
0000
0000
,
3001
0000
0010
0000
,
0001
0000
1000
0000
,
0010
0000
0100
0000
,
0010
0000
1000
0000
,
0100
0000
1000
0000
,
0001
0000
0100
0000
,
0010
0000
1000
0000
,
0100
0000
1000
0000
,
0001
0000
0100
0000
,
0001
0000
1000
0000
,
0100
0000
0010
0000
,
0100
0000
1000
0000
,
0010
0000
0100
0000
,
0001
0000
1000
0000
,
0100
0000
0010
0000
,
0001
0000
0000
0001
0000
0000
0001
0000
,
1000
0000
0000
1000
0000
0000
1000
0000
,
0010
0000
0000
0010
0000
0000
0010
0000
,
0100
0000
0000
0100
0000
0000
0100
0000
,
0001
0000
0000
0001
0000
0000
0001
0000
,
2002
0000
0000
0000
,
0000
0000
0000
0000
,
0000
0000
0000
0000
,
0000
0000
0000
3003
0000
0000
0000
0000
;

//--------------- dance-single - ----------------
#NOTES:
     dance-single:
     :
     Easy:
     13:
     0,0,0,0,0:
0000
0000
0000
0000
,
0000
0000
0000
0000
,
0000
0000
0000
0000
,
0000
0000
0000
0000
,
0000
0000
0000
0000
,
0000
0000
0000
0000
,
0000
0000
0000
0000
,
0000
0000
0000
0000
,
1000
0100
1000
0100
,
0010
0001
0010
0001
,
0100
0010
0100
0010
,
1000
0001
1000
0001
,
1000
0010
1000
0010
,
0100
0001
0100
0001
,
0010
0100
0010
0100
,
1000
0001
1000
0001
,
1000
0100
1000
0000
,
0001
0100
0001
0000
,
1000
0100
0001
0000
,
0100
1000
0001
0000
,
1000
0010
1000
0000
,
0001
0010
0001
0000
,
1000
0010
0001
0000
,
0010
1000
0001
1000
,
0001
0010
0001
0000
,
1000
0010
1000
0000
,
0001
0010
1000
0000
,
0010
0001
1000
0000
,
0001
0100
0001
0000
,
1000
0100
1000
0000
,
0001
0100
1000
0000
,
0100
0001
1000
0001
,
2000
0000
3000
0002
,
0000
0003
0200
0000
,
0320
0000
0000
0000
0000
0000
1030
0000
0000
0000
0001
0000
,
0000
0000
1000
0000
0000
0000
0001
0000
0000
1000
0000
0000
,
0010
0100
0100
0001
,
1000
0100
0001
0100
,
1000
0000
0000
0000
,
0001
0001
1000
0001
,
0010
0100
0100
1000
,
0001
0100
1000
0100
,
0010
1000
0100
0000
,
0010
0001
1000
0001
,
0100
0010
0010
1000
,
0001
0010
1000
0010
,
0001
0000
0000
0000
,
1000
1000
0001
1000
,
0100
0010
0010
0001
,
1000
0010
0001
0010
,
0100
0001
0010
0100
,
1000
0001
1001
0000
,
1100
0000
0010
0100
,
0110
0000
0001
0011
,
0000
0101
0000
1001
,
0001
1000
1001
0000
,
0101
0000
0010
0000
,
0110
0000
1000
1010
,
0000
0000
0000
1100
0000
0000
0010
0000
0000
0000
0010
0000
,
0001
0000
1001
0000
,
0011
0000
0100
0000
,
0110
0000
1000
1100
,
0000
1010
0000
1001
,
1000
0001
1001
0000
,
1010
0000
0100
0000
,
0110
0000
0002
0000
,
2003
0000
0000
0000
0000
0000
3001
0000
0000
0000
1000
0000
,
0000
0000
0001
0000
0000
0000
1000
0000
0000
0100
0000
0000
,
0010
0000
1000
0010
,
0001
0000
1000
0100
,
0001
0000
0000
0000
0100
0000
0000
0010
,
0000
0001
1000
0010
,
0100
0000
1000
0100
,
0001
0000
1000
0010
,
0001
0000
0000
0000
0010
0000
0000
0100
,
0000
0001
1000
0100
,
0001
0000
0100
1000
,
0001
0000
0100
1000
,
0100
0000
0000
0000
0001
0000
0000
1000
,
0000
0001
1000
0010
,
0001
0000
0010
1000
,
0001
0000
0010
1000
,
0010
0001
1000
0001
,
1000
0000
0001
0010
,
0001
0000
1000
0010
,
1000
0000
0001
0100
,
0001
0000
1000
0100
,
1000
0000
0010
0100
,
0010
0000
1000
0001
,
1000
0000
0000
0100
,
0010
0100
0001
1000
,
0001
1000
0001
0001
,
0010
0000
0100
0100
,
1000
0000
1000
1000
,
0010
0000
0100
0100
,
0001
0000
1000
1000
,
0001
0001
0100
0100
,
0010
0010
1000
0100
,
1000
0010
0100
0001
,
0010
0001
1000
0010
,
0100
0010
1000
0001
,
0010
0001
0100
0100
,
0010
0010
1000
0100
,
0010
0001
1000
0010
,
1000
0001
0010
0100
,
0010
0001
1000
0010
,
1000
0100
0010
0001
,
0100
0001
1000
0100
,
0010
0100
1000
0001
,
0100
0001
0010
0010
,
0100
0100
1000
0010
,
0100
0001
1000
0100
,
1000
0001
0100
0010
,
0100
0001
1000
0100
,
1000
0010
0100
0001
,
0010
0001
2000
0000
,
3000
0002
0000
0003
,
0200
0000
0320
0000
,
1030
0000
0000
0000
0001
0000
0000
0000
1000
0000
0000
0000
,
0001
0001
0001
0000
,
1000
1000
1000
1000
,
0000
0010
0010
0000
,
0100
0100
0100
0000
,
0001
0001
0001
0000
,
1000
1000
1000
1000
,
0000
0100
0100
0000
,
0010
0000
0000
0010
0000
0000
0010
0000
,
0001
0100
0001
0100
,
0010
1000
0010
1000
,
0001
0010
0001
0010
,
0100
1000
0100
1000
,
0001
0100
0010
0100
,
0001
1000
0100
1000
,
0001
0100
0010
1000
,
0001
0000
0000
0010
0000
0001
0000
0000
,
0100
0000
0000
0010
0000
1000
0000
0000
,
0100
0000
0000
1000
0000
0010
0000
0000
,
0100
0000
0000
0001
0000
0010
0000
0000
,
0001
0000
0000
0100
0000
0010
0000
0000
,
2002
0000
0000
0000
,
0000
0000
0000
0000
,
0000
0000
0000
0000
,
0000
0000
0000
3003
0000
0000
0000
0000
;

//--------------- dance-single - ----------------
#NOTES:
     dance-single:
     :
     Medium:
     15:
     0,0,0,0,0:
0000
0000
0000
0000
,
0000
0000
0000
0000
,
0000
0000
0000
0000
,
0000
0000
0000
0000
,
0000
0000
0000
0000
,
0000
0000
0000
0000
,
0000
0000
0000
0000
,
0000
0000
0000
0000
,
1000
0100
1000
0100
,
1000
0000
0100
0000
1000
0000
0100
1000
,
0001
0100
0001
0100
,
0001
0000
0100
0000
0001
0000
0100
0001
,
1000
0010
1000
0000
0010
1000
0010
0000
,
1000
0001
0010
0000
0001
0010
0001
0000
,
1000
0001
1000
0000
0001
1000
0001
0000
,
0100
0010
0100
0010
0100
0000
0010
0000
,
1000
0000
0100
0000
1000
0010
0000
0000
,
0100
0000
0001
0000
0010
0001
0000
0000
,
0000
0000
0100
0000
0010
0000
0000
1000
,
0100
0000
1000
0000
0010
0100
0000
0000
,
0001
0000
0010
0000
0100
0010
0000
0001
,
1000
0000
0010
0000
0100
0001
0000
0000
,
0000
0000
1000
0000
0100
1000
0100
0000
,
0010
0001
0000
0001
1000
0001
1000
0000
,
0001
0000
0100
0000
0001
0010
0000
0000
,
0100
0000
1000
0000
0010
1000
0000
0000
,
0100
0000
0010
0000
0001
0000
0000
0100
,
0001
0000
0010
0000
0100
1000
0000
0000
,
0010
0000
0100
0000
0010
1000
0000
0000
,
0001
0000
0010
0000
0100
0010
0000
0000
,
0001
0000
0100
0000
0001
0100
0001
0000
,
1000
0001
0000
0001
1000
0001
1000
0000
,
00M1
0000
00M1
0000
00M1
0000
00M1
0000
0000
1M00
0000
1M00
,
0000
1M00
0000
1M00
0000
0000
001M
0000
001M
0000
001M
0000
,
M100
0000
M100
0000
M100
0000
00M1
0000
0000
0000
1M00
0000
,
0000
0000
00M1
0000
0000
0000
1000
0000
0000
0100
0000
0000
,
1000
0001
0000
0100
0000
0010
0100
0000
,
0001
0010
0001
1000
,
0010
0100
0000
0000
0001
0010
0001
0000
,
1000
0000
0010
0100
0001
0000
0010
0000
,
0001
1000
0000
0010
0000
0100
0010
0000
,
1000
0001
0010
0100
,
0010
0001
0000
1000
0000
1000
0010
0000
,
0100
0000
0001
1000
0001
0000
0100
0000
,
0001
1000
0000
0100
0000
0010
0100
0000
,
1000
0010
0100
0001
,
1000
0100
0000
0000
1000
0001
0010
0000
,
0100
0000
1000
0001
1000
0000
0010
0000
,
1000
0001
0000
0010
0000
0100
0010
0000
,
0001
0100
0010
1000
,
0001
0010
0000
0001
0000
1000
0100
0000
,
0010
0000
0001
1000
0MM1
0000
0010
0000
,
1100
0000
0001
0000
0100
0010
1000
0000
,
1010
0000
0001
0011
,
0001
0101
0001
1001
,
1000
1100
MMMM
1000
,
0101
0000
1000
0100
0010
0000
0000
0000
,
0011
0000
1000
1010
,
1000
0000
0000
1100
0000
0000
1000
0000
0001
0000
1000
0000
,
0001
0000
MMMM
0001
,
1100
0001
1000
0100
,
0011
0000
1000
1100
,
1000
1010
1000
1001
,
0001
0011
MMMM
0000
,
1001
0000
0010
0100
,
0110
0000
0000
0000
0000
0000
1000
0000
1000
0000
1000
0000
,
0001
0000
0001
0000
0001
0000
0100
0000
0000
0000
0010
0000
,
0000
0000
0100
0000
0000
0000
0001
0000
0000
0010
0000
0000
,
0001
0010
0001
0000
1000
0000
0010
0000
,
1000
0010
1000
0000
0001
0000
0100
0000
,
0001
0100
0001
0000
1000
0001
0000
1000
,
0000
0001
1000
0100
,
1000
0100
1000
0000
0001
0000
0100
0000
,
0001
0100
0001
0000
1000
0000
0010
0000
,
1000
0010
1000
0000
0001
1000
0000
0001
,
0000
0000
1000
0010
,
1000
0010
1000
0000
0001
0000
0010
0000
,
0001
0010
0001
0000
1000
0000
0100
0000
,
1000
0100
1000
0000
0001
1000
0000
0001
,
0000
1000
0001
0100
,
0001
0100
0001
0000
1000
0000
0010
0000
,
MMMM
0000
1000
0100
,
0010
0000
0001
0000
0100
0010
0000
0100
,
0010
1000
0001
0010
,
0001
0100
0000
0000
0010
0000
1000
0000
,
0100
1000
0000
0000
0000
0000
0010
0000
,
0100
0000
0000
0001
0010
0000
0001
0000
,
0100
0010
0000
0000
1000
0000
0010
0000
,
1000
0100
0000
0000
0010
0000
0001
0000
,
0100
0001
0000
0010
0000
0000
0100
0000
,
1000
0010
0000
0000
1000
0100
0000
0010
,
0000
0001
1000
0000
0001
0000
0100
0000
,
0001
0010
0000
0100
1000
0000
0010
0000
,
1000
0100
0000
0010
0000
0000
0001
0000
,
0100
0000
0000
0001
0010
0000
0100
0000
,
1000
0001
0000
0000
1000
0000
0100
0000
,
1000
0010
0000
0100
0001
0000
0010
0000
,
0001
0100
0010
0000
1000
0000
0100
0000
,
0010
0001
0010
0000
0100
0000
1000
0000
,
0010
0100
0010
0000
1000
0000
0100
0000
,
1000
0001
0100
0000
0010
0000
0100
0000
,
0001
1000
0100
0000
1000
0000
0010
0000
,
0100
0000
0001
0010
0001
0000
0100
0000
,
0010
1000
0010
1000
0001
0000
0010
0000
,
0001
1000
0010
0000
0100
0000
0010
0000
,
1000
0001
0010
0000
0001
0000
0100
0000
,
0010
0000
1000
0000
0100
1000
0100
1000
,
0001
1000
0001
0000
1000
0000
0010
0000
,
1000
0001
0010
0000
0100
0000
0010
0000
,
0001
1000
0010
0000
1000
0000
0100
0000
,
0010
0000
0001
0100
0001
0000
0010
0000
,
0100
1000
0000
0000
0001
0000
0100
0000
,
0001
1000
0100
0000
0010
0000
0100
0000
,
1000
0001
0100
0000
0001
0000
0010
0000
,
0100
1000
0010
0000
1000
0001
1000
0001
,
1000
0000
0000
0100
0000
0000
0010
0000
0000
0000
0000
0000
0001
0000
0000
0000
0100
0000
0000
0000
0001
0000
0000
0000
,
0100
0000
0000
0010
0000
1000
0000
0010
0000
1000
0000
0000
,
0001
0000
0010
0000
0001
0000
1000
0000
0100
0000
1000
0000
,
0001
0000
0000
0000
1000
0000
0000
0000
0001
0000
0000
0000
,
1000
0000
0100
0000
1000
0100
0000
0000
,
0010
0000
0001
0000
0010
0001
0000
0010
,
0000
0000
0001
0000
1000
0000
0000
0001
,
1000
0000
0001
0000
1000
0001
0000
0000
,
1000
0000
0010
0000
1000
0010
0000
0000
,
0100
0000
0001
0000
0100
0001
0000
0100
,
0000
0000
0001
0000
1000
0001
0000
0000
,
0100
0010
0000
0100
0000
0010
0100
0000
,
0001
0000
0010
0000
0001
1000
0000
0010
,
0100
0000
0010
0000
1000
0001
0000
0010
,
0100
0000
0010
0000
0001
0000
0000
1000
,
0010
0000
1000
0000
0100
0010
0000
0001
,
1000
0000
0100
0000
0010
0001
0010
0000
,
0001
0000
0100
0000
0010
1000
0010
0000
,
1000
0001
1000
0000
0010
0100
0010
0000
,
1000
0100
0000
0010
0000
0001
1000
0000
,
0001
0010
0000
0100
0000
1000
0001
0000
,
1000
0010
0000
0100
0000
0001
1000
0000
,
0001
0100
0000
0010
0000
1000
0001
0000
,
0100
0010
0000
0100
0000
0001
1000
0000
,
2002
0000
0000
0000
,
0000
0000
0000
0000
,
0000
0000
0000
0000
,
0000
0000
0000
3003
0000
0000
0000
0000
;

//--------------- dance-single - ----------------
#NOTES:
     dance-single:
     :
     Hard:
     17:
     0,0,0,0,0:
0000
0000
0000
0000
,
0000
0000
0000
0000
,
0000
0000
0000
0000
,
0000
0000
0000
0000
,
0000
0000
0000
0000
,
0000
0000
0000
0000
,
0000
0000
0000
0000
,
0000
0000
0000
0000
,
1000
1100
0100
0110
,
0010
0000
0011
0000
0001
0000
0001
1000
,
0001
0101
0100
0110
,
0010
0000
1010
0000
1000
0000
1000
0001
,
1000
1100
0100
0101
,
0001
0011
0010
1010
,
1000
1001
0010
0110
,
1000
0001
1000
0001
1000
0000
1001
0000
,
0001
0000
0010
0000
0001
1000
0010
0000
,
1000
0000
0100
0000
0010
0001
1000
0000
,
0000
0000
0101
0000
0101
0000
1000
0100
,
1000
0000
0001
0000
0100
0010
1000
0001
,
1000
0000
0010
0000
1000
0001
0010
0000
,
0001
0000
0100
0000
0010
1000
0001
0000
,
0000
0000
1100
0000
1000
0100
1000
0000
,
0001
0100
0001
0100
0010
1000
0100
0010
,
0001
0000
1000
0000
0010
0100
0010
0000
,
1000
0000
0001
0000
0010
0100
0010
0000
,
0011
0000
1000
0000
0010
1000
0100
0000
,
0010
0000
0001
0000
0100
0001
1000
0000
,
1100
0000
0010
0000
0001
1000
0010
0000
,
0101
0000
0010
0000
1000
0100
0010
0000
,
0011
0001
1010
1000
,
0110
0100
1001
0001
,
1M00
0000
01M0
0000
100M
0000
M100
0000
0000
0M01
0000
01M0
,
0000
M001
0000
010M
0000
0000
10M0
0000
0M10
0000
1M00
0000
,
01M0
0000
M010
0000
M001
0000
01M0
0000
00M1
0000
M010
0000
,
M100
0000
10M0
0000
00M1
0000
1000
0000
0000
0100
0000
0000
,
0001
0100
0000
0000
0010
0001
1000
0000
,
0010
0100
0001
0001
,
1000
0010
0000
0000
MMMM
0000
0000
0000
,
0100
0000
0001
1000
0001
0000
0100
0000
,
0010
0001
0000
0000
0010
1000
0001
0000
,
0010
0100
1000
0010
,
0100
0010
0000
1000
0000
0001
0010
0000
,
0100
0000
0010
0001
1000
0010
1000
0000
,
0001
0010
0000
0000
1000
0010
0100
0000
,
1000
0010
0100
0100
,
0001
0010
0000
0000
MMMM
0000
0000
0000
,
0100
0000
1000
0001
1000
0000
0010
0000
,
0001
0010
0000
0100
0000
0001
0010
0000
,
0100
0000
1000
0000
0001
0100
0010
0000
,
0100
0001
0000
1000
0100
0010
0100
0000
,
1000
0000
0001
0000
1001
0000
0100
1000
,
0100
0000
1000
0000
0001
0100
0001
0000
,
0100
0010
0100
0000
0001
0010
0001
0000
,
0100
0010
1000
0000
0100
1000
0010
0000
,
0100
0001
1000
0000
1001
0000
0100
0001
,
0100
0000
0001
1000
0100
0000
0000
0000
,
0010
0001
1000
0000
0010
1000
0100
0000
,
0010
0001
0100
0000
0001
0010
0100
0000
,
1000
0010
1000
0000
1001
0000
0010
0001
,
0010
0000
0001
0000
,
1000
0010
1000
0000
0001
0010
0001
0000
,
0100
0010
1000
0000
0100
1000
0010
0000
,
0100
0001
1000
0000
MMMM
0000
0000
0000
,
1001
0000
0000
0000
0010
1000
0010
0000
,
1000
0000
0000
0100
0000
0000
1000
0000
0000
0000
0000
0000
0001
0000
0000
0000
0010
0000
0000
0000
0001
0000
0000
0000
,
1000
0000
0010
0000
1000
0000
0001
0000
0000
0000
1001
0000
,
0000
0000
1001
0000
0000
0000
2000
0000
0000
0100
0000
0000
,
0000
0010
0000
0001
,
0000
0010
0000
0100
,
0000
0000
3010
0000
0101
0000
0000
1010
,
0000
1001
0002
0010
,
0000
0100
0000
1000
,
0000
0100
0000
0010
,
0000
0000
1003
0000
0011
0000
0000
1100
,
0000
1001
2000
0010
,
0000
0100
0000
0001
,
0000
0100
0000
0010
,
0000
0000
3001
0000
1100
0000
0000
0011
,
0000
1001
0002
0010
,
0000
0100
0000
1003
,
MMMM
0000
1000
0010
,
0100
0000
0001
0000
1000
0100
0000
0010
,
0001
1000
0001
0010
,
0100
1000
0000
0100
1000
0000
0010
0000
,
0100
0001
0000
0000
0000
0000
1000
0000
,
1000
0000
0000
0010
0100
0000
0001
0000
,
0010
0100
0000
1000
0001
0000
0010
0000
,
0100
0010
0000
0001
1000
0000
0010
0000
,
0100
0010
0000
1000
0000
0000
0001
0000
,
0010
0001
0000
0000
1000
0010
0000
1000
,
0000
0010
1000
0000
0001
0000
0010
0000
,
0001
1000
0000
0010
0100
0000
0010
0000
,
1000
0100
0010
0100
0000
0000
1000
0000
,
1000
0000
0001
0100
0001
0000
0010
0000
,
0100
1000
0000
0010
1000
0001
0010
0000
,
0100
0010
0001
1000
0010
0000
1000
0000
,
0100
0010
0001
0000
1000
0010
1000
0000
,
0001
0010
0001
0000
1000
0100
1000
0000
,
0001
0100
0001
0000
1000
0000
0001
0010
,
0001
0010
0100
0000
1000
0000
0010
0100
,
0010
0100
0010
0000
1000
0000
0001
0010
,
0001
0000
0100
0010
1000
0000
0100
0000
,
1000
0001
1000
0000
0001
0000
1000
0010
,
1000
0010
0100
0000
0001
0000
0010
0100
,
0010
0100
0010
0000
0001
0000
1000
0100
,
1000
0100
0010
0000
0001
1000
0001
1000
,
0001
1000
0001
0000
1000
0000
0001
0100
,
0001
0100
0010
0000
1000
0000
0100
0010
,
0100
0010
0100
0000
1000
0000
0001
0100
,
0001
0010
0000
0100
1000
0000
0010
0000
,
1000
0001
1000
0000
0001
0000
1000
0100
,
1000
0100
0010
0000
0001
0000
0100
0010
,
0100
0010
0100
0000
0001
0010
0001
0000
,
1000
0010
1000
0000
0001
1000
0001
1000
,
0010
0000
0000
0100
0000
0000
0010
0000
0000
0100
0000
0000
00M1
0000
0000
0000
0010
0000
0000
0000
0001
0000
0000
0000
,
0010
0000
0000
10M0
0000
0010
0000
1000
0000
0010
0000
0000
,
00M1
0000
0100
0000
0001
0000
0M10
0000
0100
0000
1000
0000
,
0M10
0000
1000
0000
01M0
0000
0010
0000
M001
0000
1000
0000
,
0001
0000
0010
0000
0001
1000
0010
0000
,
0100
0000
0010
0000
1000
0100
1000
0000
,
0010
0000
0100
0000
0001
0000
0010
0001
,
1000
0000
0010
0000
0100
0001
0000
0000
,
1000
0000
0100
0000
0010
0100
1000
0000
,
0001
0000
0100
0000
0001
0010
0100
0000
,
0000
0000
1000
0000
0010
1000
0001
0000
,
0010
0100
0000
1000
0000
0010
0100
0000
,
0101
0000
0001
0000
1000
0100
1000
0000
,
0001
0000
0100
0000
0010
0100
0001
0000
,
1010
0000
1000
0000
0001
0000
0000
0010
,
0001
0000
1000
0000
0010
0100
0010
0000
,
1000
1100
1000
1010
,
0001
0011
0001
0101
,
1000
0001
1000
0000
0010
0100
0010
0000
,
1000
0100
0000
M100
0000
0001
1000
0000
,
0001
0100
0000
010M
0000
1000
0001
0000
,
1000
0010
0000
M010
0000
0001
1000
0000
,
0001
0010
0000
001M
0000
1000
0001
0000
,
1000
0100
0000
M100
0000
0001
1000
0000
,
2002
0000
0000
0000
,
0000
0000
0000
0000
,
0000
0000
0000
0000
,
0000
0000
0000
3003
0000
0000
0000
0000
;

//--------------- dance-single - ----------------
#NOTES:
     dance-single:
     :
     Challenge:
     18:
     0,0,0,0,0:
0000
0000
0000
0000
,
0000
0000
0000
0000
,
0000
0000
0000
0000
,
0000
0000
0000
0000
,
0000
0000
0000
0000
,
0000
0000
0000
0000
,
0000
0000
0000
0000
,
0000
0000
0000
0000
,
1000
11MM
0001
M1M1
,
0010
0000
M11M
0000
1001
0000
0MM1
1000
,
0001
MM11
1000
1M1M
,
0100
0000
M11M
0000
1001
0000
1MM0
0001
,
1000
0100
10MM
0000
0001
0100
M0M1
0000
,
1000
0010
1M0M
0000
0001
0010
MM01
0000
,
0100
0010
1000
0001
0010
0100
0010
0001
,
1000
0001
1000
0001
1000
0000
MMMM
0000
,
00M1
0000
0010
0001
0100
0010
0100
0000
,
M001
0000
1000
0100
0010
0100
1000
0000
,
0M10
0000
0010
0001
1000
0010
0100
0001
,
0M10
0000
0100
0000
0010
0001
1000
0001
,
10M0
0000
0010
1000
0100
0010
0100
0000
,
100M
0000
0001
0100
0010
0100
0001
0000
,
0M10
0000
0010
1000
0001
0010
0100
1000
,
001M
0100
0010
0100
0001
1000
0001
1000
,
0MM1
0000
0100
0001
0010
0100
0010
0000
,
M001
0000
1000
0010
0100
0010
1000
0000
,
M1M1
0000
0010
1000
0100
0010
0001
0000
,
10M0
0000
0010
1000
0001
0010
0001
1000
,
1MM1
0000
0010
0001
0100
0001
1000
0001
,
1MM1
0000
0100
1000
0010
1000
0001
1000
,
1MM1
0000
0010
0001
MM11
0000
0100
1000
,
001M
0100
0001
0010
M001
0100
0010
1000
,
00M1
0000
0M10
0000
M001
0000
MM22
0033
0000
10M0
0000
0M10
,
0000
100M
0000
2M2M
3030
0000
00M1
0000
1M00
0000
00M1
0000
,
M100
0000
001M
0000
M100
0000
M11M
0000
0000
0000
1MM1
0000
,
0000
0000
0000
0000
M11M
0000
0000
0000
0000
0000
0000
0000
1000
0000
0000
0100
0000
0000
1000
0000
0000
0001
0000
0000
,
0100
0010
0100
0000
0001
1000
0100
0000
,
0001
0000
0100
0000
1000
0001
0100
0000
,
0010
1000
0000
0001
0010
0001
0100
0010
,
1000
0000
0100
1000
0001
0100
0001
0000
,
1000
0100
0000
0010
0100
0000
1000
0000
,
0001
0100
0010
0000
0001
0010
1000
0000
,
0100
1000
0010
0100
0001
1000
0100
0010
,
0001
0000
0100
0001
0101
0000
0001
1000
,
0100
0010
0100
0000
0010
0001
1000
0000
,
0010
0000
0100
0000
0010
1000
0001
0000
,
0010
1000
0000
0010
0001
0100
0010
1000
,
0100
0000
1000
0010
1000
0000
0001
0010
,
0001
1000
0010
0001
0000
0010
1000
0000
,
0001
0010
0001
0000
1000
0010
0100
0000
,
0001
0100
0000
0010
1000
0100
0010
0000
,
0001
0000
1000
0001
1MM1
0000
0001
0010
,
0011
0000
1000
0010
0100
0001
0100
0000
,
0101
0000
0000
0000
10M0
0100
11M0
0000
,
100M
0010
101M
0000
1M00
0001
1M00
0000
,
00M1
1000
10M1
0000
MMMM
0000
1000
0010
,
1010
0000
0001
0010
0001
0000
0000
0000
,
0110
0000
0000
0000
0M01
0010
0M11
0000
,
M001
0000
0000
M101
0000
0000
10M0
0000
00M1
0000
10M0
0000
,
10M1
0000
0000
0000
MMMM
0000
1000
0100
,
1100
0000
0110
0000
,
1001
0000
0000
0000
00M1
0100
01M1
0000
,
M001
0000
M011
0000
0M01
1000
0M01
0000
,
10M0
0001
10M1
0000
MMMM
0000
0000
0000
,
0101
0000
0000
0000
1000
0010
1000
0000
,
1001
0000
0000
0000
0000
0000
100M
0000
01M0
0000
M001
0000
,
1M00
0000
001M
0000
M001
0000
1001
0000
0000
0000
0110
0000
,
0000
0000
1001
0000
0000
0000
1001
0000
0000
0100
0000
0000
,
1000
0001
0100
0000
0010
0100
0001
0000
,
0010
0001
1000
0000
0010
0100
0001
0000
,
1000
0100
1000
0000
0101
0001
0000
1000
,
1100
0010
1001
0001
,
0100
0001
1000
0000
0100
0010
0100
0000
,
1000
0010
0100
0000
0001
1000
0100
0000
,
0010
0001
1000
0000
1010
1000
0000
0011
,
0001
0100
1001
1000
,
0010
1000
0001
0000
0010
0001
0100
0000
,
0010
1000
0100
0000
0010
0100
1000
0000
,
0001
0100
0001
0000
1100
1000
0000
0001
,
0101
0000
0010
0000
1001
0000
0001
0100
,
0001
0010
0100
1000
0010
1000
0001
0000
,
MMMM
0000
0000
0000
0001
0010
0001
0000
,
1000
0100
1000
0000
0010
0100
0000
0001
,
1000
0001
1M00
0100
,
0010
0001
0000
0010
0001
0000
1000
0000
,
0010
0100
0010
0000
MMMM
0000
1000
0000
,
0100
0000
0000
1000
0001
0000
0100
0000
,
0001
0010
0000
0001
01M0
0000
0010
0000
,
1000
0100
0000
0001
0100
0000
1000
0000
,
0001
0100
0001
1000
0000
0000
M1MM
0000
,
0010
0001
0000
0000
100M
0010
0000
0010
,
0000
0001
1000
0000
00M1
0000
0010
0001
,
1000
0010
0100
0000
0010
0000
1000
0001
,
0010
0100
1000
0000
MMMM
0000
0100
0010
,
0001
0000
1000
0010
1000
0001
0010
0000
,
0100
1000
0010
0100
M001
0100
0001
0100
,
0010
1000
0010
0000
01M0
0000
0001
0100
,
0001
1000
0100
0000
1M00
0001
1000
0001
,
0100
0010
0100
0010
1M00
0001
1000
0001
,
0010
0100
0010
0100
1000
0100
1000
0010
,
0100
0001
0010
0001
1000
0010
1000
0100
,
0010
0001
0100
0001
1000
0100
0010
0100
,
1000
0001
0100
0010
1000
0001
0010
0100
,
0010
0001
1000
0000
0001
0010
0001
0100
,
0010
1000
0100
1000
0001
0100
0001
0010
,
0100
1000
0010
1000
0001
0010
0001
0010
,
0100
1000
0100
1000
0001
1000
0001
1000
,
0001
1000
0001
1000
0001
0100
0001
0010
,
0100
1000
0010
1000
0001
0010
0001
0100
,
0010
1000
0100
1000
0001
0100
0010
0100
,
0001
1000
0100
0010
0001
1000
0010
0100
,
0010
1000
0001
0000
1000
0010
1000
0100
,
0010
0001
0100
0001
1000
0100
1000
0010
,
0100
0001
0010
0001
1000
0010
0100
0001
,
1000
0100
0010
0001
1000
0001
1000
0001
,
1000
0000
0000
0001
0000
0000
1000
0000
0000
0000
0000
0000
00M1
0000
0000
0000
M100
0000
0000
0000
00M1
0000
0000
0000
,
M2M2
0303
0000
100M
0000
01M0
0000
100M
0000
22MM
3300
0000
,
001M
0000
M100
0000
001M
0000
1M00
0000
00M1
0000
1M00
0000
,
1MM1
0000
0000
0000
M11M
0000
0000
0000
1MM1
0000
0000
0000
,
1000
0000
0100
0000
1000
0010
0000
1000
,
0010
0000
0001
0000
0010
1000
0000
0001
,
0000
0000
0100
0000
0001
0000
0000
0010
,
0001
0000
0100
0000
0001
1000
0000
0001
,
1000
0000
0100
0000
0010
0001
0000
0100
,
0001
0000
0010
0000
0100
1000
0000
0001
,
0000
0000
0110
0000
1000
0001
1000
0000
,
0001
0010
0000
0010
0000
1000
0001
0000
,
1000
0000
0100
0000
1000
0010
1000
0000
,
0001
0000
0010
0000
0001
0100
0001
0000
,
1010
0000
0010
0000
1000
0000
0000
0001
,
0010
0000
1000
0000
0010
0001
0000
1000
,
0001
0100
M1M1
0000
1000
0100
11MM
0000
,
0001
0010
MM11
0000
1000
0010
1M1M
0000
,
0001
1000
0MM1
1000
0010
0100
M01M
0100
,
M001
0M10
0000
101M
0000
1M00
00M1
0000
,
100M
01M0
0000
M101
0000
00M1
1M00
0000
,
M001
01M0
0000
110M
0000
10M0
0M01
0000
,
100M
0M10
0000
M011
0000
0M01
10M0
0000
,
M001
0M10
0000
101M
0000
1M00
00M1
0000
,
2MM2
0000
0000
00M0
0000
0000
0M00
0000
,
0000
00M0
0000
0000
0M00
0000
0000
00M0
,
0000
0000
0M00
0000
0000
00M0
0000
0000
,
0M00
0000
0000
30M3
0000
0000
0000
0000
;
