#TITLE:Pac Toy-Box;
#SUBTITLE:;
#ARTIST:Taku Inoue, Toshio Kai;
#TITLETRANSLIT:;
#SUBTITLETRANSLIT:;
#ARTISTTRANSLIT:;
#GENRE:;
#CREDIT:;
#BANNER:Pac Toy-Box.png;
#BACKGROUND:Pac Toy-Box-bg.png;
#LYRICSPATH:;
#CDTITLE:;
#MUSIC:Pac Toy-Box.ogg;
#OFFSET:0.162894;
#SAMPLESTART:62.233002;
#SAMPLELENGTH:12.000000;
#SELECTABLE:YES;
#BPMS:0.000000=150.000000
;
#STOPS:
;
#BGCHANGES:;
#KEYSOUNDS:;
#ATTACKS:;

//---------------dance-single - ----------------
#NOTES:
     dance-single:
     :
     Hard:
     15:
     0.683915,0.777559,0.338583,0.425197,0.814961,608.000000,565.000000,43.000000,54.000000,0.000000,0.000000,0.683915,0.777559,0.338583,0.425197,0.814961,608.000000,565.000000,43.000000,54.000000,0.000000,0.000000:
0000
0000
0000
0000
,
0000
0000
0000
0000
,
0000
0000
0000
0000
,
0000
0000
0000
0000
,
0000
0000
0000
0000
,
0000
0000
0000
0000
,
0101
0000
0000
0000
0010
0000
0000
0110
0000
0000
0000
0000
1000
0000
0000
0000
,
1100
0000
0000
0000
0010
0000
0000
0110
0000
0000
0000
0000
0001
0000
0000
0000
,
0011
0000
0000
0000
1000
0000
0000
1010
0000
0000
0000
0000
1000
0000
0000
0000
,
1100
0000
0000
0000
0110
0000
0000
0011
0000
0000
0000
1100
0000
0000
0101
0000
,
1000
0000
0010
0000
0110
0000
0000
0101
0000
0000
0000
1100
0000
0000
0110
0000
,
0001
0000
0100
0000
0110
0000
0000
1010
0000
0000
0000
1100
0000
0000
0101
0000
,
0010
0000
1000
0000
1100
0000
0000
1001
0000
0000
0000
0101
0000
0000
0110
0000
,
1010
0000
0001
0000
1100
0000
0000
0110
0000
0000
0000
0110
0000
0000
0011
0000
,
1000
0000
0100
0000
0001
0000
0100
1000
0000
0000
0001
1000
0000
0001
0010
0000
,
0001
0000
0100
0000
1000
0000
0100
0001
0000
0000
1000
0001
0000
0100
0001
0000
,
1000
0010
1000
0000
0001
0000
1000
0100
1000
0000
0100
0000
0010
0001
0010
0001
,
2000
0000
0000
0000
0000
0000
0000
0000
3001
0010
0100
1000
0010
0000
0000
0000
,
0010
0000
1000
0000
0100
0000
0000
0110
0000
0000
0010
0000
1000
0000
0010
0000
,
0001
0000
0100
0000
0010
0000
0000
0110
0000
0000
0001
0000
1000
0000
0100
0000
,
0010
0000
0001
0000
0100
0000
0000
0110
0000
0000
0010
0000
0001
0000
0010
0000
,
1000
0000
0100
0000
0010
0000
0000
0110
0000
0000
0000
1000
0000
0001
1000
0000
,
0001
0000
0100
0000
1000
0000
0100
0001
0000
0010
0000
0100
0000
1000
0010
0000
,
1000
0000
0100
0000
0001
0000
0100
1000
0000
0010
0000
0100
0000
0001
1000
0000
,
0001
0000
0010
0000
1000
0000
0010
0001
0000
0100
0000
0010
0000
1000
0100
0000
,
1000
0000
0010
0000
0001
0000
0010
1000
0000
0000
0000
0001
0000
1000
0100
0000
,
0020
0000
0000
0000
0001
0000
0000
0031
0000
0000
0000
0011
0000
0000
1000
0000
,
0020
0000
0000
0000
1000
0000
0000
1030
0000
0000
0000
1010
0000
0000
1000
0000
,
0200
0000
0000
0000
0010
0000
0000
1300
0000
0000
0000
1100
0000
0000
0001
0000
,
0200
0000
0000
0000
0010
0000
0000
0301
0000
0000
0000
0101
0000
0000
0001
0000
,
1000
0000
0000
1100
0000
0000
0100
0000
0010
0000
0000
0011
0000
0000
0001
0000
,
0100
0000
0000
0110
0000
0000
0010
0000
1000
0000
0000
1001
0000
0000
1000
0000
,
0200
0000
0300
0001
0200
0000
0300
1000
0020
0000
0030
0001
0020
0000
0030
1000
,
0001
0010
0001
0000
0010
0100
0010
0000
0100
1000
0100
0000
1000
0100
0010
0002
,
2000
0000
0000
3003
,
0010
0000
0000
0000
1002
0000
0103
0010
0000
1000
0000
0100
0000
0010
0100
0000
,
1000
0000
0010
0000
0001
0000
0010
0100
0000
0001
0000
0100
0000
0010
1000
0000
,
0001
0000
0010
0000
1000
0000
0010
0100
0000
1000
0000
0100
0000
0010
0001
0000
,
0100
0000
1000
0000
0100
0000
0001
0020
0000
0000
0000
0130
0000
1000
0010
0000
,
0100
0000
0010
0000
0001
0000
0010
0100
0000
1000
0000
0100
0000
0001
0010
0000
,
0100
0000
0010
0000
1000
0000
0010
0100
0000
0001
0000
0100
0000
0010
0001
0000
,
0100
0000
1000
0000
0100
0000
0010
0001
0000
0010
0000
0100
0000
0010
1000
0000
,
0200
0000
0000
0000
0310
0001
0100
0020
0000
0000
1030
0100
0000
1000
0010
0000
,
0100
0000
0000
0000
0110
0000
0010
0100
0000
1000
0000
0100
0000
0001
0010
0000
,
1000
0000
0010
0000
0001
0000
0010
0100
0000
0001
0000
0100
0000
1000
0010
0000
,
0001
0000
0010
0000
1000
0000
0010
0100
0000
1000
0000
0100
0000
0001
0010
0000
,
1000
0000
0010
0000
0001
0000
0100
0020
0000
0000
0000
1030
0000
0100
0010
0000
,
1000
0000
0001
0000
0100
0000
1000
0001
0000
0100
0000
1000
0000
0100
0010
0000
,
0001
0000
1000
0000
0100
0000
0001
1000
0000
0100
0000
0001
0000
0100
0010
0000
,
1000
0000
0001
0000
0100
0000
1000
0001
0000
0100
0000
1000
0000
0100
0010
0000
,
2000
0000
0000
0000
3100
1000
0010
0200
0000
0010
0300
0010
0100
0000
0001
0000
,
0010
0000
0100
0000
0000
0000
1000
0100
1000
0000
0001
0000
0000
0000
1000
0010
,
1000
0000
0001
0000
0000
0000
0010
0100
0010
0000
0001
0000
0000
0000
0001
0100
,
0010
0000
0100
0000
0000
0000
0001
0100
0001
0000
1000
0000
0000
0000
0001
0010
,
0001
1000
0001
0000
0010
0100
0010
0000
0100
1000
0100
0000
1000
0001
1000
0001
,
0100
0000
0010
0000
0100
0000
0001
1000
0100
0000
0010
0000
0100
0000
1000
0010
,
0100
0000
0001
0000
0010
0000
0100
0010
0001
0000
1000
0000
0010
0000
0100
0010
,
2000
3100
0020
0031
0200
1300
0002
0013
,
2000
0000
0000
0000
3100
0010
0000
0010
0001
0100
0010
1000
0001
1000
0001
0020
,
0100
0000
0001
0000
0130
1000
0010
0100
0001
0000
0001
0010
0000
0010
0200
0000
,
0010
0000
1000
0000
0310
0000
0001
0100
0010
0000
1000
0001
0000
0001
0200
0000
,
0010
0000
0001
0000
0310
1000
0100
0010
0001
0000
0001
1000
0000
1000
0020
0000
,
0100
0000
1000
0000
0130
0000
0100
0000
0010
0000
1000
0001
0000
0001
0020
0000
,
0100
0000
1000
0000
0130
0010
0100
0010
0001
0000
1000
0001
0000
0001
0200
0000
,
0010
0000
1000
0000
0310
0000
1000
0100
0010
0000
0001
1000
0000
1000
0020
0000
,
0100
0000
0001
0000
0130
0001
0100
0001
1000
0000
0001
1000
0000
1000
0200
0000
,
0010
0000
0001
0000
0310
0000
0001
0000
1000
0000
0001
0100
0000
0010
1000
0000
,
0100
0000
0000
0000
0110
0000
0010
0002
0000
0100
0000
1003
0000
0001
0100
0000
,
0020
0000
1000
0000
0230
0000
0301
0020
0000
0001
0000
0130
0000
1000
0100
0000
,
0020
0000
0001
0000
0130
0000
1000
0020
0000
0100
0000
2030
0000
3010
0100
0000
,
0002
0000
0010
0000
1003
0000
0001
0200
0000
0000
0000
0310
0000
1000
0001
0000
,
0100
0000
1000
0000
0001
0000
0010
2000
0000
0100
0000
3001
0000
1000
0100
0000
,
0020
0000
0001
0000
0230
0000
1300
0020
0000
0100
0000
1030
0000
0001
0100
0000
,
0020
0000
1000
0000
0130
0000
0001
0020
0000
0001
0000
0230
0000
1300
0001
0000
,
2000
0000
0010
0000
3002
0000
2003
0100
0000
3002
0010
0000
2003
0010
0000
3002
,
0200
0000
0000
0000
,
0000
0000
0000
0000
,
0000
0000
0000
0000
,
0000
0000
0000
0000
,
0303
0000
0000
0000
;

//---------------dance-single - ----------------
#NOTES:
     dance-single:
     :
     Medium:
     13:
     0.536558,0.614173,0.039370,0.440945,0.531496,477.000000,472.000000,5.000000,56.000000,0.000000,0.000000,0.536558,0.614173,0.039370,0.440945,0.531496,477.000000,472.000000,5.000000,56.000000,0.000000,0.000000:
0000
0000
0000
0000
,
0000
0000
0000
0000
,
0000
0000
0000
0000
,
0000
0000
0000
0000
,
0000
0000
0000
0000
,
0000
0000
0000
0000
,
0001
0000
0000
0000
0100
0000
0000
0010
0000
0000
0000
0000
1000
0000
0000
0000
,
1000
0000
0000
0000
0100
0000
0000
0010
0000
0000
0000
0000
0001
0000
0000
0000
,
0001
0000
0000
0000
1000
0000
0000
0010
0000
0000
0000
0000
0100
0000
0000
0000
,
0100
0000
0000
0000
0001
0000
0000
0010
0000
0000
0000
0010
0000
0000
0100
0000
,
1000
0000
0000
0000
1000
0000
0000
0010
0000
0000
0000
0010
0000
0000
0010
0000
,
0100
0000
0000
0000
0100
0000
0000
0001
0000
0000
0000
0001
0000
0000
0001
0000
,
0010
0000
0000
0000
0010
0000
0000
0100
0000
0000
0000
0100
0000
0000
0100
0000
,
1000
0000
0001
0000
1000
0000
0000
0010
0000
0000
0000
0010
0000
0000
0010
0000
,
0100
0001
0100
0001
0100
0010
0100
0010
,
1000
0001
1000
0001
0010
0100
0010
0100
,
2000
3000
0100
0020
0030
0001
2000
0000
,
3020
0000
0000
0000
0100
0100
0130
0000
,
0001
0000
0100
0000
0010
0000
0000
1000
0000
0000
1000
0000
0001
0000
0000
0000
,
1000
0000
0100
0000
0010
0000
0000
0001
0000
0000
0001
0000
1000
0000
0000
0000
,
0001
0000
0010
0000
1000
0000
0000
0010
0000
0000
0010
0000
0001
0000
0000
0000
,
1000
0000
0010
0000
0100
0000
0001
0100
0000
0000
0000
0010
0000
1000
0001
0000
,
1000
0000
0100
0000
0010
0000
0000
0010
0000
0001
0000
1000
0000
0000
1000
0000
,
0001
0000
0100
0000
0010
0000
0000
0010
0000
1000
0000
0001
0000
0000
0001
0000
,
0010
0000
0100
0000
1000
0000
0000
1000
0000
0010
0000
0100
0000
0000
0100
0000
,
0001
0000
0010
0000
0100
0000
1000
0001
0000
0000
0000
0001
0000
0100
0001
0000
,
2000
0000
0000
0000
0100
0000
0000
0100
0000
0000
0000
3100
0000
0000
0010
0000
,
0002
0000
0000
0000
0100
0000
0000
0100
0000
0000
0000
0103
0000
0000
0010
0000
,
2000
0000
0000
0000
0001
0000
0000
0001
0000
0000
0000
3001
0000
0000
0010
0000
,
0200
0000
0000
0000
0010
0000
0000
0010
0000
0000
0000
0310
0000
0000
0001
0000
,
2000
0000
0000
3010
0000
0000
0100
0000
0002
0000
0000
0013
0000
0000
0100
0000
,
2000
0000
0000
3100
0000
0000
0001
0000
0200
0000
0000
1300
0000
0000
0010
0000
,
0200
0000
0300
0001
0200
0000
0300
0001
2000
0000
3000
0001
2000
0000
0000
3001
,
0020
0230
2300
3020
,
0100
0100
0100
1030
,
0100
0000
0110
0100
1000
0001
1000
1000
,
0001
0100
0010
0100
0001
1000
0001
0001
,
0010
0100
1000
0001
1000
0010
0100
0100
,
0001
0000
0010
0000
0100
0000
1000
0001
0000
0000
0000
1000
0000
0001
1000
0000
,
0001
0000
0100
0000
0010
0000
1000
0001
0000
0010
0000
0100
0000
0000
0100
0000
,
1000
0000
0100
0000
0010
0000
0001
1000
0000
0010
0000
0100
0000
0000
0100
0000
,
0010
0000
1000
0000
0100
0000
0010
0001
0000
1000
0000
0010
0000
0000
0010
0000
,
2000
0000
0000
0000
3001
0100
0001
0200
0000
0000
0000
0310
0000
0000
0010
0000
,
1000
0000
0000
0000
1100
0000
0100
1000
0000
0001
0000
0100
0000
0010
0100
0000
,
0001
0000
0010
0000
0100
0000
0010
0001
0000
1000
0000
0010
0000
0100
0010
0000
,
1000
0000
0010
0000
0100
0000
0001
0010
0000
0100
0000
1000
0000
0001
0100
0000
,
0001
0000
0010
0000
0100
0000
1000
0001
0000
0000
0000
1000
0000
0001
0100
0000
,
0010
0000
0010
0000
1000
0000
0100
0010
0000
0010
0000
0001
0000
1000
0010
0000
,
0100
0000
0100
0000
0010
0000
1000
0001
0000
0001
0000
0010
0000
0100
1000
0000
,
0001
0000
0001
0000
0100
0000
0010
1000
0000
1000
0000
0100
0000
0010
0001
0000
,
2000
0000
0000
0000
3001
0100
0001
0200
0000
0000
0000
0000
0310
0000
0000
0000
,
1000
0001
1000
0000
0001
0010
0001
0000
,
0010
0100
0010
0000
0100
1000
0100
0000
,
1000
0010
1000
0000
0010
0100
0010
0000
,
0100
0001
0100
0001
1000
0100
1000
0100
,
0010
0001
1000
0000
0010
1000
0001
0000
,
0100
0001
0010
0000
0100
1000
0010
0000
,
2000
3200
0320
0032
,
0203
0000
0310
0000
1000
0001
1000
0001
,
0100
0000
0100
0000
0010
0000
1000
0000
0001
0000
0000
0010
0000
0000
0200
0000
,
0000
0000
0310
0000
0010
0000
0001
0000
1000
0000
0000
0010
0000
0000
0200
0000
,
0000
0000
0310
0000
1000
0000
0100
0000
0010
0000
0000
0001
0000
0000
2000
0000
,
0000
0000
3010
0000
0100
0000
0010
0000
1000
0000
0001
1000
0000
0001
1000
0000
,
1000
0000
0001
0000
1000
0100
1000
0000
0100
0000
0000
0010
0000
0000
0120
0000
,
0000
0000
0001
0000
0031
0000
0100
0001
0100
0000
0000
0010
0000
0000
2010
0000
,
0000
0000
3100
0000
1000
0001
1000
0000
0010
0000
0000
0100
0000
0000
0102
0000
,
0000
0000
0013
0000
0100
0000
0010
0000
0100
0000
0010
0100
0000
1000
0001
0000
,
0200
0000
0300
0000
0010
0000
1000
0002
0000
0013
0000
0100
0000
1000
0001
0000
,
2000
0000
3010
0000
0002
0000
0013
0200
0000
0310
0000
1000
0000
0001
1000
0000
,
0200
0000
0310
0000
0001
0000
1000
0020
0000
0031
0000
0020
0000
1030
0001
0000
,
0020
0000
0130
0000
1000
0000
0001
0200
0000
0000
0000
0310
0000
1000
0001
0000
,
2000
0000
3100
0000
0010
0000
0001
0200
0000
1300
0000
0100
0000
0001
1000
0000
,
0002
0000
0013
0000
0100
0000
1000
0020
0000
0031
0000
0020
0000
1030
0001
0000
,
2000
0000
3100
0000
0001
0000
0100
0020
0000
0031
0000
1000
0000
0001
0100
0000
,
0010
0000
0010
0000
1000
0000
0001
0200
0300
0001
0200
0300
0010
2000
3000
0001
,
2000
0000
0000
0000
,
0000
0000
0000
0000
,
0000
0000
0000
0000
,
3000
0000
0000
0000
;

//---------------dance-single - ----------------
#NOTES:
     dance-single:
     :
     Easy:
     7:
     0.304837,0.368504,0.023622,0.251969,0.007874,271.000000,268.000000,3.000000,32.000000,0.000000,0.000000,0.304837,0.368504,0.023622,0.251969,0.007874,271.000000,268.000000,3.000000,32.000000,0.000000,0.000000:
0000
0000
0000
0000
,
0000
0000
0000
0000
,
0000
0000
0000
0000
,
0000
0000
0000
0000
,
0000
0000
0000
0000
,
0000
0000
0000
0000
,
0001
0100
0001
0000
,
1000
0100
1000
0000
,
0001
0010
0001
0000
,
1000
0010
1000
0000
,
0001
0010
0001
0001
,
1000
0010
1000
1000
,
0001
0100
0001
0001
,
1000
0001
1001
0000
,
1000
0100
0010
0010
,
0001
0100
0010
0010
,
1000
0100
0010
0001
,
2002
3000
1000
1003
,
0010
0010
1000
0000
,
0001
0001
0100
0000
,
0001
0001
0010
0000
,
0100
0100
1000
0000
,
0001
0001
0100
0010
,
1000
1000
0100
0010
,
0001
0001
0010
0100
,
1000
1000
0001
0000
,
0200
0010
0310
0000
,
0020
0100
0130
0000
,
2000
0001
3001
0000
,
0002
1000
1003
0000
,
0002
0013
2000
3010
,
0002
0103
2000
3100
,
0002
2003
3002
2003
,
3020
0230
0302
2003
,
0002
0000
0000
3003
,
1000
1000
0001
0100
,
0010
0010
1000
0001
,
0010
0010
0100
0010
,
0001
1000
0002
0003
,
0100
0100
0010
1000
,
0100
0100
0010
0001
,
1000
1000
0001
0100
,
0020
0000
2030
3001
,
0010
0001
0010
0000
0001
0000
0100
0000
,
0010
1000
0010
0000
1000
0000
0001
0000
,
1000
0100
1000
0000
0100
0000
0010
0000
,
0001
0010
0001
0000
2000
0000
3000
0000
,
0001
0100
0001
0000
0100
0000
0010
0000
,
1000
0010
1000
0000
0001
0000
0010
0000
,
0100
0010
0100
0000
0010
0000
0001
0000
,
2000
0000
3002
0000
,
0103
0000
0100
0000
,
0010
0000
0010
0000
,
1000
0000
1000
0000
,
0001
0000
0001
0000
,
1000
0100
1000
0100
,
0010
0001
0010
0001
,
2000
3020
0230
0302
,
2003
0000
0100
3100
,
0010
0000
0001
1000
0001
0000
0001
0000
,
0100
0000
0010
1000
0010
0000
0010
0000
,
0100
0000
0001
0100
0001
0000
0001
0000
,
0010
0000
0100
1000
0100
0000
1100
0000
,
0010
0000
0001
1000
0001
0000
0100
0000
,
0010
0000
1000
0001
1000
0000
0100
0000
,
0010
0000
0001
0010
0001
0000
0100
0000
,
0010
0000
1000
0010
1000
0000
0100
0000
,
0010
0001
1000
0000
0010
0000
1000
0000
,
0010
1000
0001
0000
0100
0000
0001
0000
,
0100
0001
1000
0000
0100
0000
1000
0000
,
0100
1000
0001
0000
0020
0000
0031
0000
,
0010
0001
0100
0000
0010
0000
1000
0000
,
0010
1000
0100
0000
0010
0000
0001
0000
,
0010
0001
0100
0000
0010
0000
1000
0000
,
0001
0000
0000
0000
1000
0000
0000
1000
0000
0000
0001
0000
0000
0001
0000
0000
,
2000
0000
0000
0000
,
0000
0000
0000
0000
,
0000
0000
0000
0000
,
3000
0000
0000
0000
;

//---------------dance-single - ----------------
#NOTES:
     dance-single:
     :
     Beginner:
     4:
     0.184477,0.269291,0.000000,0.094488,0.000000,164.000000,164.000000,0.000000,12.000000,0.000000,0.000000,0.184477,0.269291,0.000000,0.094488,0.000000,164.000000,164.000000,0.000000,12.000000,0.000000,0.000000:
// measure 0
0000
0000
0000
0000
,  // measure 1
0000
0000
0000
0000
,  // measure 2
0000
0000
0000
0000
,  // measure 3
0000
0000
0000
0000
,  // measure 4
0000
0000
0000
0000
,  // measure 5
0000
0000
0000
0000
,  // measure 6
1000
0000
0000
0000
,  // measure 7
0001
0000
0000
0000
,  // measure 8
0010
0000
0000
0000
,  // measure 9
0100
0000
0000
0000
,  // measure 10
1000
0000
1000
0000
,  // measure 11
0001
0000
0001
0000
,  // measure 12
0100
0000
0100
0000
,  // measure 13
0010
0000
0010
0000
,  // measure 14
1000
1000
1000
0000
,  // measure 15
0001
0001
0001
0000
,  // measure 16
0010
0010
0010
0000
,  // measure 17
0200
0000
0000
0300
,  // measure 18
1000
0000
1000
0000
,  // measure 19
0001
0000
0000
0000
,  // measure 20
0001
0000
0001
0000
,  // measure 21
0100
0000
0000
0000
,  // measure 22
0010
0000
0010
0000
,  // measure 23
1000
0000
0000
0000
,  // measure 24
0001
0000
0001
0000
,  // measure 25
1000
0000
0000
0000
,  // measure 26
2000
0000
3000
0000
,  // measure 27
0002
0000
0003
0000
,  // measure 28
2000
0000
3000
0000
,  // measure 29
0002
0000
0003
0000
,  // measure 30
2000
3000
0002
0003
,  // measure 31
2000
3000
0002
0003
,  // measure 32
1000
0001
1000
0001
,  // measure 33
1000
1000
1000
1000
,  // measure 34
2000
0000
0000
3000
,  // measure 35
0100
0100
0100
0000
,  // measure 36
1000
1000
1000
0000
,  // measure 37
0001
0001
0001
0000
,  // measure 38
0100
0100
0100
0000
,  // measure 39
0010
0010
0010
0000
,  // measure 40
1000
1000
1000
0000
,  // measure 41
0001
0001
0001
0000
,  // measure 42
0010
0010
0010
0000
,  // measure 43
0100
0010
0100
0000
,  // measure 44
0010
0100
0010
0000
,  // measure 45
0001
1000
0001
0000
,  // measure 46
1000
0001
1000
0000
,  // measure 47
0001
0100
0001
0000
,  // measure 48
0100
0001
0100
0000
,  // measure 49
0010
1000
0010
0000
,  // measure 50
1000
0010
1000
0000
,  // measure 51
1000
0000
0000
0000
,  // measure 52
0100
0000
0000
0000
,  // measure 53
0001
0000
0000
0000
,  // measure 54
0010
0000
0000
0000
,  // measure 55
1000
0000
1000
0000
,  // measure 56
0001
0000
0001
0000
,  // measure 57
0010
0000
0100
0000
,  // measure 58
2000
0000
0000
3000
,  // measure 59
0001
0001
0001
0000
,  // measure 60
0100
0001
0100
0000
,  // measure 61
0010
0010
0010
0000
,  // measure 62
1000
0001
1000
0000
,  // measure 63
0100
0100
0100
0000
,  // measure 64
0010
0001
0010
0000
,  // measure 65
0001
0001
0001
0000
,  // measure 66
1000
0001
1000
0000
,  // measure 67
0010
0010
1000
1000
,  // measure 68
0010
1000
0010
0000
,  // measure 69
0100
0100
0001
0001
,  // measure 70
0100
0001
0100
0000
,  // measure 71
0001
0001
1000
1000
,  // measure 72
0001
1000
0001
0000
,  // measure 73
1000
1000
0001
0001
,  // measure 74
1000
0001
1000
0001
,  // measure 75
2000
0000
0000
0000
,  // measure 76
3000
0000
0000
0000
;

//---------------dance-double - ----------------
#NOTES:
     dance-double:
     :
     Hard:
     15:
     0.671541,0.746457,0.346457,0.417323,0.807087,597.000000,553.000000,44.000000,53.000000,0.000000,0.000000,0.671541,0.746457,0.346457,0.417323,0.807087,597.000000,553.000000,44.000000,53.000000,0.000000,0.000000:
00000000
00000000
00000000
00000000
,
00000000
00000000
00000000
00000000
,
00000000
00000000
00000000
00000000
,
00000000
00000000
00000000
00000000
,
00000000
00000000
00000000
00000000
,
00000000
00000000
00000000
00000000
,
00000011
00000000
00000000
00000000
00000010
00000000
00000000
00000110
00000000
00000000
00000000
00000000
00000100
00000000
00000000
00000000
,
00001100
00000000
00000000
00000000
00010000
00000000
00000000
00011000
00000000
00000000
00000000
00000000
00001000
00000000
00000000
00000000
,
01001000
00000000
00000000
00000000
01000000
00000000
00000000
01100000
00000000
00000000
00000000
00000000
00100000
00000000
00000000
00000000
,
10100000
00000000
00000000
00000000
10010000
00000000
00000000
11000000
00000000
00000000
00000000
11000000
00000000
00000000
11000000
00000000
,
01100000
00000000
00000000
00000000
00110000
00000000
00000000
00011000
00000000
00000000
00000000
00011000
00000000
00000000
00011000
00000000
,
00010100
00000000
00000000
00000000
00010100
00000000
00000000
00000110
00000000
00000000
00000000
00000110
00000000
00000000
00000110
00000000
,
00000011
00000000
00000000
00000000
00000011
00000000
00000000
00000101
00000000
00000000
00000000
00000101
00000000
00000000
00000101
00000000
,
00000110
00000000
00001000
00000000
00001010
00000000
00000000
00010010
00000000
00000000
00000000
00010010
00000000
00000000
00010010
00000000
,
00011000
00000000
00010000
00000000
01000000
00000000
10000000
00010000
00000000
00000000
00000000
01010000
00000000
00000000
01001000
00000000
,
00011000
00000000
00001000
00000000
00000100
00000000
00000001
00001000
00000000
00000000
00000000
00001100
00000000
00000000
00010100
00000000
,
00010000
00001000
00010000
00000000
00000010
00000000
00010000
00001000
00010000
00000000
00001000
00000000
01000000
00010000
01000000
00010000
,
20000000
00000000
00000000
00000000
00000000
00000000
00000000
00000000
30010000
10000000
01000000
10000000
00010000
00000000
00000000
00000000
,
10000000
00000000
01000000
00000000
00100000
00000000
00000000
00101000
00000000
00000000
00001000
00000000
00010000
00000000
00000000
00000000
,
00000100
00000000
00000010
00000000
00000001
00000000
00000000
00000101
00000000
00000000
00000100
00000000
00001000
00000000
00000000
00000000
,
00010000
00000000
00100000
00000000
01000000
00000000
00000000
10100000
00000000
00000000
10000000
00000000
00010000
00000000
00000000
00000000
,
10000000
00000000
01000000
00000000
00100000
00000000
00001000
00010000
00000000
00000000
00000000
00001000
00000000
00010000
00000100
00000000
,
00000010
00000000
00000001
00000000
00001000
00000000
00000001
00000100
00000000
00000010
00000000
00001000
00000000
00000100
00010000
00000000
,
00001000
00000000
01000000
00000000
00100000
00000000
10000000
00010000
00000000
10000000
00000000
01000000
00000000
00100000
00001000
00000000
,
00010000
00000000
00000010
00000000
00000100
00000000
00000001
00000010
00000000
00000100
00000000
00001000
00000000
00000001
00000100
00000000
,
00001000
00000000
00010000
00000000
00100000
00000000
10000000
00010000
00000000
00000000
00000000
10000000
00000000
01000000
00100000
00000000
,
00002000
00000000
00000000
00000000
00010000
00000000
00000000
00013000
00000000
00000000
00000000
00011000
00000000
00000000
00010000
00000000
,
00000200
00000000
00000000
00000000
00000010
00000000
00000000
00000310
00000000
00000000
00000000
00000110
00000000
00000000
00000001
00000000
,
00000200
00000000
00000000
00000000
00001000
00000000
00000000
00001300
00000000
00000000
00000000
00001100
00000000
00000000
00001000
00000000
,
00020000
00000000
00000000
00000000
01000000
00000000
00000000
01030000
00000000
00000000
00000000
01010000
00000000
00000000
01000000
00000000
,
20000000
00000000
00000000
30100000
00000000
00000000
00010000
00000000
00002000
00000000
00000000
00003100
00000000
00000000
00000001
00000000
,
00000002
00000000
00000000
00000013
00000000
00000000
00001000
00000000
00020000
00000000
00000000
01030000
00000000
00000000
10000000
00000000
,
20000000
00000000
00000000
30100000
02000000
00000000
03000000
00010000
00200000
00000000
00300000
00001000
00020000
00000000
00000000
00030100
,
00001000
00000100
00001000
00000000
00000100
00000010
00000100
00000000
00000010
00000001
00000010
00000000
00000001
00001000
00000001
00002000
,
00000002
00000000
00000000
00003003
,
00000001
00000000
00000100
00000000
00000010
00000000
00001000
00000100
00000000
00010000
00000000
00001000
00000000
00100000
00010000
00000000
,
10000000
00000000
01000000
00000000
00100000
00000000
00010000
01000000
00000000
00001000
00000000
00010000
00000000
00000100
00001000
00000000
,
00000001
00000000
00000010
00000000
00000100
00000000
00001000
00000010
00000000
00010000
00000000
00001000
00000000
01000000
00010000
00000000
,
10000000
00000000
00100000
00000000
01000000
00000000
00010000
00200000
00000000
00000000
00000000
00301000
00000000
00010000
00000100
00000000
,
00001000
00000000
00000100
00000000
00000010
00000000
00000001
00000100
00000000
00000010
00000000
00010000
00000000
00001000
01000000
00000000
,
00010000
00000000
01000000
00000000
00100000
00000000
10000000
01000000
00000000
00100000
00000000
00001000
00000000
00010000
00000100
00000000
,
00001000
00000000
00000010
00000000
00000100
00000000
00000001
00000010
00000000
00000100
00000000
00010000
00000000
00001000
00100000
00000000
,
00020000
00000000
00000000
00000000
10030000
01000000
00100000
02000000
00000000
00000000
13000000
01000000
00000000
10000000
00100000
00000000
,
00010000
00000000
00100000
00000000
10000000
00000000
01000000
00100000
00000000
00001000
00000000
00010000
00000000
00000100
00000010
00000000
,
00001000
00000000
00000010
00000000
00000001
00000000
00000100
00000010
00000000
00010000
00000000
00001000
00000000
01000000
00100000
00000000
,
00010000
00000000
00100000
00000000
10000000
00000000
01000000
00100000
00000000
00001000
00000000
00010000
00000000
00000010
00000100
00000000
,
00001000
00000000
00000100
00000000
00000001
00000000
00000010
00000200
00000000
00000000
00000000
00001300
00000000
00000010
00010000
00000000
,
00001000
00000000
00010000
00000000
00100000
00000000
00010000
00001000
00000000
00010000
00000000
01000000
00000000
00010000
00001000
00000000
,
00010000
00000000
00001000
00000000
00000010
00000000
00001000
00010000
00000000
00001000
00000000
00000100
00000000
00001000
00010000
00000000
,
00001000
00000000
00010000
00000000
01000000
00000000
00010000
00001000
00000000
00010000
00000000
00100000
00000000
00010000
00001000
00000000
,
00020000
00000000
00000000
00000000
00030100
00001000
00000100
00000020
00000000
00000001
00000000
00000031
00001000
00000000
00000010
00000000
,
00000100
00000000
00000001
00000000
00000000
00000000
00000010
00000100
00000010
00000000
00000100
00000000
00000000
00000000
00001000
00000100
,
00001000
00000000
00000100
00000000
00000000
00000000
00010000
00001000
00010000
00000000
00001000
00000000
00000000
00000000
01000000
00010000
,
01000000
00000000
00100000
00000000
00000000
00000000
10000000
00010000
10000000
00000000
01000000
00000000
00000000
00000000
00100000
00010000
,
00100000
00001000
00100000
00000000
00001000
00010000
00001000
00000000
00010000
00000100
00010000
00000000
00000100
00000010
00000100
00000010
,
00000001
00000000
00000100
00000000
00000010
00000000
00001000
00000100
00001000
00000000
00000100
00000000
00010000
00000000
00001000
00010000
,
00001000
00000000
01000000
00000000
00010000
00000000
01000000
00100000
01000000
00000000
00100000
00000000
10000000
00000000
01000000
00100000
,
02000000
03100000
00002000
00013000
00000200
00000310
00000002
00000103
,
00002000
00000000
00000000
00000000
00013000
00001000
00000000
00010000
00001000
00010000
00001000
00010000
00000100
00010000
00000100
00010000
,
00001000
00000000
00100000
00000000
00001000
00010000
00001000
00010000
00000100
00000000
00000010
00000001
00000000
00000001
00000200
00000000
,
00000000
00000000
00000010
00000000
00000310
00000000
00001000
00000100
00000010
00000000
00001000
00010000
00000000
00010000
02000000
00000000
,
00000000
00000000
13000000
00000000
00100000
10000000
00100000
10000000
00010000
00000000
10000000
01000000
00000000
01000000
00020000
00000000
,
00000000
00000000
00031000
00000000
00010000
00000000
00001000
00000000
00000100
00000000
00000010
00010000
00000000
00010000
00001000
00000000
,
00010000
00000000
00000010
00000000
00010000
00001000
00010000
00001000
01000000
00000000
00100000
10000000
00000000
10000000
02000000
00000000
,
00000000
00000000
00100000
00000000
03100000
00000000
00010000
01000000
00100000
00000000
00010000
00001000
00000000
00001000
00000200
00000000
,
00000000
00000000
00000301
00000000
00000010
00000001
00000010
00000001
00001000
00000000
00000001
00000100
00000000
00000100
00002000
00000000
,
00000000
00000000
00013000
00000000
00001000
00000000
00010000
00000000
01000000
00000000
00100000
00001000
00000000
00001000
00010000
00000000
,
00001000
00000000
00001000
00000000
00010000
00000000
00001000
00000020
00000000
00000031
00000000
00000100
00000000
00001000
00010000
00000000
,
00200000
00000000
00310000
00000000
00000020
00000000
00001030
00000200
00000000
00010300
00000000
00001000
00000000
00100000
00001000
00000000
,
00010000
00000000
00010000
00000000
00001000
00000000
00010000
02000000
00000000
03010000
00000000
00000200
00000000
00001300
00000010
00000000
,
00000200
00000000
00001300
00000000
00010000
00000000
01000000
20000000
00000000
00000000
00000000
31000000
00000000
00100000
00001000
00000000
,
00010000
00000000
00010000
00000000
00001000
00000000
00010000
02000000
00000000
13000000
00000000
00100000
00000000
00010000
00001000
00000000
,
00000200
00000000
00001300
00000000
00020000
00000000
00031000
00200000
00000000
00301000
00000000
00010000
00000000
00000100
00010000
00000000
,
00001000
00000000
00001000
00000000
00010000
00000000
00001000
00000020
00000000
00001030
00000000
00200000
00000000
00310000
01000000
00000000
,
00200000
00000000
00310000
00000000
00002000
00000000
00003010
00000002
00000000
00000103
00002000
00000000
00013000
00200000
00000000
20300000
,
02000000
00000000
00000000
00000000
,
00000000
00000000
00000000
00000000
,
00000000
00000000
00000000
00000000
,
00000000
00000000
00000000
00000000
,
33000000
00000000
00000000
00000000
;
