#TITLE:PUNANI;
#SUBTITLE:;
#ARTIST:6IX9INE;
#TITLETRANSLIT:;
#SUBTITLETRANSLIT:;
#ARTISTTRANSLIT:;
#GENRE:;
#CREDIT:;
#MUSIC:PUNANI.ogg;
#BANNER:;
#BACKGROUND:;
#CDTITLE:;
#SAMPLESTART:14.911;
#SAMPLELENGTH:15.000;
#SELECTABLE:YES;
#OFFSET:-0.217;
#BPMS:0.000=98.000
,123.000=49.000
,124.000=98.000
;
#STOPS:64.000=0.918
,64.500=0.918
,124.000=0.918
,124.500=0.918
;
#BGCHANGES:;
#FGCHANGES:;

//--------------- dance-single - eataninja ----------------
#NOTES:
     dance-single:
     eataninja:
     Beginner:
     1:
     0,0,0,0,0:
0000
0000
0000
0000
,
0000
0000
0000
0000
,
0000
0000
0000
0000
,
0000
0000
0000
0000
,
1001
0000
0000
0000
,
1001
0000
0000
0000
,
0100
0000
0100
0000
,
0010
0000
0010
0000
,
0100
0000
0100
0000
,
0010
0000
0010
0000
,
1000
0000
0000
0000
,
0001
0000
0000
0000
,
0010
0000
0000
0000
,
0100
0000
0000
0000
,
1000
0000
0000
0000
,
0001
0000
0000
0000
,
2002
3003
1000
1000
,
0000
0100
0000
0100
,
0000
0010
0000
0010
,
0000
0100
0000
0100
,
0000
0010
0000
0010
,
0000
0001
0000
0000
,
0000
1000
0000
0000
,
0000
0010
0000
0000
,
0000
2002
0000
3003
,
0000
1001
0000
0000
,
0000
1000
0000
0000
,
0000
0001
0000
0000
,
0000
0010
0000
0000
,
0000
0100
0000
0000
,
0000
1000
0000
0000
,
2002
3003
0001
0001
,
0000
0000
0000
0000
,
0000
0000
0000
0000
,
0000
1001
0000
0000
,
0000
1001
0000
0000
,
0000
0001
0000
0010
,
0000
0100
0000
1000
,
0000
0010
0000
0100
,
0000
0001
0001
0001
,
0000
1001
0000
0000
;

//--------------- dance-single - eataninja ----------------
#NOTES:
     dance-single:
     eataninja:
     Easy:
     5:
     0,0,0,0,0:
0000
0000
0000
0000
,
0000
0000
0000
0000
,
0000
0000
0000
0000
,
0000
0000
0000
0000
,
1001
0000
0000
0000
,
1001
0000
0110
0000
0100
0100
0100
0000
,
0001
0010
1000
0100
,
0001
0010
1000
0010
,
0001
0100
1000
0010
,
0001
0100
1000
0100
,
0010
0100
0010
0000
1000
0000
0001
0000
,
0010
0100
0010
0000
0001
0000
1000
0000
,
0010
0000
0110
0000
0001
1000
0001
0000
,
0010
0000
0110
0000
1000
1000
1000
0000
,
0001
0100
1000
0100
,
0001
0010
0100
0100
,
2002
3003
2002
3003
1001
0000
0000
0000
0110
0000
0000
0000
0010
0000
0010
0000
,
0010
1000
0010
0001
,
0100
1000
0010
0001
,
0010
1000
0100
0001
,
0010
1000
0100
0001
,
0100
0010
0000
0010
,
0011
1000
0000
0010
,
1010
0001
0000
0100
,
0101
1000
1000
1000
,
0000
0000
1001
0000
0000
0110
0000
0000
,
0000
0000
0100
0010
0100
0000
0001
1000
,
0001
0000
0010
0000
0100
0000
1000
0001
,
1000
0010
0100
1001
,
0000
0000
1000
0000
0100
0000
0010
0100
,
0100
1000
0001
0100
,
2002
3003
2002
3003
1001
0000
0000
0000
0110
0000
0000
0000
0001
0000
1000
0000
,
1000
0000
0000
0000
,
0000
0000
0000
0000
,
0000
1001
0000
0000
,
0000
1001
1001
0110
,
0000
0100
0001
0010
,
0200
0310
0001
0100
,
2000
3100
0010
1000
,
0100
1001
1001
1001
,
0000
0110
0000
0000
;

//--------------- dance-single - eataninja ----------------
#NOTES:
     dance-single:
     eataninja:
     Medium:
     8:
     0,0,0,0,0:
0000
0000
0000
0000
,
0000
0000
0000
0000
,
0000
0000
0000
0000
,
0000
0000
0000
0000
,
1001
0000
0000
0000
,
1001
0000
0110
0000
0100
0010
0010
1000
,
0001
0000
0000
0010
0100
0000
0000
0000
1000
0000
0010
0000
0100
0000
0000
0000
,
0001
0000
0000
0100
0010
0000
0000
0000
0100
0000
0001
0000
1000
0000
0000
0000
,
1001
0000
0000
0100
0010
0000
0000
0000
0001
0000
0100
0000
0010
0000
0000
0000
,
1000
0000
0000
0010
0100
0000
0000
0000
0001
0000
0001
0000
1000
0000
1000
0000
,
0100
0010
0001
1000
0010
0100
0010
0000
,
1000
0001
0010
0100
0100
0010
0001
0000
,
1000
0010
0001
0010
1000
0001
0010
0000
,
0100
0010
0001
1000
0010
0010
0100
0100
,
0001
0000
1000
0000
0010
0100
0000
0000
0100
0000
0010
0000
1000
0001
0000
0000
,
1000
0000
0100
0000
0010
0000
0001
0000
0100
0000
0100
0000
0010
0100
0000
0000
,
0220
0330
2002
3003
0110
0000
0000
0000
1001
0000
0000
0000
0001
0000
0010
0000
,
0010
0000
0100
0000
1000
0000
0000
1000
0001
0000
0100
0000
0010
0000
0010
0000
,
0100
0000
0000
0000
0001
0000
0000
0001
1000
0000
0100
0000
0001
0000
0100
0000
,
1000
0000
0001
0001
0100
0100
0010
0010
,
1000
1000
1010
0000
0011
0000
1001
0000
,
0000
0000
1000
0010
0001
0010
1000
0010
,
0100
0000
0001
0010
1000
0010
0001
0010
,
0100
0000
1000
0010
0001
0010
1000
0010
,
0100
0000
0110
0000
1001
0000
0010
0100
,
0100
0000
1100
0000
0000
0101
0000
0000
,
0000
0000
2000
0001
3001
2000
0001
3001
,
0100
0000
0020
1000
1030
0020
0100
0130
,
0001
0000
2000
0100
3100
0010
1001
0000
,
0000
0000
1000
0010
0001
0010
0100
0001
,
0001
1000
0100
0010
0001
0100
0010
0000
,
0220
0330
2002
3003
0001
0000
0100
0000
1000
0000
0010
0000
1001
0000
1000
0000
,
1000
0000
0000
0000
,
0000
0000
0000
0000
,
0000
1001
0000
0000
,
0000
1001
0110
1001
,
0000
0000
1000
0100
0001
1000
0010
0100
,
2000
0000
3001
0100
1000
0001
0010
0100
,
0002
0000
1003
1000
0010
0010
0100
0100
,
0001
0001
0101
0000
1100
0000
1010
0000
,
0000
1001
0000
0000
;

//--------------- dance-single - eataninja ----------------
#NOTES:
     dance-single:
     eataninja:
     Hard:
     13:
     0,0,0,0,0:
0000
0000
0000
0000
,
0000
0000
0000
0000
,
0000
0000
0000
0000
,
0000
0000
0000
0000
,
1001
0000
0000
0000
,
1001
0000
0000
0000
0110
0000
0000
0000
0010
1000
0002
0003
0002
0003
0010
0100
,
1000
0000
0000
0000
0000
0000
0000
0000
0000
0000
0000
0000
0000
1000
0000
0000
0010
0000
0000
0000
0000
0100
0000
0000
0010
0000
0000
0000
0000
0100
0000
0000
0000
0000
0000
0000
0000
0000
0001
0000
0000
0000
0000
0000
0000
0010
0000
0000
0100
0000
0000
0000
0000
0010
0000
0000
0100
0000
0000
0000
0000
1000
0000
0000
,
0001
0000
0000
0000
0000
0000
0000
0000
0000
0000
0000
0000
0000
0100
0000
0000
0010
0000
0000
0000
0000
0100
0000
0000
0010
0000
0000
0000
0000
0001
0000
0000
0000
0000
0000
0000
0000
0000
0010
0000
0000
0000
0000
0000
0000
0100
0000
0000
0001
0000
0000
0000
0000
0100
0000
0000
0010
0000
0000
0000
0000
0100
0000
0000
,
0001
0000
0000
0000
0000
0000
0000
0000
0000
0000
0000
0000
0000
0001
0000
0000
0010
0000
0000
0000
0000
0100
0000
0000
0010
0000
0000
0000
0000
0100
0000
0000
0000
0000
0000
0000
0000
0000
1000
0000
0000
0000
0000
0000
0000
0010
0000
0000
0100
0000
0000
0000
0000
0010
0000
0000
0100
0000
0000
0000
0000
0010
0000
0000
,
1000
0000
0000
0000
0000
0000
0000
0000
0000
0000
0000
0000
0000
0100
0000
0000
0010
0000
0000
0000
0000
0100
0000
0000
0010
0000
0000
0000
0000
1000
0000
0000
0000
0000
0000
0000
0000
0000
0010
0000
0000
0000
0000
0000
0000
0100
0000
0000
1000
0000
0000
0000
0000
0100
0000
0000
0010
0000
0000
0000
0000
0100
0000
0000
,
2000
0000
3001
0000
0101
0000
0100
0010
0100
0010
1000
0000
0001
0010
0100
1000
,
0001
0100
1000
0100
0001
0000
0010
0100
0010
0100
1000
0000
0002
0000
0103
0000
,
0010
0100
0010
0000
1001
0000
1000
0100
0001
0100
0010
0000
0001
1000
0010
0100
,
0001
0010
0100
1000
0001
0000
0100
0010
1000
0000
1000
0000
0001
0000
0001
0000
,
1000
0100
1000
0100
0001
0200
0000
0310
0001
1000
0010
0000
0100
0020
0000
0130
,
0001
1000
0001
0010
1000
0010
0001
0000
1000
0010
0100
0010
1000
0002
0000
0003
,
0220
0330
2002
3003
0001
0100
0001
0000
1000
0001
1000
0001
0010
0000
0200
0300
,
0200
0000
0000
0000
0300
0000
0000
0000
0010
0000
0000
0000
0001
0000
0000
0000
1000
0000
0000
0000
0000
0000
0000
0000
0000
0000
0000
0000
0000
0010
0000
0000
0100
0000
0000
0000
0000
0001
0000
0000
0100
0000
0000
0000
0000
0010
0000
0000
0000
0000
0000
0000
0000
0000
1000
0000
0000
0000
0000
0000
0000
0100
0000
0000
,
0010
0000
0000
0000
0000
0100
0000
0000
0010
0000
0000
0000
0000
0001
0000
0000
1000
0000
0000
0000
0000
0000
0000
0000
0000
0000
0000
0000
0000
0010
0000
0000
1000
0000
0000
0000
0000
0010
0000
0000
0100
0000
0000
0000
0000
1000
0000
0000
0000
0000
0000
0000
0000
0000
0100
0000
0000
0000
0000
0000
0000
0100
0000
0000
,
0010
0000
0000
0000
0000
1000
0000
0000
0001
0000
0000
0000
0000
0100
0000
0000
0001
0000
0000
0000
0000
0000
0000
0000
0000
0000
0000
0000
0000
0010
0000
0000
0100
0000
0000
0000
0000
1000
0000
0000
0100
0000
0000
0000
0000
0010
0000
0000
0000
0000
0000
0000
0000
0000
0001
0000
0000
0000
0000
0000
0000
0100
0000
0000
,
0010
0000
0000
0000
0000
0100
0000
0000
0010
0000
0000
0000
0000
1000
0000
0000
0001
0000
0000
0000
0000
0000
0000
0000
0000
0000
0000
0000
0000
0010
0000
0000
0001
0000
0000
0000
0000
0010
0000
0000
0100
0000
0000
0000
0000
0001
0000
0000
0000
0000
0000
0000
0000
0000
0100
0000
0000
0000
0000
0000
0000
0100
0000
0000
,
0010
0000
0000
0000
0000
0001
0000
0000
1000
0000
0000
0000
0000
0100
0000
0000
0010
0000
0000
0000
0000
0000
0000
0000
0011
0000
0000
0000
0000
0000
0000
0000
1000
0000
0000
0000
0000
0000
0000
0000
0010
0000
0000
0000
0000
0000
0000
0000
0110
0000
0000
0000
0000
0000
0000
0000
0001
0000
0000
0000
0000
0000
0000
0000
,
1002
2003
3010
1010
0001
0010
0110
1000
,
2001
3002
0103
0101
1000
0100
0110
0001
,
2001
3010
0110
0000
1001
0000
0101
1000
,
1100
0000
0000
0000
1000
0010
1000
0010
0001
0000
100M
0010
1000
0010
0100
0000
,
0001
0010
0100
1000
0001
0010
0001
0010
1000
0000
M001
0010
0001
0010
0100
0000
,
1000
0010
0001
0010
0100
0001
0100
0001
1000
0000
M100
0010
0100
0010
1000
0000
,
0001
0010
0100
0000
1000
0001
0100
0010
0100
0000
1M00
0001
0010
0000
0100
1000
,
0002
0000
0103
0000
0010
1000
0001
1000
0100
0000
0001
0100
1000
0000
0010
0000
,
0010
0000
0100
0010
1000
0000
0001
0000
0100
0010
1000
0001
0010
0000
MMMM
0000
,
0220
0330
2002
3003
1000
0010
1000
0010
0100
0001
0100
0001
0010
0100
2000
3000
,
2000
0000
0000
0000
3000
0000
0000
0000
0001
0000
0000
0000
1000
0000
0000
0000
0010
0000
0000
0000
0000
0000
0000
0000
0000
0000
0000
0000
0000
0100
0000
0000
1000
0000
0000
0000
0000
0100
0000
0000
1000
0000
0000
0000
0000
0100
0000
0000
0000
0000
0000
0000
0000
0000
0010
0000
0000
0000
0000
0000
0000
0100
0000
0000
,
1000
0000
0000
0000
0000
0100
0000
0000
0001
0000
0000
0000
0000
0100
0000
0000
0010
0000
0000
0000
0000
0000
0000
0000
0000
0000
0000
0000
0000
0010
0000
0000
1000
0000
0000
0000
0000
0100
0000
0000
0010
0000
0000
0000
0000
0001
0000
0000
0000
0000
0000
0000
0000
0000
0010
0000
0000
0000
0000
0000
0000
0100
0000
0000
,
0010
0000
0000
0000
0000
0100
0000
0000
1000
0000
0000
0000
0000
0001
0000
0000
0100
0000
0000
0000
0000
0000
0000
0000
0000
0000
0000
0000
0000
0010
0000
0000
0001
0000
0000
0000
0000
0010
0000
0000
0001
0000
0000
0000
0000
0010
0000
0000
0000
0000
0000
0000
0000
0000
0100
0000
0000
0000
0000
0000
0000
0010
0000
0000
,
0001
0000
0000
0000
0000
0010
0000
0000
1000
0000
0000
0000
0000
0010
0000
0000
0100
0000
0000
0000
0000
0000
0000
0000
0000
0000
0000
0000
0000
0100
0000
0000
0001
0000
0000
0000
0000
0010
0000
0000
0100
0000
0000
0000
0000
1000
0000
0000
0000
0000
0000
0000
0000
0000
0100
0000
0000
0000
0000
0000
0000
0010
0000
0000
,
0100
0000
0000
0000
0000
0010
0000
0000
0001
0000
0000
0000
0000
1000
0000
0000
0010
0000
0000
0000
0000
0000
0000
0000
0010
0000
0000
0000
0000
0000
0000
0000
0100
0000
0000
0000
0000
0000
0000
0000
0100
0000
0000
0000
0000
0000
0000
0000
0001
0000
0000
0000
0000
0000
0000
0000
1000
0000
0000
0000
0000
0000
0000
0000
,
1200
0302
0103
0100
0010
0010
0001
1000
,
1020
0032
0013
0010
0100
0100
0001
1000
,
1200
0301
0101
0000
1100
0000
1010
0000
,
0020
0130
1001
0000
0000
0000
0000
0000
;
