#TITLE:POP!;
#SUBTITLE:;
#ARTIST:NAYEON;
#TITLETRANSLIT:;
#SUBTITLETRANSLIT:;
#ARTISTTRANSLIT:;
#GENRE:;
#CREDIT:;
#MUSIC:POP.ogg;
#BANNER:POP.png;
#BACKGROUND:POP-bg.png;
#CDTITLE:;
#SAMPLESTART:35.391;
#SAMPLELENGTH:14.845;
#SELECTABLE:YES;
#OFFSET:-0.752;
#BPMS:0.000=97.000;
#STOPS:;
#BGCHANGES:-1.216=POP.avi=1.000=1=0=0=StretchNoLoop==CrossFade==;
#FGCHANGES:;

//--------------- dance-single - ----------------
#NOTES:
     dance-single:
     :
     Beginner:
     1:
     0,0,0,0,0:
0000
0000
0000
0000
,
0000
0000
0000
0000
,
1000
0000
0000
0000
,
1000
0000
0000
0000
,
0001
0000
0000
0000
,
0001
0000
0000
0000
,
0100
0000
0000
0000
,
0100
0000
0000
0000
,
0010
0000
0000
0000
,
0010
0000
0000
0000
,
1001
0000
0000
0000
,
0110
0000
0000
0000
,
1001
0000
1000
0000
,
0001
0001
0001
0000
,
1000
0000
1000
0000
,
0001
0000
0001
0000
,
1001
0000
0000
0000
,
0110
0000
1001
0000
,
0001
0000
0001
0000
,
1000
0000
1000
0000
,
1001
0000
0000
0000
,
0110
0000
0000
0000
,
1001
0000
0100
0000
,
0110
0000
0010
0000
,
1001
0000
0001
0000
,
1000
0000
0000
0000
,
0100
0000
0000
0000
,
1000
0000
0000
0000
,
0001
0000
0000
0000
,
0100
0000
0000
0000
,
1000
0000
0000
0000
,
0100
0000
0000
0000
,
0010
0000
0000
0000
,
0001
0001
0001
0000
,
1000
0000
1000
0000
,
0001
0000
0001
0000
,
1001
0000
0000
0000
,
0110
0000
0000
0000
,
1001
0000
0001
0000
,
1000
0000
1000
0000
,
1001
0000
0000
0000
,
0110
0000
0000
0000
,
1001
0000
0000
0000
,
0100
0000
0000
0000
,
0010
0000
0000
0000
,
1000
0000
0000
0000
,
1001
0000
0000
0000
;

//--------------- dance-single - ----------------
#NOTES:
     dance-single:
     :
     Easy:
     4:
     0,0,0,0,0:
0000
0000
0000
0000
,
0000
0000
0000
0000
,
1000
0001
1000
0001
,
0100
0010
0100
0000
,
1001
0000
1000
0001
,
0010
0100
0010
0000
,
1001
1000
0100
0200
,
0300
0001
0100
0200
,
0300
0001
1000
0001
,
1000
0100
0010
0001
,
1001
0000
0000
0010
,
0110
0000
0000
1000
,
1001
0000
1000
0100
,
0010
0010
0020
0030
,
1001
0001
0100
0001
,
1000
0100
1000
0001
,
1000
0010
2002
3003
,
0001
0010
2002
3003
,
0001
0100
0010
1000
,
0100
0010
0001
1000
,
0010
0100
0220
0330
,
0001
1000
2002
3003
,
0000
0000
0000
0000
0000
0001
0002
0003
,
0000
0000
0000
0000
0000
1000
2000
3000
,
0000
0000
0000
0000
0000
0100
0200
0300
,
0000
0000
0000
0000
,
2000
0000
3010
0000
1000
0001
1000
0000
,
0002
0000
0103
0000
0001
1000
0001
0000
,
0200
0000
0310
0000
0100
0001
0100
0000
,
0002
1003
1001
0110
,
1001
0000
0000
0000
,
1000
0000
0000
0000
,
0100
0000
0000
0000
,
0010
0000
0001
0000
,
1001
1000
0100
1000
,
0001
0100
0001
1000
,
0001
0010
2002
3003
,
1000
0010
2002
3003
,
1000
0100
0010
0001
,
0100
0010
1000
0001
,
0010
0100
0220
0330
,
1000
0001
2002
3003
,
0000
0000
0000
0000
0000
1000
2000
3000
,
0000
0000
0000
0000
0000
0001
0002
0003
,
0000
0000
0000
0000
0000
0100
0200
0300
,
0010
1000
0001
0010
,
0110
0000
0000
0000
;

//--------------- dance-single - ----------------
#NOTES:
     dance-single:
     :
     Medium:
     9:
     0,0,0,0,0:
0000
0000
0000
0000
,
0000
0000
0000
0000
,
2000
0010
0010
3001
0100
0010
1000
0001
,
1000
0100
0010
0100
2000
0000
3000
0110
,
1001
0002
0010
0010
1003
0100
0010
0001
,
0100
0001
0100
0000
0010
0000
1000
0000
0200
0000
0000
0000
0300
0000
0110
0000
,
1001
0000
1000
0000
0000
0100
0000
0000
0001
0000
0100
0000
1000
0000
0010
0000
,
1000
0000
0001
0000
0000
0100
0000
0000
1000
0000
0100
0000
0001
0000
0010
0000
,
0001
1000
1000
0001
0010
0001
0100
0001
,
1000
0100
1000
0000
0001
0000
1000
0000
2002
0000
0000
0000
3003
0000
1001
0000
,
0001
0000
0100
0000
0010
0000
1000
0000
0001
0000
0010
0000
0100
1000
0010
0000
,
1000
0000
0100
0000
0010
0000
0001
0000
1000
0000
0001
0000
0100
0001
0010
0000
,
0110
1100
0000
0000
1010
0102
1003
0000
,
2000
0000
3100
0000
0002
0000
0103
0000
1000
0000
0100
0000
0010
0001
1000
0000
,
0001
0000
1000
0010
0000
0010
1000
0000
0001
0000
0100
0000
0010
0000
1000
0000
,
0100
0000
0010
0001
0000
0001
0010
0000
0100
0000
1000
0000
0001
1000
0001
1000
,
0001
0000
0110
0000
1001
0000
0000
0000
2100
0000
0000
0010
0000
0000
3100
0000
,
0002
0203
0320
2030
3002
0023
2030
3020
,
0031
0000
1000
0100
0000
0100
1000
0000
0100
0000
0010
0000
0001
0000
1000
0000
,
0001
0000
0100
0010
0000
0010
0100
0000
0001
0000
1000
0000
0100
0010
0100
0010
,
0100
0000
0110
0000
1001
0000
0000
0000
0102
0000
0000
0010
0000
0000
0103
0000
,
2000
3200
0320
0032
2003
3020
0032
0023
,
1030
0000
0001
0100
0000
0202
0000
0000
0303
0000
0001
0000
0100
0000
1000
0000
,
0100
0000
0001
1000
0000
2200
0000
0000
3300
0000
1000
0000
0100
0000
0001
0000
,
0100
0000
1000
0010
0000
2020
0000
0000
3030
0000
1000
0000
0010
0000
0001
0000
,
0020
0000
1030
0001
0000
2002
0000
0000
3003
0000
0000
0000
0000
0000
0000
0000
,
0002
0000
0000
0100
0000
0000
0103
0000
0001
0010
0001
0000
0010
0000
0100
0000
,
2000
0000
0000
0100
0000
0000
0100
0000
3010
0000
0100
0000
0001
0000
1000
0000
,
1002
0000
0000
0100
0000
0000
1003
0000
1000
0001
1000
0000
0010
0000
0100
0000
,
0001
0000
0010
0000
0001
0000
0100
0000
0101
0000
0000
1100
0000
0000
0101
0000
,
1001
0000
0000
0000
1000
0000
0100
0000
0010
0000
0001
0000
1000
0001
0010
0000
,
1001
0000
0000
0000
0001
0000
0100
0000
0010
0000
1000
0000
0001
1000
0010
0000
,
1001
0000
0000
0000
1000
0000
0100
0000
0001
0000
0100
0000
1000
0001
0100
0000
,
0101
0000
0000
0000
1010
0000
0000
0000
1200
0000
0000
0001
0000
0000
1300
0000
,
1000
0000
0001
0010
0000
0010
0001
0000
1000
0000
0100
0000
0010
0000
0001
0000
,
0100
0000
0001
1000
0000
1000
0001
0000
0010
0000
0100
0000
1000
0001
1000
0001
,
1000
0000
0110
0000
1001
0000
0000
0000
0102
0000
0000
0010
0000
0000
0103
0000
,
2000
3200
0320
0032
2003
3020
0032
0023
,
1030
0000
0001
0100
0000
0100
0001
0000
0100
0000
0010
0000
1000
0000
0001
0000
,
1000
0000
0100
0010
0000
0010
0100
0000
1000
0000
0001
0000
0100
0010
0100
0010
,
0100
0000
0110
0000
1001
0000
0000
0000
2100
0000
0000
0010
0000
0000
3100
0000
,
0002
0203
0320
2030
3002
0023
2030
3020
,
0031
0000
1000
0100
0000
2200
0000
0000
3300
0000
1000
0000
0100
0000
0001
0000
,
0100
0000
1000
0001
0000
0202
0000
0000
0303
0000
0001
0000
0100
0000
1000
0000
,
0100
0000
0001
0010
0000
0022
0000
0000
0033
0000
0001
0000
0010
0000
1000
0000
,
0020
0000
0031
1000
0000
2002
0000
0000
3003
0000
1000
0000
0010
0000
0110
0000
,
1001
0000
0000
0000
;

//--------------- dance-single - ----------------
#NOTES:
     dance-single:
     :
     Hard:
     13:
     0,0,0,0,0:
0000
0000
0000
0000
,
0000
0000
0000
0000
,
1000
0000
0001
0000
0100
0010
0100
0000
0001
0000
1000
0100
0000
0100
1000
0000
,
0001
0000
1000
0010
0000
0010
0100
0000
0001
0000
1000
0010
0000
1000
0010
0000
,
1001
0000
1000
0000
0100
0010
0100
0000
1000
0000
0001
0100
0000
0100
0001
0000
,
1000
0001
1000
0001
1000
0100
0010
0001
0200
0000
0301
0010
0000
0001
0010
0000
,
2001
0000
3100
0000
0010
0001
1000
0000
0002
0000
0203
0000
2300
0000
3200
0000
,
0302
0000
2003
0000
3010
1000
0001
0000
2000
0000
3200
0000
0302
0000
0203
0000
,
1300
0000
2001
0000
3100
0010
0001
0000
1000
0000
0010
0100
0000
0100
0001
0000
,
1000
0100
1000
0100
0010
0001
2000
0000
3001
0000
1000
0010
0000
0100
0001
0000
,
2001
0000
3100
0000
0010
0000
0001
0000
0100
0000
0001
0000
1000
0001
0010
0000
,
1002
0000
0103
0000
0010
0000
1000
0000
0100
0000
1000
0000
0001
1000
0010
1000
,
0020
0000
0230
0000
0301
0010
0001
0010
0200
0000
2300
0000
0002
0000
3003
0000
,
1000
0000
1100
0000
0001
0000
0101
0000
1000
0000
1010
0000
0010
1000
0001
0000
,
1002
0000
1003
0010
0000
0010
0100
0000
0001
0000
1000
0100
0000
0010
0001
0000
,
2001
0000
0100
0000
0010
0000
0100
0000
3001
0000
1000
0001
0010
0100
1000
0001
,
0100
0000
0101
0000
2200
0000
3300
0000
2001
0000
3100
0010
0000
0100
1000
0000
,
0001
0000
1000
0010
0M00
0010
0002
0000
1003
0001
1000
0001
0010
0100
1000
0000
,
2001
0000
3001
0010
0000
0010
0100
0000
1000
0000
0001
0100
0000
0010
1000
0000
,
1002
0000
0100
0000
0010
0000
0100
0000
1003
0000
0001
1000
0010
0100
0001
1000
,
0100
0000
1100
0000
0202
0000
0303
0000
1002
0000
0103
0010
0000
0100
0001
0000
,
1000
0000
0001
0010
0M00
0010
2000
0000
3001
1000
0001
1000
0010
0100
0001
0010
,
0200
0000
1300
0001
0000
0001
0000
0000
1000
0200
0010
0000
1300
0000
1100
0000
,
1001
0000
0001
1000
0000
1000
0000
0000
0001
0200
0010
0000
0301
0000
0101
0000
,
1001
0000
0001
0010
0M00
0010
2000
0000
3200
0000
0302
0000
0203
0000
2300
0000
,
3001
0000
1000
0010
0M00
0010
0002
0000
0203
0000
0320
0000
2030
0000
3002
0000
,
1003
0001
1000
0001
0000
0000
1000
0100
0010
0001
0010
0100
1000
0000
0001
0000
,
0100
0001
0100
0001
0020
0000
0130
1000
0010
0000
0010
0100
0001
0000
1000
0000
,
0001
1000
0001
1000
0000
0000
0001
0100
0010
1000
0010
0100
0001
0000
1000
0000
,
0001
0100
0001
0000
1000
0000
0100
0000
1001
0000
0000
0110
0000
0000
0110
0000
,
2002
3003
0000
0000
0000
0000
0000
0000
,
2200
3300
0000
0000
0000
0000
0000
0000
,
0202
0303
0000
0000
0000
0000
0000
0000
,
2020
0000
3030
0000
0022
0000
0033
0000
1001
0000
0000
0110
0000
0000
1001
0000
,
1002
0000
1003
0010
0000
0100
0001
0000
1000
0000
0001
0010
0000
0001
1000
0000
,
0201
0000
0010
0000
1000
0000
0010
0000
0001
0000
0310
1000
0001
1000
0001
0010
,
0100
0000
0011
0000
2020
0000
3030
0000
2001
0000
3100
0001
0000
0100
0010
0000
,
0001
0000
1000
0010
0M00
0010
0002
0000
1003
0001
1000
0001
0010
0100
1000
0000
,
2001
0000
3001
0010
0000
0100
1000
0000
0001
0000
1000
0010
0000
1000
0001
0000
,
1200
0000
0010
0000
0001
0000
0010
0000
1000
0000
0310
0001
1000
0001
1000
0010
,
0100
0000
1010
0000
0022
0000
0033
0000
1002
0000
0103
1000
0000
0100
0010
0000
,
1000
0000
0001
0010
0M00
0010
2000
0000
3001
0100
0001
1000
0001
0010
0100
1000
,
0020
0000
0130
0001
0000
0001
0000
0000
1000
0002
0010
0000
1003
0000
1001
0000
,
0001
0010
0100
1000
0000
1000
0000
0000
0001
2000
0010
0000
3001
0000
1001
0000
,
1000
0100
0010
0001
0000
0001
0000
0000
1000
0010
0100
0000
0101
0000
1001
0000
,
2000
3002
0203
0320
2030
3002
0013
0110
,
2002
3003
0000
0000
;
