#TITLE:PISTOL IN MY POCKET;
#SUBTITLE:;
#ARTIST:LANA PELLAY;
#TITLETRANSLIT:;
#SUBTITLETRANSLIT:;
#ARTISTTRANSLIT:;
#GENRE:DANCEMANIA;
#CREDIT:;
#BANNER:pistolinmypocket.png;
#BACKGROUND:pistolinmypocket-bg.png;
#LYRICSPATH:;
#CDTITLE:;
#MUSIC:pistolinmypocket.ogg;
#OFFSET:-0.004143;
#SAMPLESTART:43.150002;
#SAMPLELENGTH:12.000000;
#SELECTABLE:YES;
#BPMS:0.000000=133.500000
;
#STOPS:
;
#BGCHANGES:;
#KEYSOUNDS:;
#ATTACKS:;

//---------------dance-single - ----------------
#NOTES:
     dance-single:
     :
     Hard:
     11:
     0.517999,0.499568,0.168882,0.000000,0.208619,365.000000,348.000000,17.000000,0.000000,0.000000,0.000000,0.517999,0.499568,0.168882,0.000000,0.208619,365.000000,348.000000,17.000000,0.000000,0.000000,0.000000:
// measure 0
0000
0000
0000
0000
,  // measure 1
0000
0000
0000
0000
,  // measure 2
0000
0000
0000
0000
,  // measure 3
0000
0000
0000
0000
,  // measure 4
1000
0010
1000
0000
0001
0100
0001
0000
,  // measure 5
0100
1000
0100
0001
0010
0100
1000
0000
,  // measure 6
0100
0001
0100
0000
1000
0100
1000
0000
,  // measure 7
1001
0000
0000
0000
1000
0100
0001
0010
,  // measure 8
1000
0000
1000
0000
0001
0100
1000
0100
,  // measure 9
0010
0000
1000
0000
0010
0000
0000
0000
1000
0000
0001
0010
0000
0001
0010
0000
,  // measure 10
0100
0000
1000
0000
0001
0000
0000
0000
0001
0000
0100
1000
0000
0100
0001
0000
,  // measure 11
0100
0000
0010
0000
1000
0000
0000
0000
1000
0000
0100
0001
0000
0100
0010
0000
,  // measure 12
0001
0000
0001
0000
1000
0100
0001
0100
,  // measure 13
0010
0000
0001
0000
0010
0000
0000
0000
0001
0000
1000
0010
0000
1000
0010
0000
,  // measure 14
0100
0000
0001
0000
1000
0000
0000
0000
1000
0000
0100
0001
0000
0100
1000
0000
,  // measure 15
0100
0000
0010
0000
0001
0000
0000
0000
0001
0000
0100
1000
0000
0100
0010
0000
,  // measure 16
1000
0000
0000
0010
1000
0000
0000
0001
1000
0000
0000
0100
1000
0000
0000
0001
,  // measure 17
1000
0000
0000
0010
1000
0000
0000
0010
0100
0000
0000
0001
0100
0000
0000
0000
,  // measure 18
0001
0100
1000
0000
0100
0100
1010
0000
,  // measure 19
1000
0100
0001
0000
0100
0100
0011
0000
,  // measure 20
0001
0000
0000
0010
0001
0000
0000
1000
0001
0000
0000
0100
0001
0000
0000
1000
,  // measure 21
0001
0000
0000
0010
0001
0000
0000
0010
0100
0000
0000
1000
0100
0000
0000
0000
,  // measure 22
1000
0100
1000
0100
0001
0100
0001
0100
,  // measure 23
1000
0000
1000
0000
0001
0000
0001
0000
0100
0010
0100
0000
0110
0000
0000
0000
,  // measure 24
1000
0010
1000
0000
0001
0100
0001
0000
,  // measure 25
0100
1000
0100
0001
0010
0100
1000
0000
,  // measure 26
0100
0001
0100
0000
1000
0100
1000
0000
,  // measure 27
0001
0001
1000
1000
0100
0010
0110
0000
,  // measure 28
0001
0010
0001
0000
1000
0100
1000
0000
,  // measure 29
0100
0001
0100
1000
0010
0100
0001
0000
,  // measure 30
0100
1000
0100
0000
0001
0100
0001
0000
,  // measure 31
1000
0100
1000
0100
0010
0001
0010
0001
,  // measure 32
1000
0010
0100
0001
1000
0000
0000
1100
,  // measure 33
0000
1000
0010
0100
0001
0000
0000
1100
,  // measure 34
0000
1000
0010
0100
0001
0000
0000
1100
,  // measure 35
0000
0100
0001
0100
1000
0010
0100
0101
,  // measure 36
0000
0001
0010
0100
1000
0000
0000
0101
,  // measure 37
0000
0001
0010
0100
1000
0000
0000
0101
,  // measure 38
0000
0001
0010
0100
1000
0000
0000
0101
,  // measure 39
0000
0100
1000
0100
0001
0010
0100
1000
,  // measure 40
0100
0000
0000
1000
0100
0000
0000
0010
0100
0000
0000
0001
0100
0000
0000
0010
,  // measure 41
0100
0000
0000
1000
0001
0000
0000
0100
0010
0000
0000
1000
0010
0000
0000
0000
,  // measure 42
1000
0010
0001
0000
0010
0010
0101
0000
,  // measure 43
0001
0010
1000
0000
0010
0010
1100
0000
,  // measure 44
0100
0000
0000
1000
0100
0000
0000
0010
0100
0000
0000
0001
0100
0000
0000
0010
,  // measure 45
0100
0000
0000
1000
0001
0000
0000
0100
0010
0000
0000
1000
0010
0000
0000
0000
,  // measure 46
1000
0010
1000
0010
0001
0010
0001
0010
,  // measure 47
1000
0000
1000
0000
0001
0000
0001
0000
0100
0010
0100
0000
0110
0000
0000
0000
,  // measure 48
1000
0010
1000
0000
0001
0100
0001
0000
,  // measure 49
0100
1000
0100
0001
0010
0100
1000
0000
,  // measure 50
0100
0001
0100
0000
1000
0100
1000
0000
,  // measure 51
0001
0001
1000
1000
0100
0010
0110
0000
,  // measure 52
0001
0010
0001
0000
1000
0100
1000
0000
,  // measure 53
0100
0001
0100
1000
0010
0100
0001
0000
,  // measure 54
0100
1000
0100
0000
0001
0100
0001
0000
,  // measure 55
1001
0000
0000
0000
1000
0100
0001
0010
;

//---------------dance-single - ----------------
#NOTES:
     dance-single:
     :
     Medium:
     8:
     0.363309,0.416307,0.327830,0.000000,0.000000,256.000000,223.000000,33.000000,0.000000,0.000000,0.000000,0.363309,0.416307,0.327830,0.000000,0.000000,256.000000,223.000000,33.000000,0.000000,0.000000,0.000000:
0000
0000
0000
0000
,
0000
0000
0000
0000
,
0000
0000
0000
0000
,
0000
0000
0000
0000
,
1000
1100
0001
0101
,
1000
0001
1000
0001
0000
0000
0000
0000
,
1000
0010
0001
0100
,
1001
0000
0000
0000
0001
1000
0001
1000
,
0100
0000
1000
0000
0100
0010
0001
0000
,
0100
0000
0001
0000
0100
0010
1000
0000
,
0001
0001
0101
0000
,
1000
1000
1100
0001
,
0100
0000
0001
0000
0100
0010
1000
0000
,
0100
0000
1000
0000
0100
0010
0001
0000
,
1000
1000
1010
0000
,
0001
0001
0011
0000
,
1000
0100
1000
0001
,
1000
0010
1000
0001
,
0100
0000
1000
0000
0100
0010
0000
0110
,
0000
0000
1000
1000
,
0001
0100
0001
1000
,
0001
0010
0001
1000
,
0100
0001
0000
0000
0100
1000
0000
0000
,
0100
0010
0100
0010
0100
0000
0110
0000
,
0001
0011
1000
1010
,
0001
0010
0100
1000
,
0001
0101
1000
1100
,
0001
1000
0001
1000
0100
0010
0001
0000
,
0001
0011
1000
1010
,
0001
0010
0100
1000
,
0001
0101
1000
1100
,
0001
0100
1000
0010
,
0001
0000
1000
0010
0100
0000
0000
1010
,
0000
0000
1000
0010
0100
0000
0000
1010
,
0000
0000
1000
0010
0100
0000
0000
0101
,
0000
0000
0001
1000
0100
0010
0001
0011
,
0000
0000
0001
0010
0100
0000
0000
0011
,
0000
0000
0001
0010
0100
0000
0000
0011
,
0000
0000
0001
0010
0100
0000
0000
1100
,
0000
0000
1000
0001
0100
0010
1000
0000
,
0010
0001
0010
0100
,
0010
1000
0010
0100
,
0001
0000
1000
0000
0100
0010
0000
0110
,
0000
0000
0001
0001
,
0010
1000
0010
0100
,
0010
0001
0010
0100
,
1000
0100
0000
0000
0001
0100
0000
0000
,
0010
0100
0010
0100
0010
0000
0110
0000
,
1000
1100
0001
0101
,
0001
0100
0010
1000
,
0001
0011
1000
1010
,
0001
1000
0001
1000
0010
0100
0001
0000
,
1000
1100
0001
0101
,
1000
0100
0010
0001
,
1000
0010
0001
0100
,
1001
0000
0000
0000
0001
1000
0001
1000
;

//---------------dance-single - ----------------
#NOTES:
     dance-single:
     :
     Easy:
     6:
     0.309380,0.360799,0.377501,0.000000,0.000000,218.000000,180.000000,38.000000,0.000000,0.000000,0.000000,0.309380,0.360799,0.377501,0.000000,0.000000,218.000000,180.000000,38.000000,0.000000,0.000000,0.000000:
0000
0000
0000
0000
,
0000
0000
0000
0000
,
0000
0000
0000
0000
,
0000
0000
0000
0000
,
1000
1000
0001
0001
,
0101
0000
1001
0000
,
0001
0001
1000
1000
,
1100
0000
0000
0000
1000
0001
1000
0001
,
0100
0001
0100
0010
,
1010
0000
1001
0000
,
1000
0100
1000
1010
,
0001
0100
0001
0011
,
0100
1000
0100
0010
,
0011
0000
1001
0000
,
0001
0100
0001
0011
,
1000
0100
1000
1010
,
0001
0100
1000
0100
,
0001
0100
0010
1000
,
0001
0000
0001
0000
0010
0100
0000
1100
,
0000
0000
0000
0000
,
1000
0100
0001
0100
,
1000
0100
0010
0001
,
0011
0000
1010
0000
,
0001
1000
1001
0000
,
1000
1000
0001
0001
,
0101
0000
1001
0000
,
0001
0001
1000
1000
,
0100
0010
0100
0010
0100
0000
0110
0000
,
1000
1000
0001
0001
,
0101
0000
1001
0000
,
0001
0001
1000
1000
,
1100
0000
0110
0000
,
0011
1000
0001
0000
,
0011
1000
0001
0000
,
0011
1000
0001
0000
,
1000
0100
0010
0001
,
1010
0001
1000
0000
,
1010
0001
1000
0000
,
1010
0001
1000
0000
,
0001
0100
0010
1000
,
0001
0010
1000
0010
,
0001
0010
0100
1000
,
0001
0000
0001
0000
0100
0010
0000
1010
,
0000
0000
0000
0000
,
1000
0010
0001
0010
,
1000
0010
0100
0001
,
0101
0000
1100
0000
,
0001
1000
1001
0000
,
1000
1000
0001
0001
,
0101
0000
1001
0000
,
0001
0001
1000
1000
,
0100
0010
0100
0010
0100
0000
0110
0000
,
1000
1000
0001
0001
,
0101
0000
1001
0000
,
0001
0001
1000
1000
,
1100
0000
0000
0000
0001
1000
0001
1000
;
