#VERSION:0.83;
#TITLE:PHOENIX;
#SUBTITLE:;
#ARTIST:BURNOUT SYNDROMES;
#TITLETRANSLIT:;
#SUBTITLETRANSLIT:;
#ARTISTTRANSLIT:;
#GENRE:J-ROCK;
#ORIGIN:;
#CREDIT:;
#BANNER:PHOENIX.png;
#BACKGROUND:PHOENIX-bg.png;
#PREVIEWVID:;
#JACKET:PHOENIX-jacket.png;
#CDIMAGE:;
#DISCIMAGE:;
#LYRICSPATH:;
#CDTITLE:cdtitle.png;
#MUSIC:PHOENIX.ogg;
#OFFSET:-0.136000;
#SAMPLESTART:54.881001;
#SAMPLELENGTH:15.000000;
#SELECTABLE:YES;
#BPMS:0.000=137.000;
#STOPS:34.000=0.438,
79.000=0.438,
123.000=0.876;
#DELAYS:;
#WARPS:;
#TIMESIGNATURES:0.000=4=4;
#TICKCOUNTS:0.000=4;
#COMBOS:0.000=1;
#SPEEDS:0.000=1.000=0.000=0;
#SCROLLS:0.000=1.000;
#FAKES:;
#LABELS:0.000=Song Start;
#BGCHANGES:0.000=PHOENIX.avi=1.000=0=0=0=StretchNoLoop==CrossFade_Fastest==,
99999=-nosongbg-=1.000=0=0=0 // don't automatically add -songbackground-
;
#KEYSOUNDS:;
#ATTACKS:
;

//---------------dance-single - Daff_4K!!----------------
#NOTEDATA:;
#CHARTNAME:Daff_4K!!;
#STEPSTYPE:dance-single;
#DESCRIPTION:Daff_4K!!;
#CHARTSTYLE:;
#DIFFICULTY:Beginner;
#METER:1;
#RADARVALUES:0.088283,0.136938,0.022472,0.000000,0.000000,55.000000,53.000000,2.000000,0.000000,0.000000,0.000000,0.000000,0.000000,0.000000,0.088283,0.136938,0.022472,0.000000,0.000000,55.000000,53.000000,2.000000,0.000000,0.000000,0.000000,0.000000,0.000000,0.000000;
#CREDIT:Daff_4K!!;
#NOTES:
0000
0000
0000
0000
,
0000
0000
0000
0000
,
0000
0000
0000
0000
,
0000
0000
0000
0000
,
0000
0000
0000
0000
,
0000
0100
0000
0100
,
0000
0100
0000
0100
,
0100
0000
0000
0000
,
0000
0000
0000
0000
,
0000
0000
0000
1000
,
0000
0000
0000
0001
,
0000
0000
0000
0100
,
0000
0000
0000
0001
,
0000
0000
0000
0001
,
0000
0000
0000
1000
,
0000
0000
0000
1000
,
0000
0000
0000
0100
,
0000
0000
0000
0100
,
0000
0000
0000
1000
,
0000
0000
0001
0000
,
0000
0000
0001
0000
,
0000
0000
1000
0000
,
1000
0000
1000
0000
,
0000
0000
0001
0000
,
0001
0000
0001
0000
,
0000
0000
1000
0000
,
0000
0000
0100
0000
,
0000
0000
0010
0000
,
0000
0000
0001
0000
,
0000
0000
1000
0000
,
0000
0000
1001
0000
,
0000
0000
0000
0000
,
0001
0000
0000
0000
,
0010
0000
0010
0000
,
0010
0000
0000
0000
,
0001
0000
0000
0100
,
0100
0000
0000
0010
,
0010
0000
0000
0000
,
1000
0000
0000
0000
,
0001
0000
0000
0000
,
1000
0000
0000
0000
,
0010
0000
0010
0000
,
0010
0000
0000
0000
,
1000
0000
0000
0100
,
0100
0000
0000
0010
,
0010
0000
0000
0000
,
0001
0000
0000
0000
,
1000
0000
0000
0001
,
0000
0000
0000
1001
;

//---------------dance-single - Daff_4K!!----------------
#NOTEDATA:;
#CHARTNAME:Daff_4K!!;
#STEPSTYPE:dance-single;
#DESCRIPTION:Daff_4K!!;
#CHARTSTYLE:;
#DIFFICULTY:Easy;
#METER:5;
#RADARVALUES:0.216693,0.273876,0.157303,0.258427,0.000000,135.000000,121.000000,14.000000,23.000000,0.000000,0.000000,0.000000,0.000000,0.000000,0.216693,0.273876,0.157303,0.258427,0.000000,135.000000,121.000000,14.000000,23.000000,0.000000,0.000000,0.000000,0.000000,0.000000;
#CREDIT:Daff_4K!!;
#NOTES:
0000
0000
0000
0000
,
0000
0000
0000
0000
,
0000
0000
0000
0000
,
0000
0000
0000
0000
,
0000
0000
0000
0000
,
0000
2002
3003
0220
,
0330
2002
3003
0110
,
2002
0000
0000
3003
,
0020
0000
0130
0001
,
0010
0001
1000
0001
,
0100
0010
0000
1000
,
0010
1000
0001
0020
,
0000
0130
0000
2000
,
0000
0010
0000
0001
,
0000
3010
0000
1000
,
0000
0100
0000
0010
,
0001
1000
0000
0002
,
0000
0010
0000
1000
,
0000
0013
0000
0100
,
1000
0001
0000
1001
,
0000
0000
1000
0000
,
0010
0000
0100
0001
,
1000
0000
0001
0000
,
0010
0000
0100
1000
,
0001
0000
1001
0000
,
1000
0000
1001
0000
,
0001
0000
1001
0000
,
0000
0000
0010
0010
,
0100
0100
0002
0000
,
0000
2000
0000
0000
,
3003
0000
1001
1001
,
0001
0000
0100
0010
,
1000
0000
0100
0010
,
0001
0001
1000
1000
,
0010
0100
0001
1000
,
0200
0010
0310
0000
,
0002
1000
1003
0000
,
0020
0000
0100
0100
,
0130
0001
0010
0100
,
1000
1000
0010
0100
,
0001
0001
0010
0100
,
1000
1000
0001
0001
,
0010
0100
1000
0001
,
0200
0010
0310
0000
,
2000
0001
3001
0000
,
0020
0000
0100
0100
,
0130
1000
0010
0100
,
0002
0000
1003
0220
,
0000
0330
1001
1001
;

//---------------dance-single - Daff_4K!!----------------
#NOTEDATA:;
#CHARTNAME:Daff_4K!!;
#STEPSTYPE:dance-single;
#DESCRIPTION:Daff_4K!!;
#CHARTSTYLE:;
#DIFFICULTY:Medium;
#METER:8;
#RADARVALUES:0.349920,0.383427,0.393258,0.415730,0.016854,218.000000,183.000000,35.000000,37.000000,0.000000,0.000000,0.000000,0.000000,0.000000,0.349920,0.383427,0.393258,0.415730,0.016854,218.000000,183.000000,35.000000,37.000000,0.000000,0.000000,0.000000,0.000000,0.000000;
#CREDIT:Daff_4K!!;
#NOTES:
0000
0000
0000
0000
,
0000
0000
0000
0000
,
0000
0000
0000
0000
,
0000
0000
0000
0000
,
0000
0000
0000
0000
,
0000
0220
0330
2002
,
3003
0220
0330
1001
,
0220
0000
0000
0330
,
2002
0000
0000
0000
3003
0000
1000
0100
,
0000
0010
0100
0000
1000
0000
0001
0100
,
0000
0100
0010
0000
1000
0000
0001
0010
,
0000
0100
0010
0000
0001
0000
0100
0010
,
0000
1000
0000
0000
0001
0000
0000
0000
1001
0000
0000
0000
2000
0000
0000
0000
,
0100
0000
0001
0000
3100
0000
1000
0001
,
1000
0010
0100
0002
,
0100
0000
1000
0000
0103
0000
0001
1000
,
0001
0000
0010
0000
0100
0000
1000
0010
,
1000
0000
0001
0000
1000
0000
0001
0010
,
0001
1000
0001
0101
,
0000
1010
0000
0000
0110
0000
1001
0000
,
1000
0001
1000
0001
1000
0000
0010
0100
,
0010
1000
0100
0001
,
0010
0000
1000
0000
0001
0000
0010
0100
,
0010
0001
0100
1000
,
0100
0000
0001
1000
0000
2200
0000
3300
,
0100
0000
1000
0001
0000
0202
0000
0303
,
0100
0000
0010
2000
0000
0000
0001
0000
,
0001
0000
0000
0000
0001
0000
0000
0000
3001
0000
0000
0100
0000
0000
0010
0000
,
0000
1000
0000
0000
0001
0000
0000
0000
2001
0000
0000
0000
3200
0000
0000
0000
,
0320
0000
0032
2000
0000
0000
0000
0000
,
0000
0000
3003
0000
0100
0100
0110
0000
,
1001
0000
1000
0100
1000
0000
0010
0001
,
0010
0000
0100
0000
0001
1000
0001
0000
,
1000
0000
0001
0100
0001
0000
0010
1000
,
0010
0100
1000
0001
,
1001
0110
2002
3003
,
0011
1100
0022
0033
,
2002
3003
1000
0001
,
0100
0010
0100
0001
1000
0000
0001
0000
,
0011
0011
0100
1000
,
1010
1010
0100
0001
,
1000
0010
1000
0000
0001
0010
0001
0000
,
0100
0010
0100
0000
0001
0000
1000
0000
,
1001
0110
2002
3003
,
1010
0101
2020
3030
,
2002
3003
0001
1000
,
0100
0010
0100
0000
1000
0001
1000
0000
,
0020
0100
0130
2002
,
0000
3003
0000
0100
0100
0010
0010
0000
;

//---------------dance-single - Daff_4K!!----------------
#NOTEDATA:;
#CHARTNAME:Daff_4K!!;
#STEPSTYPE:dance-single;
#DESCRIPTION:Daff_4K!!;
#CHARTSTYLE:;
#DIFFICULTY:Hard;
#METER:11;
#RADARVALUES:0.499197,0.547753,0.494382,0.393258,0.157303,311.000000,267.000000,44.000000,35.000000,0.000000,0.000000,0.000000,0.000000,0.000000,0.499197,0.547753,0.494382,0.393258,0.157303,311.000000,267.000000,44.000000,35.000000,0.000000,0.000000,0.000000,0.000000,0.000000;
#CREDIT:Daff_4K!!;
#NOTES:
0000
0000
0000
0000
,
0000
0000
0000
0000
,
0000
0000
0000
0000
,
0000
0000
0000
0000
,
0000
0000
0000
0000
,
0000
2020
3030
0202
,
0303
0022
0033
1100
,
1001
0000
0001
0100
0010
1000
0100
0010
,
0001
1000
0001
1000
0001
1000
0001
1000
0001
0000
0000
0000
1000
0000
0100
1000
,
0000
0000
0001
0000
0010
0001
0000
0000
0100
0000
0010
0000
1000
0000
0001
1000
,
0000
0000
0100
0000
0001
0000
0000
0010
0000
0000
1000
0000
0001
0000
0100
0001
,
0000
0000
1000
0000
0010
1000
0000
0000
0100
0000
0010
0000
0000
0000
0110
0000
,
0000
1001
0000
0000
0001
0000
0100
0000
0010
0000
1000
0000
0200
0000
0000
0000
,
0001
0000
1000
0000
0310
0001
2000
0000
,
0010
0000
0001
0000
3100
0010
0002
0000
,
1003
0010
0200
0000
0301
0010
2000
0000
,
3010
0100
0010
0001
0100
0010
0200
0000
,
1000
0000
0001
0000
0310
1000
0002
0000
,
0010
0000
1000
0000
0103
0010
2000
0000
,
3100
0002
0000
0103
1000
0000
1001
0000
,
0001
0000
0100
0000
0010
0000
1000
0000
0001
0000
0000
0010
0001
0000
1000
0000
,
0001
0000
0000
0100
0010
0000
1000
0000
0100
0000
0000
0100
0010
0000
0000
0010
,
0001
0000
0000
0001
0100
0000
0010
0000
1000
0000
0000
0010
1000
0000
0001
0000
,
1000
0000
0000
0100
0010
0000
0001
0000
2000
0000
0000
0000
3010
0000
0100
0000
,
0001
0010
0100
1000
0000
2020
0000
3030
,
1000
0010
0100
0001
0000
0022
0000
0033
,
0010
0100
1000
0020
0000
0130
0002
0000
,
2003
0000
0000
0000
3100
0000
0010
0000
0001
0100
0000
0001
0100
0000
0010
1000
,
0000
0010
1000
0000
0100
0000
0000
0000
0012
0000
0000
0000
0103
0000
0000
0000
,
2010
0000
3100
0020
0000
0031
1000
0020
,
0000
0130
0001
0000
1001
1001
1001
0000
,
1010
0000
0000
0000
0101
0000
0000
0001
1000
0000
0100
0000
0010
0000
0000
0000
,
0011
0000
0000
0000
1100
0000
0000
1000
0001
0000
0100
0000
0010
0000
0000
0000
,
1000
0100
0010
0000
0001
0100
0010
0000
,
1000
0100
0001
0100
1000
0001
0100
0010
,
1010
0000
0000
1000
0100
0000
0001
0000
0100
0000
1000
0000
1001
0000
0000
0000
,
0011
0000
0000
0001
0100
0000
1000
0000
0100
0000
0001
0000
1001
0000
0000
0000
,
1200
0000
0001
0000
1000
0000
0310
0001
,
1000
0010
0100
0001
0010
0100
1000
0000
,
1100
0101
1100
1010
,
0101
1100
0101
0011
,
0100
1000
0010
0000
0100
0001
0010
0000
,
0001
0100
0010
1000
0100
0010
0001
1000
,
1010
0000
0000
0010
0100
0000
0001
0000
1000
0000
0100
0000
1001
0000
0000
0000
,
0011
0000
0000
0010
0100
0000
1000
0000
0001
0000
0100
0000
1001
0000
0000
0000
,
0021
0000
1000
0000
0001
0000
0130
1000
,
0010
0100
0001
0010
1000
0010
0001
0000
,
0202
0000
0303
2020
0000
3030
2002
0000
,
0000
0000
3003
0110
0110
1001
1001
0000
;

//---------------dance-single - Daff_4K!! TO THE TOP----------------
#NOTEDATA:;
#CHARTNAME:Daff_4K!! TO THE TOP;
#STEPSTYPE:dance-single;
#DESCRIPTION:Daff_4K!! TO THE TOP;
#CHARTSTYLE:;
#DIFFICULTY:Challenge;
#METER:14;
#RADARVALUES:0.616372,0.684691,0.561798,0.280899,0.415730,384.000000,334.000000,50.000000,25.000000,88.000000,0.000000,0.000000,0.000000,0.000000,0.616372,0.684691,0.561798,0.280899,0.415730,384.000000,334.000000,50.000000,25.000000,88.000000,0.000000,0.000000,0.000000,0.000000;
#CREDIT:Daff_4K!! TO THE TOP;
#NOTES:
// measure 0
0000
0000
0000
0000
,  // measure 1
0000
0000
0000
0000
,  // measure 2
0000
0000
0000
0000
,  // measure 3
0000
0000
0000
0000
,  // measure 4
0000
0000
0000
0000
,  // measure 5
MMMM
0000
2002
3003
MMMM
0000
0220
0330
,  // measure 6
MMMM
0000
2002
3003
MMMM
0000
0220
0330
,  // measure 7
1001
0000
0000
1000
0010
0000
0100
0000
0001
0000
0010
0000
0100
0000
1000
0000
,  // measure 8
0010
0100
0010
0100
0001
1000
0001
1000
0001
0000
MMMM
0000
1000
0000
0100
0010
,  // measure 9
0100
0000
1000
0000
0001
0100
0000
0001
0010
0000
1000
0000
0010
0000
0001
1000
,  // measure 10
0001
0000
0100
0000
0010
1000
0000
1000
0100
0000
0010
0000
0001
0000
0100
0010
,  // measure 11
0100
0000
0001
0000
1000
0100
0000
1000
0010
0000
0100
0000
0001
0000
1001
0000
,  // measure 12
0000
0110
0000
0000
1001
0000
0100
0010
0100
0000
0010
0000
1000
0000
0100
0000
,  // measure 13
0010
0000
0001
0100
0000
0000
0110
0000
0000
0000
1000
0000
0100
0000
0001
0000
,  // measure 14
0100
0000
1000
0100
0000
0000
1100
0000
0000
0000
1010
0000
0001
0000
0100
0000
,  // measure 15
0010
0000
1000
0100
0000
0000
0110
0000
0000
0000
0001
0000
0100
0000
1000
0000
,  // measure 16
0100
0000
0001
0100
0000
0000
1020
0000
0000
0000
0130
0000
0001
0000
1000
0000
,  // measure 17
0100
0000
0010
0001
0000
0000
0110
0000
0000
0000
0001
0000
1000
0000
0001
0000
,  // measure 18
0100
0000
0010
1000
0000
0000
0100
0000
0010
0000
0001
0000
0101
0000
0000
0010
,  // measure 19
1000
0000
1100
0000
0000
0010
0001
0000
1001
0000
0000
0000
MMMM
0000
0000
0000
,  // measure 20
1000
0001
1000
0001
1000
0001
1000
0001
1000
0000
0000
0100
0001
0000
0100
0000
,  // measure 21
0010
0000
0000
0001
1000
0000
0001
0000
0100
0000
0010
1000
0010
0000
1000
0000
,  // measure 22
0100
0010
0000
0010
0001
0000
1000
0000
0001
0000
0000
0100
1000
0000
0100
0000
,  // measure 23
0010
0000
0000
1000
0001
0000
1000
0000
0100
0000
0010
0100
0010
0000
0001
0000
,  // measure 24
1000
0010
1000
0000
0100
0000
0110
0000
0000
0000
1001
0000
MMMM
0000
0000
0000
,  // measure 25
0001
0010
0001
0000
0100
0000
0110
0000
0000
0000
1001
0000
MMMM
0000
0000
0000
,  // measure 26
1000
0001
1000
0000
0001
0000
0020
0000
0000
0000
0100
0000
0100
0000
0000
0000
,  // measure 27
1030
0000
0010
0000
0001
0000
1000
0000
0010
0100
0000
0010
0100
0000
0001
1000
,  // measure 28
0000
0000
0000
0001
0000
0000
1000
0000
0000
0000
0000
0000
0100
0000
0000
0000
0010
0000
0000
0000
0100
0000
0000
0000
0002
0000
0000
0000
0000
0000
0000
0000
0000
0000
0000
0000
2003
0000
0000
0000
0000
0000
0000
0000
0000
0000
0000
0000
,  // measure 29
3020
0000
0130
2000
0000
3002
0000
0203
,  // measure 30
0000
0310
1000
0001
0110
1001
0110
MMMM
,  // measure 31
1001
0000
0000
0001
0100
0000
0010
0000
1000
0100
0000
0100
0010
0000
0001
0000
,  // measure 32
1000
0000
0100
1000
0100
0000
0010
0000
0001
0100
0000
0100
0010
0000
1000
0000
,  // measure 33
0100
0010
0001
0000
1000
0000
0001
0000
0100
0010
1000
0000
0001
0000
1000
0000
,  // measure 34
0100
0010
0100
0000
1000
0010
1000
0000
0001
0010
0001
0000
0100
0001
1000
0001
,  // measure 35
1000
0000
0001
0010
0000
0010
0100
0000
1000
0000
0110
0000
1001
0000
MMMM
0000
,  // measure 36
0001
0000
1000
0010
0000
0010
0100
0000
0001
0000
0110
0000
1001
0000
MMMM
0000
,  // measure 37
1200
0000
0001
0000
1000
0000
0310
0001
,  // measure 38
0100
0000
0010
1000
0000
0001
0010
0000
0100
0000
1000
0001
1000
0000
0001
0000
,  // measure 39
0101
MMMM
1010
MMMM
0011
MMMM
0001
1000
,  // measure 40
1100
MMMM
0011
MMMM
1010
MMMM
1000
0001
,  // measure 41
0010
0100
1100
MMMM
0010
0100
0101
MMMM
,  // measure 42
0001
0000
0010
0100
0010
0000
1000
0000
0001
0000
0100
0010
0100
0010
0001
0000
,  // measure 43
1000
0000
0001
0100
0000
0100
0010
0000
0001
0000
0110
0000
1001
0000
MMMM
0000
,  // measure 44
0001
0000
1000
0100
0000
0100
0010
0000
1000
0000
0110
0000
1001
0000
MMMM
0000
,  // measure 45
1020
0000
0130
0001
0020
0000
0130
1000
,  // measure 46
0001
0000
0100
0010
1000
0000
0001
0000
1000
0000
0100
0010
0001
0000
1000
0000
,  // measure 47
2020
0000
3030
0202
0000
0303
2002
0000
,  // measure 48
3003
MMMM
0000
0110
0110
1001
1001
0000
;
